#VERSION:0.83;
#TITLE:Fiesta!;
#SUBTITLE:;
#ARTIST:Mashd N Kutcher & Reece Low;
#TITLETRANSLIT:;
#SUBTITLETRANSLIT:;
#ARTISTTRANSLIT:;
#GENRE:;
#ORIGIN:;
#CREDIT:;
#BANNER:Fiesta!.png;
#BACKGROUND:Fiesta!-bg.png;
#PREVIEWVID:;
#JACKET:Fiesta!-jacket.png;
#CDIMAGE:;
#DISCIMAGE:;
#LYRICSPATH:;
#CDTITLE:cdtitle.png;
#MUSIC:Fiesta!.ogg;
#OFFSET:-0.148000;
#SAMPLESTART:26.631001;
#SAMPLELENGTH:13.241000;
#SELECTABLE:YES;
#BPMS:0.000=145.000;
#STOPS:;
#DELAYS:;
#WARPS:;
#TIMESIGNATURES:0.000=4=4;
#TICKCOUNTS:0.000=4;
#COMBOS:0.000=1;
#SPEEDS:0.000=1.000=0.000=0;
#SCROLLS:0.000=1.000,
64.000=0.000,
64.500=2.000,
65.000=0.000,
65.500=2.000,
66.000=0.000,
66.500=2.000,
67.000=1.500,
67.500=0.500,
68.000=1.000,
100.500=0.750,
101.000=0.500,
116.000=0.750,
117.000=1.000,
127.500=0.000,
130.000=0.500,
130.500=0.750,
131.000=1.000,
131.500=1.500,
132.000=1.000,
256.000=0.000,
256.500=2.000,
257.000=0.000,
257.500=2.000,
258.000=0.000,
258.500=2.000,
259.000=1.500,
259.500=0.500,
260.000=1.000;
#FAKES:;
#LABELS:0.000=Song Start;
#BGCHANGES:;
#KEYSOUNDS:;
#ATTACKS:
;

//---------------dance-single - ----------------
#NOTEDATA:;
#CHARTNAME:;
#STEPSTYPE:dance-single;
#DESCRIPTION:;
#CHARTSTYLE:;
#DIFFICULTY:Medium;
#METER:12;
#RADARVALUES:0.471469,0.539441,0.377386,0.517981,0.036999,446.000000,395.000000,51.000000,70.000000,0.000000,0.000000,0.000000,0.000000,0.000000,0.471469,0.539441,0.377386,0.517981,0.036999,446.000000,395.000000,51.000000,70.000000,0.000000,0.000000,0.000000,0.000000,0.000000;
#CREDIT:Pilgrimsito;
#OFFSET:-0.148000;
#BPMS:0.000000=145.000000
;
#STOPS:;
#DELAYS:;
#WARPS:;
#TIMESIGNATURES:0.000000=4=4
;
#TICKCOUNTS:0.000000=4
;
#COMBOS:0.000000=1
;
#SPEEDS:0.000000=1.000000=0.000000=0
;
#SCROLLS:0.000000=1.000000
,100.500000=0.750000
,101.000000=0.500000
,116.000000=0.750000
,127.500000=0.000000
,130.000000=0.500000
,130.500000=0.750000
,131.000000=1.000000
,131.500000=1.500000
,132.000000=1.000000
;
#FAKES:;
#LABELS:0.000000=Song Start
;
#NOTES:
0000
0000
0000
0000
,
0000
0000
0000
0000
,
0000
0000
0000
0000
,
0000
0000
0000
0000
,
0000
0000
0000
0000
,
1001
0000
1000
0000
0100
0010
0100
0000
,
2000
3100
0002
0103
,
1001
0000
0001
0000
0100
0010
0100
0000
,
0002
0103
2000
3100
,
1000
0010
1000
0010
1000
0010
1000
0010
,
0100
0001
0100
0001
0100
0001
0100
0001
,
0010
0100
0010
0100
0010
0100
0010
0100
,
1000
0001
1000
0001
1000
0001
1000
0001
,
0200
0000
0020
0030
0002
0003
0020
0030
,
0002
0003
0020
0030
0002
0003
0020
0030
,
0002
0000
0000
0000
,
0303
0000
0000
0000
,
0011
0000
1000
0000
0001
0000
0100
0010
,
1010
0000
1000
0000
0100
0000
1000
0010
,
0110
0000
0001
0000
1000
0000
0100
0010
,
0011
0000
0001
0000
1000
0000
0001
0100
,
1000
0000
0100
0000
0001
0000
0010
0100
,
1100
1000
0001
0100
,
0010
0010
0100
0200
0000
0302
0000
0023
,
0000
0032
0000
0103
0200
0000
0310
0000
,
1001
0000
1000
1000
0100
0100
1000
0000
,
0000
0001
1000
1000
0010
0010
0100
0000
,
0000
0001
0001
0010
0010
0001
1000
0000
,
0000
0010
0010
0100
0100
0001
1000
0100
,
0001
0100
1000
0001
0010
0001
0100
0001
,
1001
1000
0010
1000
0100
1000
0010
1000
,
0001
0001
0010
0010
0100
0100
1000
0020
,
0000
0000
0000
0030
,
2002
3003
0000
0000
,
1010
1000
0001
0010
,
0011
0001
1000
0100
,
1100
1000
0001
0100
,
2002
3003
0001
0100
,
0101
0001
1000
0100
,
1100
1000
0010
0100
,
0001
0000
0000
0000
0000
0000
0000
0000
0000
0001
0000
0000
0000
0000
0000
0000
0000
0000
0001
0000
0000
0000
0000
0000
1000
0000
0000
0000
0010
0000
0000
0000
1000
0000
0000
0000
0001
0000
0000
0000
0010
0000
0000
0000
0001
0000
0000
0000
,
1000
0100
1000
0020
0000
2030
0000
3002
,
0000
2003
0000
3010
0010
0000
0200
0000
,
0301
0010
0001
0200
0000
0302
0000
2003
,
0000
3002
0000
0103
0100
0000
0020
0000
,
1030
0001
1000
0020
0000
2030
0000
3200
,
0000
2300
0000
3001
0001
0000
0200
0000
,
0301
1000
0001
0020
0000
0032
0000
1003
,
0001
0000
0000
0000
0000
0000
0000
0000
0000
0001
0000
0000
0000
0000
0000
0000
0000
0000
0001
0000
0000
0000
0000
0000
1000
0000
0000
0000
0100
0000
0000
0000
1000
0000
0000
0000
0001
0000
0000
0000
0100
0000
0000
0000
0001
0000
0000
0000
,
2000
0000
0000
0000
3100
0010
0100
1000
,
1002
0000
0000
0000
0103
0010
0100
0001
,
2001
0000
0000
0000
3100
0010
0100
1000
,
0010
0100
0010
1000
0001
0010
0100
1000
,
1002
0000
0000
0000
0013
0100
0010
0001
,
2001
0000
0000
0000
3010
0100
0010
1000
,
1002
0000
0000
0000
0013
0100
0010
0001
,
0100
0010
0100
0001
1000
0100
0010
0001
,
1000
0010
1000
0010
1000
0010
1000
0010
,
0100
0001
0100
0001
0100
0001
0100
0001
,
0010
0100
0010
0100
0010
0100
0010
0100
,
1000
0001
1000
0001
1000
0001
1000
0001
,
0200
0000
2000
3000
0002
0003
2000
3000
,
0002
0003
2000
3000
0002
0003
2000
3000
,
0002
0000
0000
0000
,
0303
0000
0000
0000
,
1001
0000
1100
0000
1100
0000
1000
0010
,
0110
0000
0101
0000
0101
0000
0001
1000
,
1100
0000
0110
0000
0110
0000
0100
1000
,
1010
0000
1001
0000
1001
0000
0001
0010
,
1000
0000
0110
0000
0110
0000
0010
0001
,
1001
0000
0101
0000
0101
0000
0100
0010
,
1000
1000
0100
0200
0000
2300
0000
3020
,
0000
2030
0000
3100
0200
0000
0310
0000
,
2002
3003
0010
0100
0010
0100
0010
0100
,
2002
3003
0100
0010
0100
0010
0100
0000
,
1001
0000
1100
0000
1010
0000
0100
0001
,
1001
0000
0101
0000
0011
0000
0100
1000
,
0010
0000
1010
0000
1100
0000
0100
0010
,
0011
0000
0101
0000
1010
0000
0100
0001
,
1000
1000
0010
0020
0000
2030
0000
3200
,
0000
2300
0000
3010
0020
0000
0200
0000
,
0330
0000
0000
0000
;

//---------------dance-single - ----------------
#NOTEDATA:;
#CHARTNAME:;
#STEPSTYPE:dance-single;
#DESCRIPTION:;
#CHARTSTYLE:;
#DIFFICULTY:Hard;
#METER:14;
#RADARVALUES:0.638491,0.779192,0.510582,0.799171,0.177594,604.000000,535.000000,69.000000,108.000000,18.000000,0.000000,0.000000,0.000000,0.000000,0.638491,0.779192,0.510582,0.799171,0.177594,604.000000,535.000000,69.000000,108.000000,18.000000,0.000000,0.000000,0.000000,0.000000;
#CREDIT:Pilgrimsito;
#OFFSET:-0.148000;
#BPMS:0.000000=145.000000
;
#STOPS:;
#DELAYS:;
#WARPS:;
#TIMESIGNATURES:0.000000=4=4
;
#TICKCOUNTS:0.000000=4
;
#COMBOS:0.000000=1
;
#SPEEDS:0.000000=1.000000=0.000000=0
;
#SCROLLS:0.000000=1.000000
,64.000000=0.000000
,64.500000=2.000000
,65.000000=0.000000
,65.500000=2.000000
,66.000000=0.000000
,66.500000=2.000000
,67.000000=1.500000
,67.500000=0.500000
,68.000000=1.000000
,100.500000=0.750000
,101.000000=0.500000
,116.000000=0.750000
,117.000000=1.000000
,127.500000=0.000000
,130.000000=0.500000
,130.500000=0.750000
,131.000000=1.000000
,131.500000=1.500000
,132.000000=1.000000
,256.000000=0.000000
,256.500000=2.000000
,257.000000=0.000000
,257.500000=2.000000
,258.000000=0.000000
,258.500000=2.000000
,259.000000=1.500000
,259.500000=0.500000
,260.000000=1.000000
;
#FAKES:;
#LABELS:0.000000=Song Start
;
#NOTES:
// measure 0
0000
0000
0000
0000
,  // measure 1
0000
0000
0000
0000
,  // measure 2
0000
0000
0000
0000
,  // measure 3
0000
0000
0000
0000
,  // measure 4
0000
0000
0000
0000
,  // measure 5
1002
0000
1003
0000
0010
0000
0100
0000
0010
0000
1000
0001
1000
0000
0100
0000
,  // measure 6
0010
0000
0000
0010
0001
0000
0100
0000
0010
0000
0000
0010
1000
0000
0100
0000
,  // measure 7
2001
0000
3001
0000
0010
0000
0100
0000
0010
0000
0001
1000
0001
0000
0100
0000
,  // measure 8
0010
0000
0000
0010
1000
0000
0100
0000
0010
0000
0000
0010
0001
0000
0100
0000
,  // measure 9
1002
1003
0100
1000
0001
1000
0100
1000
,  // measure 10
2001
3001
0100
0001
1000
0001
0100
0001
,  // measure 11
1002
1003
0010
1000
0100
1000
0010
1000
,  // measure 12
2001
3001
0010
0001
0100
0001
0010
0001
,  // measure 13
1000
1000
0010
0010
0100
0100
0001
0001
,  // measure 14
1000
1000
0100
0100
0010
0010
0001
0001
,  // measure 15
0200
0010
0010
0010
0010
0010
0010
0010
,  // measure 16
M310
000M
M000
MMMM
,  // measure 17
2002
3003
0001
0000
0010
0000
0100
0000
0010
0000
0001
0000
0100
0000
0010
0000
,  // measure 18
0220
0330
0100
0000
1000
0000
0100
0000
0010
0000
0100
0000
0001
0000
0100
0000
,  // measure 19
2002
3003
1000
0000
0100
0000
1000
0000
0010
0000
1000
0000
0100
0000
0010
0000
,  // measure 20
0022
0033
0001
0000
1000
0000
0100
0000
0010
0000
0100
0000
0001
0000
0100
0000
,  // measure 21
1000
0010
0100
0001
1000
0001
0100
0010
,  // measure 22
2020
3030
1000
0001
1000
0000
0100
0000
0001
0000
0100
0000
1000
0000
0010
0000
,  // measure 23
0100
0100
0001
0020
0000
2030
0000
3020
,  // measure 24
0000
0032
0000
0103
0200
0000
0010
0300
,  // measure 25
2002
3003
0001
0000
0100
0000
0001
0000
0010
0000
0100
0000
0110
0000
0010
0000
,  // measure 26
0001
0000
1000
0000
0001
0100
0001
0000
1000
0000
0100
0000
0001
0000
0100
0000
,  // measure 27
0010
0000
0001
0000
0101
0000
0100
0000
0010
0000
1000
0001
1000
0000
0100
0000
,  // measure 28
0010
0110
0011
0001
1000
1010
0010
0100
,  // measure 29
1000
0100
0101
0001
0011
0010
0110
0100
,  // measure 30
1100
0000
1000
0001
1000
0000
0010
0000
0110
0000
0100
0000
0101
0000
0001
0000
,  // measure 31
0010
0100
0010
0000
0001
0000
1000
0001
0010
0000
0001
1000
0010
0000
0200
0000
,  // measure 32
0000
0000
0000
0300
,  // measure 33
2002
3003
0000
0000
,  // measure 34
0000
0000
0000
0000
,  // measure 35
0000
0000
0000
0000
0000
0000
1000
0100
1000
0000
2000
0000
3000
0000
0000
0000
,  // measure 36
0000
0000
0000
0000
0000
0000
0001
0000
0000
0010
0000
0000
0001
0000
1000
0000
0010
0000
0200
0000
0000
0300
0000
0000
,  // measure 37
2002
0000
3003
0001
1000
0000
0100
0000
0000
0000
1000
0001
0100
0000
0010
0000
,  // measure 38
0010
0000
0000
1000
0001
0000
1000
0100
1000
0000
2000
0000
3000
0000
1000
0000
,  // measure 39
0001
0000
0000
1000
0001
0000
0100
0000
0000
0000
0001
1000
0100
0000
0010
0000
,  // measure 40
0010
0000
0000
0000
0000
0000
0000
0000
0000
0100
0000
0000
0000
0000
0000
0000
0000
0000
0010
0000
0000
0000
0000
0000
0001
0000
0000
0000
1000
0000
0000
0000
0001
0000
0000
0000
1000
0000
0000
0000
0001
0000
0000
0000
1000
0000
0000
0000
,  // measure 41
0002
0203
0320
0230
0000
0302
0000
0023
,  // measure 42
0000
2030
0000
3010
0020
0000
0230
0300
,  // measure 43
2000
3020
0230
0320
0000
2030
0000
3200
,  // measure 44
0000
0302
0000
0103
0200
0000
0320
0030
,  // measure 45
1002
0023
0230
0320
0000
0032
0000
0203
,  // measure 46
0000
2300
0000
3100
0200
0000
0320
0030
,  // measure 47
2000
3200
0320
0230
0000
2300
0000
3010
,  // measure 48
0010
0000
0000
0000
0000
0000
0000
0000
0000
0100
0000
0000
0000
0000
0000
0000
0000
0000
0010
0000
0000
0000
0000
0000
1000
0000
0000
0000
0100
0000
0000
0000
0010
0000
0000
0000
0001
0000
0000
0000
0100
0000
0000
0000
0010
0000
0000
0000
,  // measure 49
2020
0000
0000
0000
0000
0000
3030
0000
1000
0000
0100
0010
0100
0000
1000
0000
,  // measure 50
2020
0000
0000
0000
0000
0000
3030
0000
1000
0000
0100
0010
0100
0000
1000
0000
,  // measure 51
2020
0000
0000
0000
0000
0000
3030
0000
1000
0000
0100
0010
0100
0000
1000
0000
,  // measure 52
0010
0000
0100
0000
0001
0000
1000
0000
0001
0000
0100
0010
0100
0000
0001
0000
,  // measure 53
0022
0000
0000
0000
0000
0000
0033
0000
0001
0000
0100
0010
0100
0000
0001
0000
,  // measure 54
0022
0000
0000
0000
0000
0000
0033
0000
0001
0000
0100
0010
0100
0000
0001
0000
,  // measure 55
0022
0000
0000
0000
0000
0000
0033
0000
0001
0000
0100
0010
0100
0000
0001
0000
,  // measure 56
0010
0000
0100
0000
1000
0000
0001
0000
1000
0000
0100
0010
0100
0000
1000
0000
,  // measure 57
2001
3001
0010
0001
1000
0001
0010
0001
,  // measure 58
1002
1003
0010
1000
0001
1000
0010
1000
,  // measure 59
2001
3001
0100
0001
0010
0001
0100
0001
,  // measure 60
1002
1003
0100
1000
0010
1000
0100
1000
,  // measure 61
0001
0001
0100
0100
0010
0010
1000
1000
,  // measure 62
0001
0001
0010
0010
0100
0100
1000
1000
,  // measure 63
0020
0100
0100
0100
0100
0100
0100
0100
,  // measure 64
M130
000M
M000
MMMM
,  // measure 65
2002
3003
1000
0000
0101
0000
1000
0000
0101
0000
1000
0000
0101
0000
0010
0000
,  // measure 66
2002
3003
0001
0000
1010
0000
0001
0000
1010
0000
0001
0000
1010
0000
0100
0000
,  // measure 67
2002
3003
0001
0000
1100
0000
0001
0000
1100
0000
0001
0000
1100
0000
0010
0000
,  // measure 68
2002
3003
1000
0000
0011
0000
1000
0000
0011
0000
1000
0000
0011
0000
1000
0000
,  // measure 69
0010
0100
1001
0100
1001
0100
1001
0100
,  // measure 70
0022
0033
0001
1000
0001
0000
0010
0000
1001
0000
0010
0000
1001
0000
1000
0000
,  // measure 71
0100
0100
1000
0020
0000
0032
0000
0023
,  // measure 72
0000
2030
0000
3100
0200
0000
0010
0300
,  // measure 73
2002
3003
0010
0000
0010
0000
0100
0000
0100
0000
0010
0000
0010
0000
0100
0000
,  // measure 74
2002
3003
0100
0000
0100
0000
0010
0000
0010
0000
0100
0000
0100
0000
MMMM
0000
,  // measure 75
1001
0000
0001
0010
0001
0000
0100
0000
0110
0000
0010
1000
0010
0000
0100
0000
,  // measure 76
0101
0000
0001
1000
0001
0000
0010
0000
0110
0000
0100
1000
0100
0000
1000
0000
,  // measure 77
0010
0000
1000
0000
1001
0000
0001
0000
0011
0000
0001
0100
0001
0000
0010
0000
,  // measure 78
0110
0000
0100
1000
0100
0000
0010
0000
0011
0000
0001
1000
0001
0000
0100
0000
,  // measure 79
0110
0020
2030
3200
0000
0302
0000
0203
,  // measure 80
0000
2300
0000
3010
0020
0000
0200
0000
,  // measure 81
0330
0000
0000
0000
;
