#TITLE:Feel Again;
#SUBTITLE:;
#ARTIST:dj VERTICAI;
#TITLETRANSLIT:;
#SUBTITLETRANSLIT:;
#ARTISTTRANSLIT:;
#GENRE:;
#CREDIT:;
#BANNER:Feel Again.png;
#BACKGROUND:Feel Again-bg.png;
#LYRICSPATH:;
#CDTITLE:;
#MUSIC:Feel Again.ogg;
#OFFSET:-1.624128;
#SAMPLESTART:19.174927;
#SAMPLELENGTH:15.000000;
#SELECTABLE:YES;
#BPMS:0.000000=150.000000
;
#STOPS:
;
#BGCHANGES:;
#KEYSOUNDS:;
#ATTACKS:;

//---------------dance-single - ----------------
#NOTES:
     dance-single:
     :
     Beginner:
     3:
     0.156157,0.261426,0.084084,0.030576,0.000000,143.000000,132.000000,11.000000,4.000000,0.000000,0.000000,0.156157,0.261426,0.084084,0.030576,0.000000,143.000000,132.000000,11.000000,4.000000,0.000000,0.000000:
0000
0000
0000
0000
,
0000
0000
0000
0000
,
0000
0000
0000
0000
,
0000
0000
0000
0000
,
1000
1000
0000
0000
,
0000
0000
0000
0000
,
0001
0001
0000
0000
,
1000
0001
1000
0001
,
0000
0100
0000
0100
,
0000
0010
0000
0010
,
0000
0100
0000
0100
,
0100
0000
0000
0000
,
0000
0001
0000
0001
,
0000
0001
0000
0100
,
0000
0010
0000
0010
,
0000
0010
0000
1000
,
0000
1000
0000
1000
,
0000
1000
0000
0100
,
0000
0010
0000
0010
,
0010
0000
0001
0000
,
0000
0001
0000
0001
,
0000
1000
0000
1000
,
0000
0010
0000
0010
,
0000
0100
0000
0100
,
0000
0001
0000
1000
,
0000
0001
0000
1000
,
0000
0100
0000
0010
,
0010
0000
0000
0000
,
1001
0000
0000
1001
,
0000
0000
0110
0000
,
0000
0110
0000
0000
,
0001
0000
0001
0000
,
1000
0000
1000
0000
,
1001
0000
0000
1001
,
0000
0000
0110
0000
,
0000
0110
0000
0000
,
1000
0000
1000
0000
,
0001
0000
0001
0000
,
0020
0000
0000
0000
,
0000
0000
0000
0000
,
0030
0000
0000
0000
,
0000
0000
0000
0000
,
0000
0000
0000
0000
,
0000
0000
0000
0000
,
0000
1000
0000
1000
,
0000
0001
0000
0001
,
0000
0100
0000
0100
,
0010
0100
0010
0000
,
0000
1000
1000
0000
,
0000
0100
0000
0010
,
0000
0001
0001
0000
,
0000
0100
0000
0010
,
0000
1000
1000
0000
,
1000
0001
1000
0001
,
1000
0100
0010
0001
,
0200
0000
0000
0300
,
0000
1000
0000
0100
,
0000
1000
0000
0001
,
0000
1000
0000
0010
,
0000
1000
0000
1000
,
0000
0001
0000
0100
,
0000
0001
0000
1000
,
0000
0001
0000
0010
,
0100
0010
0100
0000
,
0000
1000
0000
1000
,
0000
0001
0000
0001
,
0000
0100
0000
0100
,
0010
0100
0010
0000
,
0000
1000
0000
0001
,
0000
0001
0000
1000
,
0000
0000
0100
0000
0000
0000
0000
0100
,
0000
0010
0000
0010
0000
0000
0000
0000
,
0000
0001
0000
1001
,
0000
1000
0000
1001
,
0000
0001
0000
1000
,
2002
0000
0000
0000
,
3003
0000
0000
0000
;

//---------------dance-single - ----------------
#NOTES:
     dance-single:
     :
     Easy:
     7:
     0.248977,0.290473,0.045864,0.114660,0.000000,228.000000,222.000000,6.000000,15.000000,0.000000,0.000000,0.248977,0.290473,0.045864,0.114660,0.000000,228.000000,222.000000,6.000000,15.000000,0.000000,0.000000:
0000
0000
0000
0000
,
0000
0000
0000
0000
,
0000
0000
0000
0000
,
0000
0000
0000
0000
,
1000
1000
0000
0000
,
0000
0000
0000
0000
,
0001
0000
0001
0000
0000
0001
0000
0000
,
1000
0001
1000
0001
,
1000
0100
0010
0001
,
0001
0100
0010
1000
,
1000
0001
1000
0010
,
0200
0000
0000
0000
,
0300
0001
0100
0010
,
0100
0001
0100
0020
,
0030
1000
0100
1000
,
0010
1000
0100
0200
,
0300
1000
0010
0100
,
0010
1000
0010
0200
,
0300
0001
0010
0100
,
0010
0010
0100
0100
,
1000
1001
0001
0100
,
0001
1000
0001
0010
,
0100
1000
0001
1000
,
0010
1000
2000
3001
,
1000
0100
0001
0100
,
1000
0010
0001
0010
,
1000
0001
0010
0100
,
1000
1000
2000
3000
,
0001
0000
0001
0010
,
0000
0010
0100
0000
,
0100
1000
0000
1000
,
0001
0100
0001
1000
,
0100
1000
0001
0100
,
0001
0000
1000
0010
,
0000
0010
0100
0000
,
0100
0001
0000
0001
,
1000
0100
1000
0100
,
0010
0001
0010
0001
,
0200
0000
0000
0000
,
0020
0000
0000
0000
,
0330
0000
0000
0000
,
0000
0000
0000
0000
,
0000
0000
0000
0000
,
0000
0000
0000
0000
,
0000
0001
0000
0001
,
0000
1000
0000
1000
,
0000
0001
0000
1000
,
0000
0110
2002
0000
,
3003
0001
0001
0000
,
0100
0000
0000
0001
0000
0001
0000
0000
,
1001
1000
1000
0000
,
0100
0000
0000
1000
0000
0000
0100
0000
,
1000
0010
0100
0001
,
0001
0010
0100
1000
,
0001
0100
0010
1000
,
0200
0000
0000
0300
,
1000
1000
0100
1000
,
0010
0010
1000
0010
,
0100
0100
0001
0100
,
0001
0010
1000
0010
,
0001
0001
0010
0001
,
0100
0100
0001
0100
,
0010
0010
1000
0010
,
1000
1000
0002
0003
,
1000
0100
0010
0001
,
0100
0010
1000
0010
,
0100
0001
0010
0100
,
1000
1000
0001
0001
,
1000
0010
0100
0010
,
1000
0001
0010
0001
,
0010
0000
0100
0000
1000
0000
0000
0001
,
0000
0100
0000
0220
0000
0000
0330
0000
,
0001
0100
0010
1000
,
1000
0100
0010
0001
,
0001
1000
0001
0010
,
0200
0000
0000
0300
,
1001
0000
0000
0000
;

//---------------dance-single - ----------------
#NOTES:
     dance-single:
     :
     Medium:
     10:
     0.351626,0.435710,0.252253,0.405134,0.026754,322.000000,289.000000,33.000000,53.000000,0.000000,0.000000,0.351626,0.435710,0.252253,0.405134,0.026754,322.000000,289.000000,33.000000,53.000000,0.000000,0.000000:
0000
0000
0000
0000
,
0000
0000
0000
0000
,
0000
0000
0000
0000
,
0000
0000
0000
0000
,
1001
1001
0000
0000
,
0000
0000
0000
0000
,
1100
0000
0101
0000
0000
1100
0000
0000
,
1001
0011
1010
0110
,
0100
1001
0100
1001
,
0010
1001
0010
1001
,
1000
0100
1000
0100
0010
0001
0010
0001
,
0200
0000
0000
0310
,
1001
0000
0000
0000
0001
0000
0100
0000
0001
0000
0000
0001
0000
0000
1000
0000
,
0001
0000
0000
0001
0000
0000
0010
0000
0001
0000
0000
0000
0001
0000
0010
0000
,
0100
0000
0000
0000
1000
0000
0100
0000
1000
0000
0000
1000
0000
0000
0001
0000
,
1000
0000
0000
1000
0000
0000
0010
0000
0100
0000
0000
0000
0002
0000
0000
0000
,
1003
0000
0000
0000
1000
0000
0010
0000
1000
0000
0000
1000
0000
0000
0001
0000
,
1000
0000
0000
1000
0000
0000
0100
0000
1000
0000
0000
0000
1000
0000
0100
0000
,
0010
0000
0000
0000
0001
0000
0010
0000
0001
0000
0000
0001
0000
0000
1000
0000
,
0001
0101
1001
1100
,
1000
1000
0001
0000
0020
0000
0230
0000
,
2300
0000
3200
0000
0320
0000
0031
1000
,
0001
0200
0302
2003
,
3020
0000
0230
0000
0302
0000
1003
1000
,
0002
0203
0320
2030
,
3200
0320
0032
0023
,
0130
1100
1001
0101
,
0001
0000
0001
0000
1000
0001
1000
0001
,
0020
0000
0000
0130
0000
0000
2000
0000
,
0000
3100
0000
0000
0020
0000
0000
0031
,
0000
0000
2000
0000
0000
3010
0000
0000
,
0100
0000
0001
0000
0010
0100
0010
0000
,
0100
0000
1000
0000
0010
0100
0010
0000
,
0200
0000
0000
0310
0000
0000
2000
0000
,
0000
3010
0000
0000
0200
0000
0000
0301
,
0000
0000
0020
0000
0000
0130
0000
0000
,
1000
0000
0100
0000
0010
0001
0010
0000
,
0001
0000
0100
0000
0010
1000
0010
0000
,
0200
0000
0000
0000
,
0020
0000
0000
0000
,
0330
0000
0000
0000
,
0000
0000
0000
0000
,
0000
0000
0000
0000
,
0000
0000
0000
0000
,
2000
0100
0100
3000
,
0200
0320
0032
2003
,
3002
0000
0100
0000
0100
0000
0003
0100
,
0000
0010
0000
2002
0000
0000
3003
0000
,
0001
0000
0101
0000
0101
0000
0000
0001
,
0100
0001
0000
1000
0000
0020
0000
0000
,
1030
0000
1100
0000
1100
0000
0000
0100
,
1000
0100
0000
0010
0000
0001
0010
0002
,
0003
0101
1000
1100
,
0002
0203
0320
2030
,
3001
0010
0100
1000
0100
0010
0001
1000
,
0020
0000
0000
0030
,
0000
1000
0000
0010
0000
0100
0000
0001
,
0000
1000
0000
0100
0000
0010
0100
0010
,
0000
0001
0000
0100
0000
0010
0000
1000
,
0000
0001
0000
0010
0000
0100
1000
0001
,
0000
1000
0000
0001
0000
0100
0000
0010
,
0000
1000
0000
0001
0000
0010
0100
0010
,
0001
0000
1000
0000
0010
0000
0010
0100
,
0002
2003
0002
3003
,
0001
0100
0010
0000
0010
1000
0001
0000
,
0001
0100
0010
0000
0010
1000
0000
0001
,
0000
1000
0100
0000
0010
0000
0100
0000
,
2000
0000
3020
0000
0130
0001
0000
0001
,
1000
0100
0010
0000
0100
1000
0000
1000
,
0001
0100
0010
0000
0100
0001
0000
1000
,
0000
0100
0010
0000
0100
1000
0000
1001
,
0000
1000
0001
0200
0000
0000
0300
0000
,
0001
0101
1000
1100
,
0001
0011
1000
1010
,
0001
0100
0001
0100
0010
1000
0010
1000
,
0200
0000
0000
0310
,
1001
0000
0000
0000
;

//---------------dance-single - ----------------
#NOTES:
     dance-single:
     :
     Hard:
     13:
     0.507782,0.580947,0.321049,0.305761,0.099372,465.000000,423.000000,42.000000,40.000000,0.000000,0.000000,0.507782,0.580947,0.321049,0.305761,0.099372,465.000000,423.000000,42.000000,40.000000,0.000000,0.000000:
0000
0000
0000
0000
,
0000
0000
0000
0000
,
0000
0000
0000
0000
,
0000
0000
0000
0000
,
1001
1001
0000
0000
,
0000
0000
0000
0000
,
1100
0000
1001
0000
0000
0101
0000
0001
,
0020
0000
0230
0000
0320
0000
0031
1000
,
0001
1010
0100
0011
,
0100
1010
0100
0011
,
1000
0100
1000
0001
0100
0001
1000
0100
,
0020
1000
0100
0031
,
1001
0000
0001
0100
0010
1000
0010
0100
,
0001
1000
0100
0010
0001
0010
0100
1000
,
0001
0000
1000
0001
0010
0100
0010
0001
,
1000
0010
0100
0001
0200
0000
0310
0010
,
1000
0000
0001
0100
1000
0100
0010
1000
,
0001
0010
1000
0010
0001
0010
0100
1000
,
0001
0000
1000
0100
0001
0100
0010
0001
,
0100
0000
0100
0010
1000
0000
0100
0000
0100
0010
0001
0000
1000
0000
0000
1000
,
0001
0001
0001
0000
1000
0001
0010
0100
,
1000
0000
0010
0000
1000
0000
0001
0000
0010
0000
0001
0000
1000
0000
1000
0010
,
0100
0001
1000
0100
1000
0001
0100
0010
,
1000
0100
1000
0001
0100
0001
0010
0010
,
0100
1000
0100
0010
0001
0010
0001
0100
,
0001
0000
1000
0000
0010
0000
1000
0000
0001
0000
0000
0010
0100
0000
0000
1000
,
0001
0100
0010
1000
0100
0010
0001
0100
,
0110
0000
0110
0000
0010
1000
0100
1000
,
0002
0010
0000
0013
0000
0001
0020
0100
,
0000
0130
0000
0010
0200
1000
0000
1300
,
0000
0100
2000
0010
0000
3010
0000
1000
,
0001
0000
0100
0000
0010
0000
0100
0000
0001
0000
1000
0010
0000
1000
0010
0000
,
1000
0000
0100
0000
0010
0000
0100
0000
1000
0000
0001
0010
0000
0001
0010
0100
,
2000
0010
0000
3010
0000
1000
0020
0100
,
0000
0130
0000
0010
0200
0001
0000
0301
,
0000
0100
0002
0010
0000
0013
0000
0001
,
1000
0000
0100
0000
0010
0000
0001
0000
0010
0000
0100
1000
0000
0001
0100
0000
,
0001
0000
0100
0000
0010
0000
1000
0000
0010
0000
0100
0001
0000
1000
0100
0000
,
0020
0000
0000
0000
0000
0000
0000
0100
,
0200
0000
0000
0000
,
0330
0000
0000
0000
,
0000
0000
0200
0320
0000
0230
2300
3002
,
0003
0000
0000
0000
,
0000
0002
0203
2300
0000
3200
0320
0000
,
0030
0000
0000
0000
,
0000
0000
2000
3002
0000
0023
0230
2300
,
3000
0000
0000
0000
,
0000
0200
2300
3020
0000
0230
0302
0000
,
1003
0000
1100
0000
1001
0000
0000
1000
,
0100
0010
0000
0011
0000
1010
0000
0010
,
0100
0000
0101
0000
1001
0000
0000
0001
,
0100
0010
0000
0010
0000
0100
0001
0100
,
0010
0000
1100
0000
0101
0000
1000
0100
,
0001
0100
0000
1100
0000
1010
0000
0011
,
0000
0000
0101
0000
0000
0000
0110
0000
0000
0000
1001
0000
0001
0100
0001
0100
,
0020
0000
0000
0030
,
1000
0000
0001
0000
0100
0000
0001
0000
0010
0000
0001
0000
1000
0000
0000
0010
,
0100
0000
0001
0000
0100
0000
0010
0000
0100
0000
1000
0000
0100
0000
0010
0100
,
0001
0000
1000
0000
0010
0000
1000
0000
0100
0000
1000
0000
0001
0000
0000
0010
,
0100
0000
1000
0000
0001
0000
0000
0001
0100
0000
0001
0000
1000
0000
0100
0010
,
0001
0000
1000
0000
0001
0000
0100
0000
1000
0000
0100
0000
0010
0000
0000
0010
,
1000
0000
0001
0000
1000
0000
0100
0000
0001
0000
0100
0000
1000
0000
1000
0001
,
0010
0001
0100
0001
1000
0100
1000
0001
,
0101
0000
0110
0000
0100
0001
2000
0000
,
3010
0100
0001
0100
0010
1000
0001
1000
,
0100
0010
0001
0010
0100
1100
0000
0011
,
0000
0001
0101
0000
1010
0000
0101
0100
,
0010
1000
0001
0100
0001
0020
0000
0130
,
1000
0100
1000
0010
0100
0001
0100
0010
,
1000
0001
0010
0001
1000
1100
0000
1010
,
0000
1000
0001
0000
0010
0001
0000
0011
,
0000
0001
0100
0201
0000
0000
0310
0010
,
0100
0010
1010
0000
1000
0010
1010
0000
,
0001
0010
0011
0000
0100
0010
0011
0000
,
0001
0000
0010
0000
0100
0000
1000
0000
0010
0000
0100
0000
0001
1000
0001
0010
,
0200
0000
0000
0300
,
1001
0000
0000
0000
;

//---------------dance-single - ----------------
#NOTES:
     dance-single:
     :
     Challenge:
     15:
     0.643191,0.668088,0.343981,0.382202,0.351626,589.000000,544.000000,45.000000,50.000000,0.000000,0.000000,0.643191,0.668088,0.343981,0.382202,0.351626,589.000000,544.000000,45.000000,50.000000,0.000000,0.000000:
0000
0000
0000
0000
,
0000
0000
0000
0000
,
0000
0000
0000
0000
,
0000
0000
0000
0000
,
1001
1001
0000
0000
,
0000
0000
0000
0000
,
1100
0001
0101
1000
1100
0101
0000
0001
,
0011
0000
0000
0000
1001
0000
0000
0000
1010
0000
0000
0000
0110
0000
0010
0100
,
0001
0010
0011
0001
0100
0010
1010
0010
,
0100
0001
0011
0010
0100
1000
1010
1000
,
0001
0000
0100
0000
0001
0000
0010
0000
0001
0000
0100
0000
0010
0100
0010
1000
,
0002
0000
0000
0000
0100
0100
1003
0000
,
1001
0000
0000
0000
1000
0100
1000
0000
0001
0000
0001
0010
0000
0010
0100
0000
,
1000
0000
1000
0100
0000
0100
0010
0000
0001
0000
0010
0100
0000
0100
1000
0001
,
1000
0000
0000
0000
0001
0100
0001
0000
1000
0000
0010
0100
0000
0100
0001
0000
,
0010
0000
0010
0100
0000
0100
1000
0000
0001
0000
0100
0000
0110
0000
0010
0000
,
1000
0000
0000
0000
0001
0010
0001
0000
0100
0000
0001
1000
0000
1000
0010
0000
,
0100
0000
0100
0010
0000
0010
1000
0000
0001
0000
0100
0010
0000
0010
0100
0001
,
1000
0000
0000
0000
0100
0010
0100
0000
1000
0000
0001
0010
0000
0010
0100
0000
,
1200
0000
0000
0000
0001
0000
0000
0000
2300
0000
0000
0000
3010
0000
0010
0100
,
0001
0000
0001
0000
1001
0000
0000
0000
0001
0100
0010
0000
1000
0000
0010
0000
,
0100
0000
0100
0001
1000
0000
0100
0000
0100
1000
0001
0000
0010
0000
0010
0100
,
1000
0000
0100
0010
0001
0000
0100
0000
0100
0010
1000
0000
0001
0000
0100
0000
,
0001
0000
0010
0100
1000
0000
0010
0000
0010
0100
0001
0000
0200
0000
0320
0000
,
1030
0000
1000
0010
0100
0000
0010
0000
0010
0100
0001
0000
0100
0000
0100
0001
,
1000
0000
0001
0000
0001
1000
0100
0000
0010
0000
0100
1000
0100
0000
0010
0001
,
0010
0001
0100
1000
0100
0001
0010
0100
,
1000
0000
0000
0000
1000
0000
0000
0000
1000
0100
1000
0000
0001
0100
0001
0100
,
0020
0100
0100
1030
0010
1000
0200
0010
,
0010
1300
0001
0001
0200
0010
0010
0301
,
0100
0001
0020
0100
0100
0031
1000
1000
,
0010
1000
0010
0000
0100
0000
0010
0000
1000
0000
0010
0100
0000
0010
1000
0000
,
0001
0010
0001
0000
0010
0000
0100
0000
0010
0000
0001
0000
0010
0100
0010
0100
,
2000
0100
0100
3001
0001
1000
0002
0010
,
0010
0000
1003
0000
1000
0000
0001
1000
0002
0000
0100
0000
0100
0000
1003
0000
,
1000
0000
0001
0000
2000
0000
0010
0000
0010
0000
3001
0000
0001
0000
1000
0100
,
0010
0000
0001
0000
0010
0000
1000
0000
0010
0000
0100
1000
0000
1000
0001
0000
,
0100
0000
0001
0000
0100
0000
1000
0000
0100
0000
0010
1000
0000
1000
0001
1000
,
0200
0000
0000
0000
,
0310
0000
0100
0000
0010
0000
0100
0000
1000
0000
0001
0100
0000
0100
0001
1000
,
0020
0030
0000
0000
,
0000
0000
0200
0320
0000
0230
0302
0023
,
0032
0000
1000
0000
1000
0000
0003
0001
,
1000
0200
2300
3002
0000
2003
3020
0000
,
2030
0000
0001
0000
0001
0000
3000
1000
,
0001
1000
0020
0230
0000
0302
2003
3200
,
2300
0000
3010
0000
0100
0110
0000
1001
,
0000
0002
0023
2030
0000
3020
0230
0000
,
1300
1000
1100
0000
2020
0000
3030
0010
,
0100
0101
0000
0110
0000
1010
0000
1000
,
0001
0001
0101
0000
0022
0000
0033
0001
,
1000
1100
0000
0110
0000
0010
0001
1000
,
0001
0100
0110
0000
1001
0000
1000
0001
,
1000
0100
0010
0100
0001
0100
1000
0001
,
0100
0010
0100
1000
0100
0001
0010
0100
,
2000
0000
0000
0000
0100
0100
3001
0000
,
1000
0000
0100
0000
1000
0000
0001
0000
1000
0000
0010
1000
0000
1000
0001
0100
,
0001
0000
0100
0000
0001
0000
1000
0000
0001
0000
0010
0001
0000
0001
0010
0100
,
1000
0000
0001
0000
0100
0000
0010
0000
1000
0000
0010
0100
0000
0100
0001
0000
,
0001
0000
0010
0100
0000
0100
1000
0000
1000
0000
0001
0100
0000
0100
0001
1000
,
0010
0000
0100
0000
1000
0000
0100
0000
0001
0000
1000
0100
0000
0100
1000
0100
,
0010
0000
0100
0000
0001
0000
0100
0000
1000
0000
0010
0100
0000
0100
0001
1000
,
0010
0100
0010
0000
1000
0000
0010
0100
0000
0001
1000
0000
0100
0000
0100
0010
,
0002
0000
2003
0000
3001
0010
1001
0000
,
0001
0000
0001
0100
0010
0000
0000
0000
1000
0000
1000
0010
0100
0000
0001
0000
,
1000
0000
1000
0100
0010
0000
0100
0000
0010
0000
0011
0000
0000
0000
1010
0000
,
0000
0010
0200
0000
0001
0000
0010
0010
,
0301
0100
1000
0100
0001
0010
1000
0010
,
0001
0000
0001
0010
0100
0000
0010
0000
0010
0100
1000
0000
0001
0000
0010
0000
,
0100
0000
0100
1000
0001
0000
1000
0000
0001
0000
0101
0000
0000
0000
1100
0000
,
0000
1000
0020
0000
0100
0130
0000
0110
,
0000
1010
1001
0202
0000
0000
0303
0000
,
1000
0010
1010
1000
0100
0010
0011
0010
,
0100
1000
1010
0010
0100
0001
0011
0001
,
1000
0000
0100
0000
1000
0000
0001
0000
0100
0000
0001
0000
0010
0001
0010
0100
,
2000
0000
0000
0000
0100
0100
3001
0000
,
0011
0000
0000
0000
;
