#TITLE:Feather;
#SUBTITLE:;
#ARTIST:Sabrina Carpenter;
#TITLETRANSLIT:;
#SUBTITLETRANSLIT:;
#ARTISTTRANSLIT:;
#GENRE:;
#CREDIT:;
#MUSIC:Feather-_Edit_.ogg;
#BANNER:feather-banner.png;
#BACKGROUND:feather-bg.png;
#CDTITLE:;
#SAMPLESTART:0.000;
#SAMPLELENGTH:0.000;
#SELECTABLE:YES;
#OFFSET:-0.020;
#BPMS:0.000=123.518;
#STOPS:;
#BGCHANGES:;
#FGCHANGES:;

//--------------- dance-single - Evergreen ----------------
#NOTES:
     dance-single:
     Evergreen:
     Hard:
     13:
     0,0,0,0,0:
0000
0000
0000
0000
,
0000
0000
0000
0000
,
0000
0000
1000
0010
1000
0000
0001
0010
0001
0000
1000
0100
1000
0000
0001
0100
,
0002
0000
1003
0001
0200
0010
0310
0100
,
0001
1000
0000
0000
0100
0000
0010
0000
0002
0000
0000
0000
1003
0000
0001
1000
,
0000
0000
0010
0000
0100
0000
0001
0000
1000
0100
0000
0010
0001
0000
1000
0010
,
0000
0100
0000
0000
0001
0000
0100
0000
0002
0000
0000
0000
1003
0000
0200
0000
,
0000
0310
0002
0000
0103
0001
1000
0010
,
0100
0001
0000
0100
0001
0000
1000
0000
0002
0000
0000
0000
1003
0100
0000
1000
,
0000
0010
0100
0000
0001
0000
0010
0000
0100
1000
0000
0010
0000
0000
0100
0001
,
0000
1000
0100
0000
0010
0000
0001
0000
2000
0000
0000
0000
3010
0000
0200
0000
,
0000
0301
0010
0100
1000
0010
1000
2020
,
0000
0000
3030
0001
0100
0001
0010
0022
,
0000
0000
0000
0000
0033
0000
1000
0010
0000
0100
0001
0000
0100
0000
0202
0000
,
0000
0000
0303
0001
0010
0100
1000
0200
,
1300
2000
3010
0020
0130
0200
0301
0202
,
0000
0000
0303
0001
1000
0100
1000
1100
,
0100
1000
0010
0100
0001
0010
0001
0022
,
0033
0010
0001
1000
0010
0100
0001
1000
,
0002
0000
1000
0000
1000
0000
1003
0020
,
0130
0001
0010
0100
1000
0100
0001
0100
,
1000
0010
0100
0001
1000
0100
0000
1100
,
1000
0000
0001
0000
0010
0000
0001
0000
0200
0000
0000
0000
0301
0000
1000
0100
,
1000
0000
0001
0100
0001
0000
1000
0010
2000
0000
0010
0000
3010
0000
1000
0000
,
0020
0130
0001
0100
1000
0100
0001
1000
,
0100
0010
0001
1000
0001
0100
0000
0101
,
0001
0000
1000
0000
0010
0000
1000
0000
0200
0000
0000
0000
1300
0000
0001
0100
,
0001
0000
1000
0100
1000
0000
0001
0010
0002
0000
0010
0000
0013
0000
0001
0000
,
1000
0100
0010
0001
0011
0000
1000
0001
,
0100
0010
1000
0010
1010
0000
0001
1000
,
0001
0100
1000
0010
0001
1000
0010
0100
,
0001
2000
0000
3001
0010
0001
1000
0020
,
1030
0001
0010
1000
0010
0001
1000
0010
,
1000
0000
0001
0000
0100
0000
0001
0000
1000
0000
0000
0100
0000
0000
0020
0000
,
0031
0000
0010
0001
0010
0000
0001
1000
0001
0000
1000
0010
1000
0000
0001
0100
,
0001
1000
0001
1000
0100
0010
0001
1000
,
0020
0000
1000
1030
0200
0000
0010
0310
,
0002
0000
0100
0103
0020
0000
2030
0000
,
3001
0010
0001
0001
1000
0010
1000
1000
,
0001
0100
0001
0001
1000
0100
1000
1100
,
0000
0001
0100
0010
1000
0001
0100
0101
,
0000
1000
0100
0010
0001
1000
0010
1010
,
0000
0000
0001
0000
0100
0000
0010
0000
1000
0000
0001
0000
0010
0000
0001
0010
,
0001
0000
1000
0010
1000
0000
0001
0100
0001
0000
0100
0000
0001
0000
0101
0000
,
0000
1000
0100
0010
0001
1000
0100
1100
,
0000
0001
0200
0000
0301
0010
0001
0011
,
0000
0000
1000
0000
0100
0000
0010
0000
0001
0000
1000
0000
0010
0000
1000
0010
,
1000
0000
0001
0010
0001
0000
1000
0100
1000
0000
0001
0000
0100
0000
0020
0000
,
0130
0001
1000
0100
0001
0100
1000
0010
,
0001
0010
1000
0001
0010
0100
1000
1100
,
0000
0001
0020
0031
1000
1000
0010
1000
,
0001
0001
0010
0100
1000
1000
0100
0020
,
0130
1000
0001
0100
1000
0100
0001
0010
,
1000
0010
0001
1000
0010
0100
0001
0101
,
0000
0000
1000
0010
1000
0000
0001
0010
0001
0000
1000
0100
1000
0000
0001
0000
,
0100
0001
0001
1000
0100
2000
0002
0000
,
3003
0000
0000
0000
;
