#VERSION:0.83;
#TITLE:Far East Nightbird (GITADORA Remix);
#SUBTITLE:;
#ARTIST:猫叉Master Remixed by The Herb Shop;
#TITLETRANSLIT:;
#SUBTITLETRANSLIT:;
#ARTISTTRANSLIT:;
#GENRE:;
#CREDIT:;
#MUSIC:Far East Nightbird (GITADORA Remix).ogg;
#BANNER:;
#BACKGROUND:;
#CDTITLE:;
#SAMPLESTART:86.424;
#SAMPLELENGTH:15.000;
#SELECTABLE:YES;
#OFFSET:1.576;
#BPMS:0.000=180.000
,236.000=135.000
,254.000=180.000
;
#STOPS:;
#TIMESIGNATURES:236.000=3=4,
254.000=4=4
;
#BGCHANGES:;
#FGCHANGES:;

//--------------- dance-single - ----------------
#NOTEDATA:;
#STEPSTYPE:dance-single;
#DESCRIPTION:;
#DIFFICULTY:Beginner;
#METER:5;
#RADARVALUES:0,0,0,0,0;
#NOTES:
0000
0000
0000
0000
,
0000
0000
0000
0000
,
0000
0000
0000
0000
,
0000
0000
0000
0000
,
0000
0000
0000
0000
,
0000
0000
0000
0000
,
0000
0000
0000
0000
,
0000
0000
0000
0000
,
0000
0000
0000
0000
,
0000
0000
0000
0000
,
0000
0000
0000
0000
,
0001
0000
1000
0000
,
0010
0000
0100
0000
,
0001
0000
0010
0000
,
0100
0000
1000
0000
,
0001
0000
1000
0000
,
0010
0000
0100
0000
,
0001
0000
1000
0000
,
0001
0001
0001
0000
,
0020
0000
0000
0000
,
0030
0000
0001
0000
,
1000
0000
0001
0000
,
0010
0000
0100
0000
,
1000
0000
0001
0000
,
1000
0000
0010
0000
,
0100
0000
0001
0000
,
1000
1000
1000
0000
,
0010
0000
0000
0100
,
0001
0000
0000
0001
,
0100
0000
0000
0010
,
1000
1000
1000
0000
,
0100
0000
1000
0000
,
0010
0000
0010
0000
,
0100
0000
0001
0000
,
0010
0000
0010
0000
,
0001
0000
0000
1000
,
0100
0000
0000
0100
,
1000
0000
0000
1000
,
0010
0010
0010
0000
,
0100
0000
0001
0000
,
1000
0000
0100
0000
,
1000
0000
0010
0000
,
0100
0100
0100
0000
,
0001
0000
0001
0000
,
0010
0000
0001
0000
,
1000
0000
1000
0000
,
0010
0000
1000
0000
,
0100
0000
0100
0000
,
0010
0000
0100
0000
,
1000
0000
1000
0000
,
0001
0000
1000
0000
,
0100
0000
0100
0000
,
0100
1000
0010
0000
,
0010
0000
0100
0000
,
0100
0001
0010
0000
,
0001
0001
0001
0000
,
1000
1000
0001
0000
,
1000
1000
0010
0000
,
0100
0100
0001
0000
,
2002
0000
0000
0000
,
0000
3003
1000
0000
,
0010
0000
1000
1000
,
0001
0000
0010
0000
,
0001
0001
0000
0000
,
0000
0000
0001
0010
,
0001
0002
0000
0000
,
0003
0000
0100
0100
,
0010
2000
0000
0000
,
3000
0000
0000
0000
0020
0000
0000
0030
,
0000
2002
0000
0000
,
3003
0000
1000
0100
,
1000
1000
0001
0001
,
0010
0010
0001
0000
,
0100
0000
0010
0010
,
1000
0000
1000
0100
,
1000
1000
0010
1000
,
0010
0000
2002
0000
,
3003
0220
0000
0000
,
0330
0000
0001
0001
,
1000
1000
0100
0100
,
1000
0000
0220
0000
,
0000
0000
0000
0000
,
0330
0000
0000
0000
0001
0000
0000
0010
,
0000
2002
0000
3003
;

//--------------- dance-single - ----------------
#NOTEDATA:;
#STEPSTYPE:dance-single;
#DESCRIPTION:;
#DIFFICULTY:Easy;
#METER:9;
#RADARVALUES:0,0,0,0,0;
#NOTES:
0000
0000
0000
0000
,
0000
0000
0000
0000
,
0000
0000
0000
0000
,
0000
0000
0000
0000
,
0000
0000
0000
0000
,
0000
0000
0000
0000
,
0000
0000
0000
0000
,
0000
0000
0000
0000
,
0000
0000
0000
0000
,
0000
0000
0000
0000
,
0001
0000
0000
1000
0000
0000
1001
0000
,
1000
0000
0100
0000
0010
0000
0001
0010
,
0000
0010
0001
0000
0100
0000
0001
0000
,
0001
0000
0100
0000
0010
0000
1000
0100
,
0000
0100
0010
0000
0100
0000
0010
0000
,
0001
0000
0100
0000
0010
0000
1000
0100
,
0000
0100
1000
0000
0100
0000
0010
0000
,
0001
0000
0100
0000
0010
0000
1000
0001
,
0000
0001
0100
0000
0010
0000
1001
0000
,
1000
0000
0000
1000
0000
0000
1000
0000
0000
0001
0000
0000
0001
0000
0000
0001
,
0000
0000
0000
0010
0001
0000
0001
0000
,
1000
0100
0000
0100
1000
0000
1000
0010
,
0000
0100
0010
1000
,
0001
0000
0001
0000
0010
0000
0001
0100
,
0000
0100
0010
0000
1000
0000
0001
0000
,
0010
0100
0000
0100
0010
0000
0010
0001
,
0000
0001
0100
0000
0010
0000
1001
0000
,
0001
0000
0001
0000
0001
0000
1000
0200
,
0000
0300
0100
0000
0100
0000
0010
0002
,
0000
0003
0001
0000
0001
0000
0010
0000
,
0100
0000
1000
0000
0010
1000
0010
0000
,
1000
0000
0100
0000
0001
0000
0100
1000
,
0100
0000
0010
0000
0100
0010
0001
0000
,
0100
0010
1000
0001
,
0100
0000
0001
0010
0100
0000
0110
0000
,
1000
0000
1000
0000
1000
0000
0001
0200
,
0000
0300
0100
0000
0100
0000
0010
2000
,
0000
3000
0001
0000
1000
0000
0010
0000
,
0100
0000
0001
0000
0010
0001
0010
0000
,
0001
0000
0100
0000
1000
0000
0100
0002
,
0000
0003
0010
0200
0000
0300
0010
0001
,
0100
0010
1000
0100
,
0010
0100
0010
0000
2002
0000
3003
0000
,
1000
0000
1010
0000
0000
0101
0000
0000
,
1010
0000
0000
0101
0000
0000
1010
0000
,
1000
0100
0000
0000
1100
0000
0000
0011
,
0000
0000
1100
0000
0000
0011
0000
0000
,
0001
1000
0001
0000
0000
0110
0000
0000
,
1001
0000
0000
0110
0000
0000
1001
0000
,
0001
0010
0000
0000
0110
0000
0000
1100
,
0000
0000
0110
0000
0000
0011
0000
0000
,
0001
0010
0100
1000
,
0010
0000
0100
0000
0001
0020
0000
0030
,
0001
0100
1000
0100
,
0001
0000
0100
0000
0001
2000
0000
3000
,
1000
0010
0100
0001
,
0010
0100
1000
0001
,
0010
1000
0010
0001
,
0100
0000
0001
0000
0010
0100
0010
0000
,
2002
0000
0000
0000
,
0000
3003
0001
0010
,
0100
1000
0010
0100
,
0001
0000
0100
0000
0010
0000
1000
1000
,
0001
0001
0010
0100
0000
0000
0000
0000
,
0000
0000
1000
0001
,
1000
0100
2000
0000
0000
3000
1000
0000
,
0100
1000
0001
0010
,
0100
0010
0200
0000
0000
0300
0010
0000
,
0001
0000
1000
0000
1001
0000
0000
0110
,
0000
0000
2002
0000
0000
3003
1000
0000
,
0100
0000
1000
0000
1000
0000
0100
0010
,
0001
0000
0001
0000
0100
0010
1000
0000
,
0010
0100
0001
1000
,
0001
0010
0002
0000
0000
0003
1000
0000
,
0010
0000
0100
0000
0001
0100
0001
0000
,
0010
0001
0100
0010
1000
0100
1000
0000
,
1000
0010
0100
0010
2000
0000
3000
0200
,
0000
0300
2002
0000
0000
3003
1000
0000
,
0010
0000
0100
0000
0001
0000
0010
0100
,
1000
0000
0100
0000
1000
0010
0100
0000
,
0001
0010
0002
0000
,
0203
0000
0320
0000
,
2030
0000
0000
0000
3002
0000
0003
0220
,
0000
0330
2002
0000
0000
0000
3003
0000
;

//--------------- dance-single - ----------------
#NOTEDATA:;
#STEPSTYPE:dance-single;
#DESCRIPTION:;
#DIFFICULTY:Medium;
#METER:12;
#RADARVALUES:0,0,0,0,0;
#NOTES:
0000
0000
0000
0000
,
0000
0000
0000
0000
,
0000
0000
0000
0000
,
0000
0000
0000
0000
,
0000
0000
0000
0000
,
0000
0000
0000
0000
,
0000
0000
0000
0000
,
0000
0000
0000
0000
,
0000
0000
0000
0000
,
0000
0000
0000
0000
,
0001
0100
0010
1000
0001
0000
1001
0000
,
1000
0000
0000
0000
0100
0000
1000
0000
0010
0000
0000
1000
0000
0000
0100
0000
,
1000
0000
0001
1000
0100
0000
0010
0000
,
0001
0000
0100
0000
0001
0000
0010
0000
0100
0000
0000
0100
0000
0000
0010
0000
,
0000
0001
1000
0010
0100
0010
1000
0010
,
0100
0000
0000
0000
0001
0000
0010
0000
0100
0000
0000
0010
0000
0000
0001
0000
,
0000
0100
0010
0000
1000
0001
0100
0010
,
1000
0000
0010
0000
0100
0000
0001
0000
0010
0000
0000
0010
0000
0000
0100
0000
,
0000
1000
0010
0001
0010
1000
0001
0000
,
0010
0000
0000
0100
0000
0000
1100
0000
0000
1000
0000
0000
0010
0000
0000
1001
,
0000
0000
0000
1000
0010
0000
1010
0000
,
0001
0000
0010
0000
0001
0000
0100
0000
0010
0000
0000
1000
0000
0000
0100
0000
,
0000
1000
0001
1000
0100
1000
0010
0100
,
0001
0000
0000
0000
0010
0000
0001
0000
0100
0000
0000
0100
0000
0000
0010
0000
,
0000
1000
0001
0100
0010
0000
0110
0000
,
1000
0000
0010
0000
0100
0000
0001
0000
0010
0000
0000
0010
0000
0000
0010
0000
,
0000
0001
1000
0000
0100
0000
0010
0000
,
0001
0100
1000
0100
0001
0000
0010
0000
,
0100
0001
0100
1000
0100
0000
0010
0000
,
0001
0100
1000
0100
0001
0000
0010
0000
,
1100
0000
1010
0000
0001
0100
0001
0000
,
0010
0100
1000
0000
0010
0100
0001
0000
,
0100
0010
1000
0000
0100
0010
0001
0000
,
1000
0010
0100
0001
0100
0010
1000
0100
,
0010
0001
0100
0010
0100
0000
1001
0000
,
1000
0010
0001
0010
1000
0000
0100
0000
,
0010
1000
0010
0001
0010
0000
0100
0000
,
1000
0010
0001
0010
1000
0000
0001
0000
,
0101
0000
0011
0000
1000
0100
1000
0000
,
0001
0010
0100
1000
0010
0000
0100
0010
,
0000
0010
1000
0100
0000
0100
1000
0001
,
0100
0010
1000
0000
0001
0010
0100
0000
,
1000
0001
0100
0000
2002
0000
3003
0000
,
0001
0100
0001
0000
1000
0100
0000
0001
,
0100
0000
1000
0010
0000
0100
0001
0000
,
0010
0001
0000
0100
0010
0000
0001
0010
,
0000
0100
0010
0000
1000
0100
0000
0010
,
0001
1000
0001
0000
0100
1000
0000
0100
,
0010
0000
0100
0001
0000
0010
0100
0000
,
0010
1000
0000
0010
0001
0000
1000
0010
,
0000
0100
0001
0000
0010
0001
0010
0001
,
1000
0001
0010
0001
1000
0100
1000
0001
,
0010
0001
0100
0010
0100
0002
0000
0000
,
0013
0000
0100
0000
0000
0100
0000
0000
0010
0000
0001
0000
1000
0000
0010
0000
,
1000
0001
0100
0001
1000
0200
0000
0000
,
0310
0001
0010
0100
1000
0010
0100
0001
,
0100
0010
1000
0001
1000
0010
1000
0001
,
0010
0100
1000
0100
0010
0001
0100
0010
,
1000
0100
0010
0001
0100
0001
0010
0100
,
2000
0000
0000
0000
,
0000
0000
3000
0000
0001
0010
0001
0010
,
0001
0100
1000
0100
0001
0100
0001
0001
,
1000
0100
1000
0100
1000
0010
0001
0010
,
1000
0010
1000
1000
0000
0000
0000
0000
,
0000
0000
0001
0010
0100
0000
1100
0000
,
1000
0010
0200
0000
0000
0000
0310
1000
,
0010
0100
0010
1000
0001
0000
0011
0000
,
0001
0010
0200
0000
0000
0000
1300
0001
,
1000
0001
0100
0010
2000
0000
0000
3001
,
0000
0000
0022
0000
0033
0000
1000
0010
,
0100
0001
0010
0001
1000
0010
0001
0010
,
1000
0100
0001
0100
1000
0100
0010
0001
,
0100
0001
1000
0100
1000
0000
0010
0000
,
0100
0001
0200
0000
0000
0000
0301
1000
,
0010
1000
0001
1000
0100
0001
0100
1000
,
0001
0100
0010
0100
1000
0100
0001
0010
,
0100
1000
0010
0001
0020
0000
0000
1030
,
1001
0000
0202
0000
0303
0000
0001
0010
,
0100
1000
0010
1000
0001
0010
1000
0010
,
0001
0100
1000
0100
0001
0100
0010
1000
,
0100
0000
0000
1000
0000
0000
0001
0000
0000
0100
0000
0000
0010
0000
0000
0000
1000
0000
0000
0000
0010
0000
0000
0000
,
1000
0000
0001
0000
1000
0000
0001
0000
0010
0000
0001
0000
,
0100
0000
0000
0000
0010
0000
0000
0000
1000
0000
0000
0000
2100
0000
0000
0000
0000
0000
3100
0000
0000
0120
0000
0000
,
0000
0031
2002
0000
0000
0000
3003
0000
;

//--------------- dance-single - ----------------
#NOTEDATA:;
#STEPSTYPE:dance-single;
#DESCRIPTION:;
#DIFFICULTY:Hard;
#METER:15;
#RADARVALUES:0,0,0,0,0;
#NOTES:
0000
0000
0000
0000
,
0000
0000
0000
0000
,
0000
0000
0000
0000
,
0000
0000
0000
0000
,
0000
0000
0000
0000
,
0000
0000
0000
0000
,
0000
0000
0000
0000
,
0000
0000
0000
0000
,
0000
0000
0000
0000
,
0000
0000
0000
0000
,
1000
0010
1000
0000
0100
0000
0010
0001
0010
0000
0100
0000
1001
0000
0000
0000
,
0001
0000
0000
0000
0010
0001
0000
0010
0001
0000
0000
0101
0000
0000
1001
0000
,
0000
1000
0001
0100
0010
0010
0100
0001
,
1000
0000
0100
0000
1000
0000
0010
0000
0010
0000
0000
0110
0000
0000
1001
0000
,
0000
0000
0001
0000
0010
0100
0010
0001
0010
0000
0100
0000
0010
0000
0001
0000
,
1000
0000
0000
0000
0010
1000
0000
0010
1000
0000
0000
1100
0000
0000
1001
0000
,
0000
0001
0010
0100
0100
1000
0010
0100
,
0001
0000
0010
0000
1000
0000
0010
0000
0001
0000
0000
0011
0000
0000
1100
0000
,
0000
0000
1000
0000
0010
0000
0010
1000
0100
0000
0010
0000
0001
0000
0010
0000
,
0001
0000
0000
0101
0000
0000
0101
0000
0000
1010
0000
0000
1100
0000
0000
1001
,
0000
0000
0000
0000
0000
0000
0001
0000
0100
0000
0001
0000
0010
0000
0100
1000
,
0100
0000
1000
0000
0001
0000
1000
0000
0100
0000
0000
1100
0000
0000
1001
0000
,
0000
0000
0001
0000
1000
0010
0100
0010
1000
0000
0010
0000
0100
0000
0010
0000
,
1000
0000
0000
0000
0001
0100
0000
0001
0100
0000
0000
0110
0000
0000
1001
0000
,
0000
1000
0100
0010
0010
0001
0100
0010
,
1000
0000
0100
0000
0001
0000
0100
0000
1000
0000
0000
1100
0000
0000
0011
0000
,
0000
0000
0001
0100
0010
0000
1000
0000
0100
0000
1000
0000
0200
0000
0000
0000
,
1300
0000
0010
0000
0100
0000
0010
0000
1000
0000
0100
1000
0100
0000
0010
0000
,
0001
0000
0100
0000
0010
0000
0100
0000
0001
0000
0010
0001
0010
0000
0100
0000
,
1000
0010
0001
0010
0100
1000
0200
0301
,
2000
3010
0200
0301
2000
3200
0320
0000
,
0130
0000
1000
0000
0010
0000
1000
0000
0100
0000
1000
0000
0010
0000
0100
0001
,
0010
0001
0100
0001
0010
0010
0100
1000
,
0001
0100
0010
0000
0100
0000
0001
0000
1000
0000
0100
0000
0010
0000
0001
0000
,
1000
0000
1000
0010
1000
0000
0001
0000
0001
0010
0001
0000
0200
0000
0000
0000
,
0301
0000
0010
0000
0100
0000
0010
0000
0001
0000
0100
0001
0100
0000
0010
0000
,
1000
0000
0100
0000
0010
0000
0100
0000
1000
0000
0010
1000
0010
0000
0100
0000
,
0001
0010
1000
0010
0100
0001
0200
1300
,
0002
0103
0020
1030
0002
0023
0230
0000
,
1300
0010
0100
0001
0010
0001
2000
3200
,
1300
0010
0200
0302
0013
0001
0200
0320
,
1030
0000
1000
0100
1000
0000
0001
0000
0001
0010
0001
0000
0100
0000
0010
0000
,
1000
0000
0001
0000
1001
0000
0000
0000
1000
0001
0000
0000
0001
1000
0000
0000
,
2000
3020
0130
0002
0023
0130
2000
3020
,
0130
0002
0013
0010
0200
0320
0031
2000
,
3020
0130
0002
0023
0130
0020
0032
0103
,
0020
2030
3100
2000
3020
0130
0002
0023
,
0130
0100
0100
2000
3020
1030
0002
0023
,
0031
2000
3020
0031
2000
3200
0301
0002
,
0023
0031
2000
3020
1030
0002
0203
0301
,
0020
2030
3001
0200
2300
3010
0200
0302
,
0003
0000
0001
0010
0001
0000
1000
0000
0001
0100
0001
0000
1000
0000
0001
0010
,
0001
0000
1000
0000
0001
0100
0001
0000
0010
0000
0200
0000
0000
0000
0000
0000
,
0300
0000
0010
0000
0000
0010
0000
0000
0001
0000
1000
0100
1000
0000
0001
0000
,
1000
0010
1000
0000
0001
0000
1000
0100
1000
0000
0020
0000
0000
0000
0130
0000
,
0001
0000
1000
0010
1000
0000
0010
0000
0100
0000
0001
0010
0001
0000
0010
0000
,
0002
0203
0320
2030
3200
0320
0032
2003
,
3001
0000
0100
0010
1000
0000
0010
0000
0100
0000
0001
1000
0100
0000
0010
0000
,
0001
0000
1000
0010
0100
0000
0001
0000
0010
0000
0100
0000
1000
0001
1000
0002
,
2000
0000
0000
0000
,
0000
0000
3003
0000
0001
0010
0011
0001
,
0010
0000
0001
0100
0010
0000
1000
0100
0010
0000
0110
0000
1001
0000
0110
0000
,
1000
0000
0010
0000
1010
0000
1000
0000
0010
0000
1000
0100
0010
0000
0001
0100
,
0010
0110
1001
0110
0000
0000
0000
0000
,
0000
0000
0000
0000
0001
1000
0001
1000
0002
0000
0100
0000
0103
0000
0002
0000
,
0010
0013
0002
0100
0103
0020
1000
1030
,
0001
0010
0100
1000
0200
0010
0310
0200
,
1000
1300
0200
0010
0310
0002
1000
1003
,
0010
0100
0001
0010
0001
0001
0100
1000
,
1000
0100
0020
0000
0000
0000
0130
0100
,
0010
0000
0010
0000
1000
0000
0001
0000
0010
0000
1000
0000
0010
0100
0010
0000
,
0100
0000
1000
0000
0010
0000
0001
0000
0010
0100
0010
0000
0100
0000
1000
0000
,
0100
0000
0001
0000
1000
0001
1000
0001
1000
0000
0000
0000
0100
0000
0000
0000
,
0010
0000
0001
0000
0020
0000
0000
0000
0000
0000
0000
0000
0031
1000
0001
0000
,
1000
0010
1000
0000
0001
0100
0001
0000
0010
0001
1000
0000
0010
0100
0010
0000
,
1000
0001
0100
0000
0001
0010
0001
0000
1000
0010
0100
0000
0001
0010
0001
0000
,
0010
0100
1000
0000
0010
0100
0001
1000
0020
0000
0000
0000
0000
0000
0130
0000
,
0101
0001
0020
0000
0000
0000
0130
0001
,
0100
0000
0010
0000
0100
0000
1000
0000
0010
0000
0100
0000
0010
0100
0010
0000
,
0001
0000
1000
0000
0100
0000
0001
0000
0010
0100
0010
0000
1000
0000
0001
0000
,
0100
0000
0000
1000
0000
0000
0010
0000
0000
0100
0000
0000
1000
0000
0000
0000
0100
0000
0000
0000
0001
0000
0000
0000
,
0010
0000
0100
0000
0010
0000
0100
0000
1000
0000
0100
0000
,
1000
0000
0000
0000
0010
0000
0000
0000
1000
0000
0000
0000
0011
0000
0000
0000
0000
0000
0001
0000
0000
1100
0000
0000
,
0000
0100
2002
0000
0000
0000
3003
0000
;

//--------------- dance-single - ----------------
#NOTEDATA:;
#STEPSTYPE:dance-single;
#DESCRIPTION:;
#DIFFICULTY:Challenge;
#METER:18;
#RADARVALUES:0,0,0,0,0;
#NOTES:
0000
0000
0000
0000
,
0000
0000
0000
0000
,
0000
0000
0000
0000
,
0000
0000
0000
0000
,
0000
0000
0000
0000
,
0000
0000
0000
0000
,
0000
0000
0000
0000
,
0000
0000
0000
0000
,
0000
0000
0000
0000
,
0000
0000
0000
0000
,
0001
0100
0001
1000
0001
0100
0010
1000
0100
1000
0001
1000
0100
0000
0000
0000
,
1001
0000
0000
0000
0001
0100
0010
0100
0001
0000
0000
0011
0000
0000
1100
0000
,
0000
0000
1000
0000
1000
0010
1000
0010
0100
0001
0100
0001
0010
0100
0010
0001
,
0010
0000
0100
0000
1000
0000
0001
0000
0101
0000
0000
0110
0000
0000
1010
0000
,
0000
0000
1000
0000
1000
0010
1000
0010
0100
0000
0001
0010
0001
0010
0001
0100
,
0010
0000
0000
0000
1000
0001
0100
0001
1000
0000
0000
1100
0000
0000
0011
0000
,
0000
0000
1000
0000
1000
0010
1000
0010
0100
0001
1000
0010
0100
0001
1000
0100
,
0010
0000
0001
0000
0001
0000
0010
0000
0110
0000
0000
0110
0000
0000
1001
0000
,
0000
0000
1000
0000
0010
0000
0100
0001
0010
0001
0010
0001
0100
0001
0100
0010
,
1000
0000
0000
1010
0000
0000
1100
0000
0000
1100
0000
0000
0101
0000
0000
1001
,
0000
0000
0000
0000
0000
0000
0001
0000
0100
0000
0000
0000
0100
0000
0010
0100
,
0010
0000
1000
0000
0100
0000
0010
0000
0110
0000
0000
0011
0000
0000
1001
0000
,
0000
0000
0001
0000
0001
0100
0001
0100
0010
0000
1000
0010
1000
0010
1000
0100
,
0010
0000
0000
0000
0001
1000
0010
1000
0001
0000
0000
0101
0000
0000
1010
0000
,
0000
0000
1000
0000
0010
1000
0010
0100
0010
1000
0001
0010
0100
1000
0100
1000
,
0001
0000
0001
0000
0100
0000
0010
0000
0110
0000
0000
0110
0000
0000
1001
0000
,
0000
0000
1000
0000
0010
0000
0100
0000
0001
0010
0001
0010
0200
0000
0000
0000
,
1300
0100
1000
0100
0000
0010
0001
0010
0001
0000
1000
0010
1000
0000
0100
0000
,
0010
0100
0010
0000
0001
1000
0001
1000
0000
0001
0100
0001
0100
0000
0010
1000
,
0010
1000
0000
0010
1000
0000
0001
0100
0000
0001
0010
0001
0020
0000
0031
0100
,
0002
0000
1003
0100
2000
0000
3010
0100
0010
0000
0010
0000
0200
0000
0000
0000
,
0301
0000
0010
0000
0100
0000
1000
0000
0100
0000
0010
0000
0001
0000
0100
0001
,
1000
0000
0100
1000
0001
0000
0100
0000
0010
0000
0010
0000
0010
0000
1000
0001
,
0000
1000
0001
1000
0001
0000
0010
0100
0000
0010
0100
0010
0100
0000
1000
0010
,
0000
0100
0001
0100
0001
0000
0010
0100
1000
0000
1000
0000
2000
0000
0000
0000
,
3001
0100
0001
0100
0000
0010
1000
0010
1000
0000
0001
0010
0001
0000
0100
0000
,
0010
0100
0010
0000
1000
0001
1000
0001
0000
1000
0100
1000
0100
0000
0010
0001
,
0010
0001
0000
0010
0001
0000
1000
0100
0000
1000
0010
1000
0020
0000
1030
0100
,
2000
0000
3001
0100
0002
0000
0013
0100
0010
0000
0010
0000
0200
0000
0000
0000
,
1300
0000
0010
0000
0100
0000
0001
0000
1000
0000
0100
1000
0200
0000
0320
0000
,
0031
0000
0100
0001
0200
0000
0320
0000
1030
0000
0100
0010
0100
0000
0100
0010
,
0000
0001
0010
0001
0010
0000
0100
1000
0000
0100
1000
0100
1000
0000
0001
0100
,
0000
0010
1000
0010
1000
0000
0001
1000
0001
1000
0000
0000
1000
0001
0000
0000
,
0002
0023
0130
0002
0203
0310
0002
0203
,
0310
0002
0023
0130
0002
0023
0130
0200
,
2300
3010
0200
2300
3100
0020
2030
3100
,
0020
2030
3010
0200
2300
3010
0100
0100
,
0001
1000
0001
0020
2030
3001
0200
2300
,
3001
0200
2300
3001
0020
2030
3001
0020
,
0032
1003
0020
0032
1003
0200
0302
1003
,
0200
0302
1003
0020
0032
1003
0200
2300
,
3000
0000
1000
0010
0100
0001
1000
0000
0001
0010
0100
1000
0001
0000
0100
0010
,
1000
0010
0100
0000
0001
0010
0100
0010
0001
0000
2000
0000
0000
0000
0000
0000
,
3000
0000
0010
0000
0000
0010
0100
0001
1000
0100
1000
0001
1000
0000
0001
0010
,
0001
1000
0001
0000
0100
0010
1000
0001
0010
0000
0200
0000
0000
0000
0300
0000
,
1000
0010
1000
0010
0100
0001
0100
0001
1000
0100
1000
0100
0010
0001
0010
0001
,
1000
0100
0010
0001
0010
0100
1000
0001
0100
0010
1000
0010
0100
0001
0010
0100
,
1000
0001
0010
0001
1000
0010
1000
0010
1000
0100
0010
0001
0100
0001
0010
0100
,
1000
0010
0100
0010
1000
0001
0010
0100
0010
0100
1000
0001
0100
0010
1000
0100
,
0020
0000
0000
0000
,
0000
0000
0030
0000
0001
0010
0011
0001
,
0100
0000
0010
1000
0100
0000
0010
0001
0100
0000
0010
0000
0110
0000
1001
0000
,
1000
0000
0000
0000
0000
0000
0100
0000
0000
0000
0000
0000
1100
0000
0000
0000
0000
0000
0010
0000
0000
0000
0000
0000
0001
0000
0000
0000
0000
0000
0100
0000
0000
0010
0000
0000
1000
0000
0000
0000
0000
0000
1000
0000
0001
0000
0100
0000
,
0010
0000
0000
1000
0001
0010
0100
0000
0000
1001
0000
0000
0000
0000
0000
0000
0000
0000
0000
0000
0000
0000
0000
0000
,
0000
0000
0000
0000
1000
0010
0100
0001
1000
0000
0000
0000
1100
0000
0000
0000
,
1000
0010
0200
0000
0000
0000
0310
1000
,
0001
0100
0001
0010
0011
0000
0101
0000
,
0001
1000
0100
0000
0020
0000
0000
0000
0000
0000
0000
0000
0130
0000
0100
0000
,
0010
0010
0001
1000
2200
0000
3300
2020
,
0000
3030
2002
0000
0000
3003
0001
0100
,
0010
0000
0100
0000
0001
0000
1000
0000
0200
0000
0320
0000
0031
1000
0002
0000
,
0203
0000
0320
0000
2030
0000
3002
0000
0013
0100
0020
0000
0032
0000
2003
0000
,
3020
0000
0230
0000
0301
1000
0001
1000
0001
0000
0000
0000
0010
0000
0000
0000
,
0100
0000
1000
0000
0200
0000
0000
0000
0000
0000
0000
0000
1300
0010
1000
0010
,
0100
0001
0100
0001
1000
0001
1000
0001
1000
0100
0010
0001
1000
0010
0100
0001
,
0100
0010
1000
0001
0010
0100
1000
0010
0001
0010
1000
0001
0100
0010
1000
0001
,
0010
0100
1000
0010
0100
1000
0100
0001
0020
0000
0000
0000
0000
0000
0130
0000
,
0100
1000
0000
0001
0000
0000
0202
0000
0000
0000
0000
0000
0003
0000
0000
0000
0000
0000
0310
0000
0000
1000
0000
0000
,
0001
0000
0100
0000
0001
0000
0010
0000
0200
0000
2300
0000
3001
0010
0002
0000
,
0203
0000
0320
0000
2030
0000
3002
0000
0013
0100
0020
0000
0230
0000
2300
0000
,
3020
0000
0000
0000
0000
0000
0230
0000
0000
0000
0000
0000
0301
0000
0000
1000
0000
0000
0001
0000
0000
1000
0000
0000
0001
0000
0000
0000
0100
0000
0000
0000
0010
0000
0000
0000
1000
0000
0000
0000
0010
0000
0000
0000
0100
0000
0000
0000
,
0001
0010
0100
1000
0100
0010
0001
0100
1000
0001
0010
1000
,
0001
0000
0010
0000
1000
0000
0001
0000
0100
0000
1000
0000
0010
0000
0000
0000
0000
0000
0100
0001
0000
0010
0000
0000
,
0000
0100
2002
0000
0000
0000
3003
0000
;
