#TITLE:FUNKY BINGO PARADISE;
#SUBTITLE:;
#ARTIST:SAWASAKI YOSHIHIRO;
#TITLETRANSLIT:;
#SUBTITLETRANSLIT:;
#ARTISTTRANSLIT:;
#GENRE:;
#CREDIT:;
#MUSIC:FUNKY BINGO PARADISE-audio.ogg;
#BANNER:FUNKY BINGO PARADISE-banner.png;
#BACKGROUND:FUNKY BINGO PARADISE-background.png;
#CDTITLE:scr-cdtitle.png;
#SAMPLESTART:14.436;
#SAMPLELENGTH:14.436;
#SELECTABLE:YES;
#OFFSET:0.000;
#BPMS:0.000=133.000;
#STOPS:;
#JACKET:FUNKY BINGO PARADISE-jacket.png;
#BGCHANGES:;
#FGCHANGES:;

//--------------- dance-single - Scrypts [DS, XO] ----------------
#NOTES:
     dance-single:
     Scrypts [DS, XO]:
     Hard:
     13:
     0,0,0,0,0:
0000
0000
0000
0000
,
0000
0000
0000
0000
,
0000
0000
0000
0000
,
0000
0000
0000
0000
,
1000
0010
0100
0001
1000
0100
0120
0030
,
0001
0100
0010
1000
0100
1000
1001
0000
,
0001
0100
0010
1000
0100
0010
0210
0300
,
2000
0010
0000
3002
0010
0000
1003
0010
2000
0010
0000
0000
3002
0010
0000
0000
,
1003
0000
0010
0200
0001
0000
0000
0000
0310
0000
1000
0000
1001
0000
0000
0000
,
1000
0000
0100
0020
0001
0000
0000
0000
0130
0000
1000
0000
0100
0010
0000
0000
,
0001
0000
0100
0020
1000
0000
0000
0000
0130
0000
0001
0000
1001
0000
0000
0000
,
0001
0000
0010
0200
1000
0000
0000
0000
0310
0000
0001
0000
2000
0010
0000
0000
,
3001
0000
0100
0020
1000
0000
0000
0000
0130
0000
0001
0000
1001
0000
0000
0000
,
0001
0000
0010
0200
1000
0000
0000
0000
0310
0000
0001
0000
0100
0010
0000
0000
,
1000
0000
0010
0200
0001
0000
0000
0000
0310
0000
1000
0000
1001
0000
0000
0000
,
1000
0000
0100
0020
0001
0000
0230
0000
2300
0010
0000
0000
3002
0010
0000
0000
,
1003
0000
0001
0000
1000
0100
0000
0002
0000
0000
0103
0000
0010
0000
0002
0000
,
1000
0000
0000
0000
0100
0000
0000
0000
1003
0000
0100
0000
1000
0010
0000
0000
,
0100
0000
0001
0000
1000
0100
0000
0002
0000
0000
0103
0000
0010
0000
0001
0000
,
1000
0000
0010
0000
0100
0000
0010
0001
0000
0020
0030
0000
2010
0000
3000
0000
,
0001
0000
1000
0000
0001
0100
0000
2000
0000
0000
3100
0000
0010
0000
2000
0000
,
0001
0000
0000
0000
0100
0000
0000
0000
3001
0000
0100
0000
0001
0010
0000
0000
,
0100
0000
1000
0000
0001
0100
0000
2000
0000
0000
3100
0000
0010
0000
1000
0000
,
1010
0000
0000
0011
0000
0000
1010
0000
0002
0010
0000
0000
2003
0010
0000
0000
,
3001
0000
0010
0200
1000
0000
0000
0000
0310
0000
0001
0000
1001
0000
0000
0000
,
0001
0000
0100
0020
1000
0000
0000
0000
0130
0000
0001
0000
0100
0010
0000
0000
,
1000
0000
0100
0020
0001
0000
0000
0230
1000
0000
0000
0320
0001
0000
0031
0000
,
1000
0000
0010
0200
0001
0000
0000
0000
0310
0000
1000
0000
0002
0010
0000
0000
,
1003
0000
0000
0010
0100
0000
0001
0000
0002
0000
0003
0010
0100
0000
1000
0000
,
2000
0000
3000
0100
0010
0000
0001
0000
0002
0000
0003
0100
0010
0000
1000
0000
,
2001
0000
3000
0010
0100
0000
0001
0000
0002
0000
0003
0100
0010
0000
1000
0000
,
0200
0000
0300
0010
0002
0000
0003
1000
0020
0000
0230
0000
0302
0010
0000
0000
,
1003
0010
1000
0001
1000
0100
1000
0020
,
0000
0130
1000
0100
0001
0010
1000
0010
,
0001
0100
0001
1000
0001
0010
0001
0100
,
0010
0000
1000
0000
0100
0000
0001
0000
0100
0000
0010
0000
0002
0010
0003
0000
,
0001
0010
0001
1000
0001
0100
0001
0020
,
0000
0130
0001
0100
1000
0010
0001
0010
,
1000
0100
1000
0001
1000
0010
1000
0100
,
0010
0000
0001
0000
0100
0000
1000
0000
0100
0000
0010
0000
2000
0010
3000
0000
,
0001
0010
0000
0000
0100
0000
1000
0001
0000
0000
0100
0000
0010
0000
1000
0000
,
0010
0100
0000
0001
1000
0000
1000
0200
0000
0000
0310
0000
0001
0000
0010
0000
,
0100
1000
0000
1000
0001
0000
0001
0100
0000
0100
0010
0000
0010
1000
0000
2002
,
0000
0000
3000
0000
0000
0000
0003
0000
0101
0000
0000
1100
0000
0000
0101
0000
,
1000
0100
0010
0001
0010
0100
1000
0001
,
1000
0010
0100
1000
0001
0010
1000
0001
,
1000
0100
0010
0100
1000
0010
1000
0001
,
1000
0000
0100
0000
0010
0000
1000
0000
0001
0000
0100
0000
2000
0010
0000
0000
,
3001
0010
0100
1000
0100
0010
0001
1000
,
0001
0100
0010
0001
1000
0100
0001
1000
,
0001
0010
0100
1000
0010
1000
0001
0010
,
0100
0000
0001
0000
1000
0000
0010
0000
0002
0010
0000
0000
2003
0010
0000
0000
,
3001
0010
0000
0000
0100
0000
1000
0010
0000
0000
0100
0000
0001
0000
1000
0000
,
0001
0010
0000
0010
0100
0000
0100
1000
0002
0000
0000
0000
0000
0000
0003
0000
,
0101
0000
0000
1100
0000
0000
1001
0000
0101
0000
0000
1100
0000
0000
1001
0000
,
0101
0000
0000
1100
0000
0000
1001
0000
2000
0010
0000
0000
3002
0010
0000
0000
,
0003
0000
0000
0000
;
