#TITLE:FIREBALL;
#SUBTITLE:;
#ARTIST:Sweet little 30's;
#TITLETRANSLIT:;
#SUBTITLETRANSLIT:;
#ARTISTTRANSLIT:;
#GENRE:;
#CREDIT:;
#BANNER:FIREBALL.png;
#BACKGROUND:FIREBALL-bg.png;
#LYRICSPATH:FIREBALL.lrc;
#CDTITLE:;
#MUSIC:FIREBALL.ogg;
#OFFSET:-0.008000;
#SAMPLESTART:28.010017;
#SAMPLELENGTH:12.000000;
#SELECTABLE:YES;
#BPMS:0.000000=240.000000
;
#STOPS:
;
#BGCHANGES:0.000=FIREBALL.mp4=1.000=0=0=0=StretchNoLoop====,
99999=-nosongbg-=1.000=0=0=0 // don't automatically add -songbackground-
;
#KEYSOUNDS:;
#ATTACKS:;

//---------------dance-single - ----------------
#NOTES:
     dance-single:
     :
     Hard:
     14:
     0.719402,0.769518,0.577139,0.690303,0.741227,445.000000,394.000000,51.000000,61.000000,0.000000,0.000000,0.719402,0.769518,0.577139,0.690303,0.741227,445.000000,394.000000,51.000000,61.000000,0.000000,0.000000:
// measure 0
0000
0000
0000
0000
,  // measure 1
0000
0000
0000
0000
,  // measure 2
0000
0000
0000
0000
,  // measure 3
0000
0000
0000
0000
,  // measure 4
1000
0000
0010
1000
0000
0001
1000
0000
0100
1000
0000
0001
,  // measure 5
2000
3020
0130
0110
,  // measure 6
0001
0000
0100
0001
0000
1000
0001
0000
0010
0001
0000
1000
,  // measure 7
0002
0023
0130
0110
,  // measure 8
1000
0000
1000
0100
0000
0100
0010
0000
0010
0001
0000
0000
,  // measure 9
1000
0000
1000
0001
0000
0001
0100
0000
0100
0010
0000
0000
,  // measure 10
1000
0000
1000
0100
0000
0100
0010
0000
0010
0001
0000
0001
,  // measure 11
0100
0000
0010
0000
0000
0100
0010
0000
0100
0010
0000
1000
,  // measure 12
0001
0000
0000
0102
0000
0000
1003
0000
0000
0001
0000
0010
,  // measure 13
0200
0000
0000
1300
0000
0000
0010
0000
0100
0001
0000
1000
,  // measure 14
0100
0000
0000
2100
0000
0000
3001
0000
0000
1000
0000
0010
,  // measure 15
0200
0000
0000
0301
0000
0000
0010
0000
0100
1000
0000
0001
,  // measure 16
1000
1010
0001
0011
,  // measure 17
1000
1100
0001
0101
,  // measure 18
1000
0000
0000
0100
0000
0000
0100
0000
0020
0000
0000
0032
,  // measure 19
0000
0000
1003
0010
0000
0200
0000
0000
0301
1000
0000
0001
,  // measure 20
1000
0000
0000
0100
0000
0000
0100
0000
0000
1000
0000
0010
,  // measure 21
1000
0000
0010
0100
0000
0000
0001
0000
0010
0100
0000
1000
,  // measure 22
0001
0000
0000
0100
0000
0000
0100
0000
0000
0001
0000
0010
,  // measure 23
0100
0000
0000
1000
0000
1002
0000
0000
0000
0133
0000
0000
,  // measure 24
0001
0101
1000
1100
,  // measure 25
0001
0000
0000
0011
0000
0000
1000
0000
0000
0001
0000
0100
,  // measure 26
0020
0001
0230
1000
,  // measure 27
0302
0023
0230
2300
,  // measure 28
3001
0000
0000
0101
0000
0000
0001
0000
0010
0100
0000
2000
,  // measure 29
0001
0000
0000
3010
0000
0000
1000
0000
0001
1000
0000
0200
,  // measure 30
0010
0000
0000
0310
0000
0000
0001
0000
0010
0000
0000
2001
,  // measure 31
0000
0000
0000
3001
0000
0102
0000
0000
0000
1003
0000
0000
,  // measure 32
0010
0000
0000
1010
0000
0000
1000
0000
0100
0010
0000
0002
,  // measure 33
1000
0000
0000
0103
0000
0000
0001
0000
1000
0001
0000
0020
,  // measure 34
0100
0000
0000
0130
0000
0000
1000
0000
0100
0000
0000
1002
,  // measure 35
0000
0000
0000
1003
0000
2010
0000
0000
0000
3001
0000
0000
,  // measure 36
1000
0000
0100
1000
0000
0001
1000
0000
0010
1000
0000
0000
,  // measure 37
0001
0000
0100
0001
0000
1000
0001
0000
0010
0001
0000
0000
,  // measure 38
1000
0000
0100
1000
0000
0100
0010
0000
0010
0001
0000
0000
,  // measure 39
0001
0000
0100
0001
0000
0100
0010
0000
0010
1000
0000
0000
,  // measure 40
0001
0000
0001
0010
0000
0010
0100
0000
0100
1000
0000
1000
,  // measure 41
0010
0000
0010
0100
0000
0100
0001
0000
1000
0001
1000
0000
,  // measure 42
0000
0000
0000
0000
,  // measure 43
0000
0000
0000
0000
,  // measure 44
0102
0000
0000
1003
0000
0000
0002
0000
0000
0103
0000
0020
,  // measure 45
0000
0000
0130
0010
0000
0100
0010
0000
0100
0010
0000
1000
,  // measure 46
0001
0000
0000
1000
0000
0100
1000
0000
0000
0001
0000
0100
,  // measure 47
0001
0000
0000
1000
0000
0010
1000
0000
0000
0001
0000
0000
,  // measure 48
1000
0000
0000
1200
0000
0000
0310
0000
0200
0000
0000
1300
,  // measure 49
0001
0000
1000
0001
0000
0200
0000
0000
0310
1000
0000
0000
,  // measure 50
0001
0000
0010
0001
0000
0000
1000
0000
0010
1000
0000
0000
,  // measure 51
1010
0000
0000
0110
0000
0000
0001
0000
1000
3003
0000
0001
,  // measure 52
1000
0000
1010
0000
0001
0010
0000
0010
,  // measure 53
0100
0000
0100
1000
0000
1000
0001
0000
,  // measure 54
1000
0010
0200
0000
0001
0000
0310
1000
,  // measure 55
0002
0000
0003
1300
0100
0020
0000
0000
,  // measure 56
0031
0030
0100
0000
0001
0010
0000
0010
,  // measure 57
0100
2000
0001
3001
,  // measure 58
2100
0000
0000
3020
0000
0000
0130
0000
,  // measure 59
0102
0000
0000
2003
0000
0000
3100
0000
,  // measure 60
1001
0000
0000
0101
0000
0000
1000
0000
0100
0010
0000
0002
,  // measure 61
1000
0000
0000
0103
0000
0000
0001
0000
0100
0010
0000
2000
,  // measure 62
0001
0000
0000
3001
0000
0000
1000
0000
0010
0000
0000
2010
,  // measure 63
0000
0000
3000
0001
0000
0012
0000
0000
1003
0100
0000
0010
,  // measure 64
0001
0000
0000
1010
0000
0000
0001
0000
0010
0100
0000
2000
,  // measure 65
0001
0000
0000
3010
0000
0000
1000
0000
0010
0100
0000
0001
,  // measure 66
0010
0000
0000
0010
0000
0000
0010
0000
0010
0000
0000
0022
,  // measure 67
0000
0033
0001
1003
0000
2020
0000
3030
1000
0001
0000
0000
,  // measure 68
1000
0000
0000
1100
0000
0000
0100
0000
0000
0110
0000
0010
,  // measure 69
0001
0000
0000
0011
0000
0000
0001
0000
0000
0101
0000
0100
,  // measure 70
0010
0000
0000
0110
0000
0000
0010
0000
0000
1000
0000
2010
,  // measure 71
0000
0000
0000
3001
0000
0012
0000
0000
0000
1003
0000
0000
,  // measure 72
1001
0000
0000
0011
0000
0000
0100
0000
0000
1010
0000
0001
,  // measure 73
0010
0000
0000
1100
0000
0000
0010
0000
0000
0101
0000
1000
,  // measure 74
0100
0000
0000
0011
0000
0000
0100
0000
0000
1000
0000
2010
,  // measure 75
0000
0000
0003
3001
0000
0012
0000
0000
3000
1003
0000
0001
,  // measure 76
1000
0000
0000
0001
0000
0100
0010
0000
0010
1000
0000
0000
,  // measure 77
0001
0000
0001
0010
0000
0010
0100
0000
0100
1000
0000
0000
,  // measure 78
2200
0000
0000
3300
0000
0202
0000
0000
,  // measure 79
0000
0000
0000
0303
0000
0000
0000
0000
0220
0000
0000
0000
0000
0000
0000
0000
0000
0000
0000
0000
0000
0000
0000
0000
,  // measure 80
0000
0000
0000
0000
,  // measure 81
0000
0000
0000
0000
,  // measure 82
0000
0000
0000
0000
0000
0000
0330
0000
0000
0000
0000
2002
,  // measure 83
0000
0000
0000
0000
,  // measure 84
0000
0000
0000
3003
,  // measure 85
3003
0000
0000
0000
;

//---------------dance-single - ----------------
#NOTES:
     dance-single:
     :
     Medium:
     11:
     0.515706,0.671348,0.282911,0.577139,0.435683,319.000000,294.000000,25.000000,51.000000,0.000000,0.000000,0.515706,0.671348,0.282911,0.577139,0.435683,319.000000,294.000000,25.000000,51.000000,0.000000,0.000000:
0000
0000
0000
0000
,
0000
0000
0000
0000
,
0000
0000
0000
0000
,
0000
0000
0000
0000
,
1000
0000
0000
0100
0000
0000
0010
0000
0000
0001
0000
1000
,
0001
0000
0000
0100
0000
0000
0010
0000
0000
1000
0000
0100
,
1000
0000
0000
0010
0000
0000
0100
0000
0000
0001
0000
0010
,
0001
0000
0000
1000
0000
0000
0010
0000
0100
0010
0000
0100
,
0010
0000
0000
1000
0000
0000
0010
0000
0000
0100
0000
0001
,
0100
0000
0000
0010
0000
0000
1000
0000
0000
0001
0000
0010
,
0001
0000
0000
1000
0000
0000
0001
0000
0000
1000
0000
0100
,
1000
0000
0000
0001
0000
0000
0100
0000
0010
0100
0000
0010
,
1000
0000
0000
0001
0000
0000
0100
0000
0000
0010
0000
0100
,
0010
2000
0000
3001
,
1000
0000
0000
0100
0000
0000
0010
0000
0000
0001
0000
1000
,
0001
0200
0000
0310
,
1000
0001
0010
0100
,
1000
0010
0100
0001
,
1000
0000
0000
0100
0000
0000
0200
0000
0000
0000
0000
0320
,
0000
0000
0031
1000
0000
0002
0000
0000
0000
0000
0000
0000
,
0103
0000
0000
0100
0000
0000
0010
0000
0000
1000
0000
0100
,
1000
0002
0000
1003
,
0010
0000
0000
0100
0000
0000
0001
0000
0000
1000
0000
0001
,
1000
0000
0000
0001
0000
0200
0000
0000
0000
0000
0000
0000
,
0310
1000
0100
0010
,
0001
1000
0010
0100
,
0202
0303
2200
3300
,
0001
0010
0100
1000
,
0001
0000
0000
0100
0000
0000
0010
0000
1000
0000
0000
1000
,
0000
0000
0000
0001
0000
0000
1000
0000
0100
0000
0000
0100
,
0000
0000
0000
0010
0000
0000
0001
0000
0100
0000
0000
0202
,
0000
0000
0303
0000
0000
2200
0000
0000
0000
3300
0000
0000
,
1000
0000
0000
0010
0000
0000
0100
0000
0001
0000
0000
0001
,
0000
0000
0000
1000
0000
0000
0001
0000
0010
0000
0000
0010
,
0000
0000
0000
0100
0000
0000
1000
0000
0010
0000
0000
2020
,
0000
0000
3030
0000
0000
0022
0000
0000
0000
0033
0000
0000
,
1000
0000
0000
0001
0000
0000
0100
0000
0000
0010
0000
0100
,
0010
0000
0000
1000
0000
0000
0100
0000
0000
0010
0000
0001
,
0010
0000
0000
0001
0000
0000
1000
0000
0000
0010
0000
0100
,
0010
0000
0000
0100
0000
0000
0001
0000
1000
0001
0000
1000
,
0001
0000
0000
0100
0000
0000
0010
0000
0000
1000
0000
0100
,
1000
0000
0000
0010
0000
0000
0100
0000
0001
1000
0001
0003
,
0000
0000
0000
0000
,
0000
0000
0000
0000
,
1002
0000
0000
0000
0000
0000
0023
0003
0000
0000
0000
0000
,
0100
0000
0000
0100
0000
0000
0100
0000
0000
0130
0030
0000
,
1000
0000
0000
0010
0000
0000
0100
0000
0000
0001
0000
0100
,
0001
0000
0000
1000
0000
0100
1000
0000
0000
0000
0000
0000
,
0001
0010
0100
1000
,
0010
0010
0010
0010
,
1000
0000
0100
1000
0000
0000
0001
0000
0100
0001
0000
0000
,
1000
0001
0010
0000
,
1001
0000
0001
0000
0000
0001
0000
0000
,
0100
0000
0000
0100
0000
0000
0010
0000
,
0020
0000
0000
1030
,
0200
0000
0320
0000
,
0031
0000
1000
0000
0000
0010
0000
0000
,
0100
0200
0000
0000
,
0302
0000
0000
0023
0000
0000
0130
0000
,
0200
0000
0000
2300
0000
0000
3010
0000
,
1001
0000
0000
0001
0000
0000
0010
0000
0100
0000
0000
0100
,
0000
0000
0000
1000
0000
0000
0010
0000
0100
0000
0000
0100
,
0000
0000
0000
0010
0000
0000
1000
0000
0001
0000
0000
0202
,
0000
0000
0000
0303
0000
2200
0000
0000
0000
3300
0000
0000
,
1001
0000
0000
1000
0000
0000
0100
0000
0010
0000
0000
0010
,
0000
0000
0000
0001
0000
0000
0100
0000
0010
0000
0000
0010
,
0100
0000
0000
0100
0000
0000
0100
0000
0100
0000
0000
0220
,
0000
0000
0000
0330
0000
2002
0000
0000
0000
3003
0000
0000
,
1000
0000
0000
1100
0000
0000
0100
0000
0000
0010
0000
0001
,
0100
0000
0000
0101
0000
0000
0100
0000
0000
0010
0000
1000
,
0010
0000
0000
1010
0000
0000
1000
0000
0000
0001
0000
0020
,
0000
0000
0000
0130
0000
2000
0000
0000
0000
0000
0000
0000
,
3001
0000
0000
0101
0000
0000
0100
0000
0000
0010
0000
1000
,
0100
0000
0000
1100
0000
0000
1000
0000
0000
0100
0000
0010
,
0100
0000
0000
0110
0000
0000
0010
0000
0000
0001
0000
2000
,
0000
0000
0000
3010
0000
0200
0000
0000
0000
0301
0000
0000
,
0202
0303
1000
0100
,
0010
0000
0001
1000
0000
0001
1000
0000
0001
1000
0000
0000
,
2200
0000
0000
0000
0000
0000
0000
0000
0000
3303
3003
0000
0300
0000
0000
0202
0000
0000
0000
0000
0000
0000
0000
0000
,
0000
0000
0000
0333
0000
0000
0000
0000
0220
0000
0000
0000
0000
0000
0000
0000
0000
0000
0000
0000
0000
0000
0000
0000
,
0000
0000
0000
0000
,
0000
0000
0000
0000
,
0000
0000
0000
0000
0000
0000
3333
0000
0000
0000
0000
2002
,
0000
0000
0000
0000
,
0000
0000
0000
3003
;

//---------------dance-single - ----------------
#NOTES:
     dance-single:
     :
     Easy:
     8:
     0.404159,0.479534,0.350810,0.203696,0.062240,250.000000,219.000000,31.000000,18.000000,0.000000,0.000000,0.404159,0.479534,0.350810,0.203696,0.062240,250.000000,219.000000,31.000000,18.000000,0.000000,0.000000:
0000
0000
0000
0000
,
0000
0000
0000
0000
,
0000
0000
0000
0000
,
0000
0000
0000
0000
,
0001
0100
0010
0100
,
0001
0100
0001
0001
,
1000
0100
0010
0100
,
1000
0100
1000
1000
,
0001
1000
0010
1000
,
0001
1000
0001
0001
,
1000
0001
0010
0001
,
1000
0001
1000
1000
,
0001
0100
0010
0000
,
1000
0010
1000
0000
,
1000
0100
0010
0000
,
0001
0010
0001
0000
,
1000
0010
0100
0000
,
0001
0010
0100
0000
,
1000
0010
0100
0001
,
0010
0100
1000
0000
,
0001
1000
0010
0000
,
1000
1000
0001
0000
,
1000
0001
0010
0000
,
0001
0000
0000
0000
0000
1001
0000
0000
0000
0000
0000
0000
,
1000
0010
0100
0000
,
0001
0010
0100
0000
,
2000
0000
3002
0000
,
1003
0010
0100
0001
,
1000
0100
0010
0000
,
0010
0100
1000
0000
,
0001
0000
0000
0100
0000
0000
0010
0000
0000
0000
0000
0110
,
0000
0000
0000
0000
0000
1001
0000
0000
0000
0000
0000
0000
,
0001
1000
0010
0000
,
0010
1000
0001
0000
,
1000
0000
0000
0100
0000
0000
0010
0000
0000
0000
0000
0110
,
0000
0000
0000
0000
0000
1001
0000
0000
0000
0000
0000
0000
,
0001
0100
0010
0100
,
0001
0100
0001
0001
,
1000
0100
0010
0100
,
1000
0100
1000
1000
,
0001
1000
0100
0010
,
0001
0100
0010
1001
,
0000
0000
0000
0000
,
0000
0000
0000
0000
,
0002
0000
2003
0000
,
3001
1000
0001
1000
,
0010
0100
0010
0000
,
0100
0010
0100
0000
,
0001
0010
0100
0000
,
1000
0010
0100
0000
,
0010
1000
0100
0100
,
0010
0001
0100
0000
,
0001
1000
0001
1000
,
0100
1000
0100
1000
,
0100
0020
0000
0100
,
0230
0000
2300
0000
,
3001
0100
0010
0000
,
1000
0100
0010
0000
,
0002
0000
2003
0000
,
3020
0000
0130
0000
,
1001
1000
0001
1000
,
0010
0100
0001
0000
,
1000
0000
0000
0100
0000
0000
0010
0000
0000
0000
0000
0110
,
0000
0000
0000
0000
0000
1001
0000
0000
0000
0000
0000
0000
,
1001
0001
1000
0010
,
0100
0001
1000
0000
,
0001
0000
0000
0010
0000
0000
0100
0000
0000
0000
0000
0110
,
0000
0000
0000
0000
0000
1001
0000
0000
0000
0000
0000
0000
,
0000
1001
0000
0110
,
0000
1001
0000
0110
,
0000
1001
0000
0110
,
0000
1001
0000
0110
,
0000
1001
0000
0110
,
0000
1001
0000
0110
,
0000
1001
0000
0110
,
0000
1001
0000
0001
,
1000
0000
0000
0000
,
0000
0000
0000
0000
,
0220
0000
0330
0000
0000
2002
0000
3303
,
0000
0000
0000
0000
0220
0000
0000
0000
0000
0000
0000
0000
,
0000
0000
0000
0000
,
0000
0000
0000
0000
,
0000
0000
0000
0000
0000
0000
0330
0000
0000
0000
0000
2002
,
0000
0000
0000
0000
,
0000
0000
0000
3003
;

//---------------dance-single - ----------------
#NOTES:
     dance-single:
     :
     Beginner:
     4:
     0.153580,0.281496,0.067899,0.000000,0.011316,95.000000,89.000000,6.000000,0.000000,0.000000,0.000000,0.153580,0.281496,0.067899,0.000000,0.011316,95.000000,89.000000,6.000000,0.000000,0.000000,0.000000:
0000
0000
0000
0000
,
0000
0000
0000
0000
,
0000
0000
0000
0000
,
0000
0000
0000
0000
,
1000
0000
1000
0000
,
1000
0000
0000
0000
,
0100
0000
0100
0000
,
0100
0000
0000
0000
,
0010
0000
0010
0000
,
0010
0000
0000
0000
,
0001
0000
0001
0000
,
0001
0000
0000
0000
,
1000
0000
0000
0000
,
1000
0000
0000
0000
,
0010
0000
0000
0000
,
0010
0000
0000
0000
,
0100
0000
0000
0000
,
0100
0000
0000
0000
,
0001
0000
0000
0000
,
0000
0000
0000
0000
,
0001
0000
0000
0000
,
0001
0000
0000
0000
,
0010
0000
0000
0000
,
0010
0000
0000
0000
,
0100
0000
0000
0000
,
0100
0000
0000
0000
,
1000
0000
0000
0000
,
0000
0000
0000
0000
,
0001
0000
0001
0000
,
0001
0000
0000
0000
,
0100
0000
0000
0000
,
0100
0000
0000
0000
,
0010
0000
0010
0000
,
0010
0000
0000
0000
,
1000
0000
0000
0000
,
1000
0000
0000
0000
,
1001
0000
0000
0000
,
0000
0000
0000
0000
,
1000
0000
0000
0000
,
0000
0000
0000
0000
,
0100
0000
0100
0000
,
0100
0000
0100
0100
,
0000
0000
0000
0000
,
0000
0000
0000
0000
,
1000
0000
0000
0000
,
1000
0000
0000
0000
,
0001
0000
0000
0000
,
0001
0000
0000
0000
,
0100
0000
0000
0000
,
0100
0000
0000
0000
,
0010
0000
0000
0000
,
0010
0000
0000
0000
,
1000
0000
1000
0000
,
1000
0000
1000
0000
,
1000
0000
0000
0000
,
0001
0000
0000
0000
,
0001
0000
0001
0000
,
0001
0000
0000
0000
,
0010
0000
0000
0000
,
0010
0000
0000
0000
,
1001
0000
0000
0000
,
0001
0000
0000
0000
,
0100
0000
0100
0000
,
0100
0000
0000
0000
,
0010
0000
0000
0000
,
0010
0000
0000
0000
,
1000
0000
1000
0000
,
1000
0000
0000
0000
,
0000
0001
0000
0001
,
0000
0001
0000
0001
,
0000
0001
0000
0001
,
0000
0000
0000
0000
,
0000
1000
0000
1000
,
0000
1000
0000
1000
,
0000
1000
0000
1000
,
0000
0000
0000
0000
,
0010
0000
0000
0000
,
0000
0000
0000
0000
,
1001
0000
0000
0000
0000
1001
0000
0000
,
0000
0000
0000
0000
1001
0000
0000
0000
0000
0000
0000
0000
,
0000
0000
0000
0000
,
0000
0000
0000
0000
,
0000
0000
0000
0000
0000
0000
0000
0000
0000
0000
0000
1001
;

//---------------dance-double - ----------------
#NOTES:
     dance-double:
     :
     Hard:
     14:
     0.703236,0.767255,0.497923,0.927948,0.741227,435.000000,391.000000,44.000000,82.000000,0.000000,0.000000,0.703236,0.767255,0.497923,0.927948,0.741227,435.000000,391.000000,44.000000,82.000000,0.000000,0.000000:
00000000
00000000
00000000
00000000
,
00000000
00000000
00000000
00000000
,
00000000
00000000
00000000
00000000
,
00000000
00000000
00000000
00000000
,
00010000
00000000
00001000
00100000
00000000
00001000
00010000
00000000
00001000
01000000
00000000
00001000
,
00200000
00000000
00000000
02300000
00000000
00000000
03010000
00000000
00001000
00010000
00000000
00000000
,
00001000
00000000
00010000
00000010
00000000
00010000
00001000
00000000
00010000
00000100
00000000
00010000
,
00000020
00000000
00000000
00000230
00000000
00000000
00001300
00000000
00010000
00001000
00000000
00010000
,
00001000
00000000
00001000
00100000
00000000
00100000
00010000
00000000
00010000
01000000
00000000
01000000
,
00100000
00000000
00000000
10000000
00000000
00000000
00010000
00000000
00100000
00001000
00000000
00001000
,
00010000
00000000
00010000
00000010
00000000
00000010
00000100
00000000
00000100
00000001
00000000
00000001
,
00001000
00000000
00000100
00000000
00000000
00001000
00000001
00000000
00001000
00000001
00000000
00001000
,
00000010
00000000
00000000
00000201
00000000
00000000
00002300
00000300
00000000
00013000
00000000
00000100
,
00020000
00000000
00000000
02030000
00000000
00000000
03100000
00000000
00010000
10000000
00000000
00010000
,
01000000
00000000
00000000
10200000
00000000
00000000
00320000
00300000
00000000
00031000
00000000
00100000
,
00002000
00000000
00000000
00003020
00000000
00000000
00000130
00000000
00001000
00000001
00000000
00001000
,
00000001
00000101
00001000
00001100
,
00000010
00010010
00010000
00011000
,
00001000
00000000
00000000
00000000
00000000
00000000
00010200
00000000
00000000
00000000
00000000
00000000
00010300
00000000
00000000
00003000
00020000
00000000
00000000
00000000
00000000
00000000
00032000
00000000
,
00000000
00000000
01003000
00100000
00000000
02000000
00000000
00000000
03010000
10000000
00000000
00010000
,
00100000
00000000
00000000
01000000
00000000
00000000
01000000
00000000
00000000
10000000
00000000
01000000
,
00100000
00000000
00001000
00010000
00000000
00000000
00001000
00000000
00010000
00000010
00000000
00001000
,
00000010
00000000
00000000
00000100
00000000
00000000
00000100
00000000
00000000
00000001
00000000
00000010
,
00000100
00000000
00001000
00000000
00000000
00020100
00000000
00000000
00000000
00031000
00000000
00100000
,
01000000
00000000
00000000
20000000
00000000
00000000
30020000
00000000
00000000
31030000
00000000
00100000
,
01000000
00000000
00000000
00010000
00000000
00100000
00001000
00000000
00001000
00010000
00000000
00000000
,
00020010
00031000
00102000
00013000
,
00021000
00030200
00000320
00000031
,
00002001
00000000
00000000
00033020
00000000
00000000
00000130
00000000
00001000
00010000
00000000
00002000
,
00000000
00000000
00000000
00203000
00000000
00000000
00310000
00000000
00100000
01000000
00000000
00100000
,
00001000
00000000
00000000
00001000
00000000
00000000
01000000
00000000
00001000
00000000
00000000
00020100
,
00000000
00000000
00031000
01000000
00000000
02010000
30000000
00000000
00000000
03130000
00000000
00000000
,
10020000
00000000
00000000
02033000
00000000
00000000
03100000
00000000
00010000
00001000
00000000
00020000
,
00000000
00000000
00000000
00030200
00000000
00000000
00001300
00000000
00000100
00000010
00000000
00000100
,
00010000
00000000
00000000
00010000
00000000
00000000
00000010
00000000
00010000
00000000
00000000
00102000
,
00000000
00000000
00013000
00000010
00000000
00001020
00000003
00000000
00000000
00003130
00000000
00000000
,
00000001
00000000
00001000
00000001
00000000
00000010
00000001
00000000
00000010
00000100
00000000
00000100
,
00020000
00032000
02003000
03200000
,
10300000
00000000
00010000
10000000
00000000
01000000
10000000
00000000
01000000
00100000
00000000
00100000
,
00002000
00023000
00030020
00000230
,
00000301
00000000
00000001
00000010
00000000
00000010
00000100
00000000
00000100
00001000
00000000
00001000
,
00010000
00000000
00010000
00100000
00000000
00100000
01000000
00000000
10000000
00010000
00000000
00000000
,
00000000
00000000
00000000
00000000
,
00000000
00000000
00000000
00000000
,
01002000
00000000
00000000
00013000
00000000
00000000
00002000
00000000
00000000
00103000
00000000
02000000
,
00000000
00000000
13000000
00010000
00000000
10000000
00010000
00000000
10000000
00010000
00000000
10000000
,
00100000
01000000
00001000
00010000
,
00000100
00000010
00000001
00001000
,
00000001
00000000
00000000
00000200
00000000
00000000
00000310
00000000
00000100
00000010
00000000
00000000
,
00001000
00000000
00000100
00000010
00000000
00000000
00000001
00000000
00000100
00000010
00000000
00000000
,
00001000
00000000
00001000
00000100
00000000
00000100
00010000
00000000
00010000
00001000
00000000
00000000
,
00101000
01100000
20020000
30030000
,
10000000
00000000
00200000
00000000
10300000
01000000
00300000
01000000
,
00010000
00000000
00010000
00001000
00000000
00001000
00000010
00000000
,
00000001
00000100
00000020
00000000
00000000
00000000
00000130
00000000
,
00000200
00000000
00000000
00000301
00001000
00000002
00000000
00000000
,
00001003
00000000
00000100
00000000
00010000
00001000
00000000
00010000
,
00001000
00200000
00000000
01300000
,
21000000
00000000
00000000
30020000
00000000
00000000
01030000
00000000
,
01002000
00000000
00000000
00023000
00000000
00000000
00030010
00000000
,
00011000
00000000
00000000
00002000
00000000
00000000
00103000
00000000
00010000
01000000
00000000
00002000
,
00000000
00000000
00000000
00023000
00000000
00000000
00030010
00000000
00001000
00000100
00000000
00020000
,
00000000
00000000
00000000
00031000
00000000
00000000
01000000
00000000
00100000
00000000
00000000
20100000
,
00000000
00000000
30010000
00100000
00000000
00102000
00000000
00000000
00013000
00001000
00000000
00000000
,
00011000
00000000
00000000
00020000
00000000
00000000
00030100
00000000
00001000
00000010
00000000
00000100
,
00000002
00000000
00000000
00002003
00000000
00000000
00003100
00000000
00010000
00001000
00000000
00100000
,
01000000
00000000
00000000
01000000
00000000
00000000
01000000
00000000
01000000
00000000
00000000
21000000
,
00000000
00000000
30010000
01000000
00000000
01020000
00000000
00000000
10030000
00010000
00000000
00000000
,
10000000
00000000
00000000
10100000
00000000
00000000
00010000
00000000
00000000
01010000
00000000
00010000
,
00100000
00000000
00000000
00101000
00000000
00000000
00001000
00000000
00000000
00011000
00000000
00010000
,
00000100
00000000
00000000
00001100
00000000
00000000
00001000
00000000
00000010
00000100
00000000
00000002
,
00000000
00000000
00000013
00000100
00000000
00002000
00000000
00000000
00000000
00003001
00000000
00000000
,
00001001
00000000
00000000
00000101
00000000
00000000
00001000
00000000
00000000
00001010
00000000
00001000
,
00000100
00000000
00000000
00010100
00000000
00000000
00010000
00000000
00000000
00011000
00000000
00001000
,
00100000
00000000
00000000
00110000
00000000
00000000
00010000
00000000
01000000
00100000
00000000
20000000
,
00000000
00000000
31000000
00100000
00000000
00020000
00000000
00000000
00000000
10030000
00000000
00010000
,
10000000
00000000
00000000
00010000
00000000
00010000
01000000
00000000
01000000
00001000
00000000
00001000
,
00010000
00000000
00010000
00000100
00000000
00000100
00000010
00000000
00000010
00000001
00000000
00000000
,
00002002
00000000
00003303
00000000
00000000
00022000
00000000
00033030
,
00000000
00000000
00000000
00000000
20020000
00000000
00000000
00000000
00000000
00000000
00000000
00000000
,
00000000
00000000
00000000
00000000
,
00000000
00000000
00000000
00000000
,
00000000
00000000
00000000
00000000
00000000
00000000
30030000
00000000
00000000
00000000
00000000
00022000
,
00000000
00000000
00000000
00000000
,
00000000
00000000
00000000
00033000
;

//---------------dance-double - ----------------
#NOTES:
     dance-double:
     :
     Medium:
     11:
     0.530256,0.671348,0.339493,0.611088,0.356468,328.000000,298.000000,30.000000,54.000000,0.000000,0.000000,0.530256,0.671348,0.339493,0.611088,0.356468,328.000000,298.000000,30.000000,54.000000,0.000000,0.000000:
00000000
00000000
00000000
00000000
,
00000000
00000000
00000000
00000000
,
00000000
00000000
00000000
00000000
,
00000000
00000000
00000000
00000000
,
00010000
00000000
00000000
00001000
00000000
00000000
00100000
00000000
00000000
01000000
00000000
00100000
,
01000000
00100000
00010000
01000000
,
00001000
00000000
00000000
00010000
00000000
00000000
00000010
00000000
00000000
00000100
00000000
00000010
,
00000100
00000010
00001000
00000100
,
00010000
00000000
00000000
00001000
00000000
00000000
00100000
00000000
00000000
01000000
00000000
10000000
,
01000000
00100000
00010000
01000000
,
00001000
00000000
00000000
00010000
00000000
00000000
00000010
00000000
00000000
00000100
00000000
00000001
,
00000100
00000010
00001000
00000100
,
00011000
00000000
00000000
00001000
00000000
00000000
00100000
00000000
00000000
00010000
00000000
01000000
,
00100000
20000000
00000000
30100000
,
01000000
00000000
00000000
00010000
00000000
00000000
00100000
00000000
00000000
00001000
00000000
00010000
,
00000100
00002000
00000000
00003001
,
00000100
00000010
00001000
00000100
,
00000001
00000100
00001000
00000010
,
00000100
00000000
00000000
00001000
00000000
00000000
00002000
00000000
00000000
00000000
00000000
00023000
,
00000000
00000000
00000000
00130000
00000000
02000000
00000000
00000000
00000000
03001000
00000000
00000000
,
00011000
00000000
00000000
00010000
00000000
00000000
00000100
00000000
00000000
00000010
00000000
00000001
,
00001000
00000002
00000000
00000103
,
00000010
00000000
00000000
00001000
00000000
00000000
00000100
00000000
00000000
00010000
00000000
00001000
,
00100000
00000000
00000000
00010000
00000000
02020000
00000000
00000000
00000000
03030000
00000000
00000000
,
10000000
00000000
00000000
01000000
00000000
00000000
00100000
00000000
00000000
00010000
00000000
01000000
,
00010000
00100000
00001000
00010000
,
00000020
00000130
00000230
00000301
,
00000302
00000000
00000000
00000023
00000003
00000000
00000230
00000030
00000000
00020300
00000300
00000000
,
00031000
00000000
00000000
00100000
00000000
00000000
00010000
00000000
01000000
00010000
00000000
01000000
,
00000000
00000000
00000000
00100000
00000000
00000000
10000000
00000000
01000000
10000000
00000000
01000000
,
00000000
00000000
00000000
00100000
00000000
00000000
00010000
00000000
00000000
00000000
00000000
02020000
,
00000000
00000000
03030000
00000000
00000000
00022000
00000000
00000000
00033000
00000000
00000000
00000000
,
00013100
00000000
00000000
00000100
00000000
00000000
00001000
00000000
00000010
00001000
00000000
00000010
,
00000000
00000000
00000000
00000100
00000000
00000000
00000001
00000000
00000010
00000001
00000000
00000010
,
00000000
00000000
00000000
00000100
00000000
00000000
00001000
00000000
00000000
00000000
00000000
00002020
,
00000000
00000000
00003030
00000000
00000000
00022000
00000000
00000000
00033000
00000000
00000000
00000000
,
00001000
00000000
00000000
00010000
00000000
00000000
00000100
00000000
00000000
00000010
00000000
00000100
,
00000010
00000100
00001000
00000010
,
00010000
00000000
00000000
00001000
00000000
00000000
01000000
00000000
00000000
00100000
00000000
01000000
,
00100000
01000000
00010000
00100000
,
00001000
00000000
00010000
00001000
00000000
00000000
00100000
00000000
00010000
00100000
00000000
00000000
,
00001000
00000000
00010000
00001000
00000000
00000000
00010000
00000000
00000010
00010000
00000000
00000000
,
00000000
00000000
00000000
00000000
,
00000000
00000000
00000000
00000000
,
00022000
00033000
00022000
00033000
,
00001000
00100000
00010000
01000000
,
00100000
00100000
01000000
01000000
,
00010000
10000000
01000000
00000000
,
00100000
00010000
01000000
00001000
,
00010000
00000100
00001000
00000010
,
00000100
00000100
00000100
00000010
,
00001000
00000001
00001001
00000000
,
00001000
00000000
00000100
00000000
00010000
00001000
00000000
00010000
,
00001000
00000000
00010000
00001000
00000000
00010000
00001000
00000000
,
00200000
00000000
00000000
01300000
,
02000000
00000000
23000000
00000000
,
30010000
00000000
01000000
00000000
00010000
00100000
00000000
00010000
,
00100000
00002000
00000000
00013000
,
00000020
00000000
00000000
00000230
00000000
00000000
00000302
00000000
,
00002003
00000003
00000000
00003200
00000000
00000000
00010300
00000000
,
00011000
00000000
00000000
00001000
00000000
00000000
00100000
00000000
00010000
00100000
00000000
00010000
,
00100000
00000000
00000000
00010000
00000000
00000000
10000000
00000000
00100000
10000000
00000000
00100000
,
10000000
00000000
00000000
00010000
00000000
00000000
01000000
00000000
00000000
00000000
00000000
02020000
,
00000000
00000000
03030000
00000000
00000000
00020020
00000300
00000000
00000000
00033030
00000000
00000000
,
00011000
00000000
00000000
00010000
00000000
00000000
00000100
00000000
00001000
00000100
00000000
00001000
,
00000100
00000000
00000000
00001000
00000000
00000000
00000001
00000000
00000100
00000001
00000000
00000100
,
00000010
00000000
00000000
00000010
00000000
00000000
00000010
00000000
00000010
00000000
00000000
00002020
,
00000000
00000000
00003030
00000000
00000000
00202000
00000000
00000000
00000000
00333000
00000000
00000000
,
00001000
00011000
00010000
00010010
,
00000010
00000110
00000100
00000101
,
00000001
00000000
00000000
00000011
00000000
00000000
00000010
00000000
00000000
00000100
00000000
00020000
,
00000000
00000000
00000000
00031000
00000000
02000000
00000000
00000000
00000000
03100000
00000000
00000000
,
10000000
11000000
00100000
00110000
,
00001000
00011000
00010000
00010010
,
00000010
00000000
00000000
00000110
00000000
00000000
00000100
00000000
00000000
00000001
00000000
00000020
,
00000000
00000000
00000000
00000130
00000000
00002000
00000000
00000000
00000000
00003001
00000000
00000100
,
00000001
00000000
00000000
00000000
00000000
00000000
00001000
00000000
00001000
00000100
00000000
00000100
,
00010000
00000000
00000000
00000000
00000000
00000000
00001000
00000000
00001000
01000000
00000000
01000000
,
00200000
00000000
00000000
00300000
00000000
02200000
00000000
00000000
,
03300000
00000000
00000000
00000000
00022000
00000000
00000000
00000000
00000000
00000000
00000000
00000000
,
00000000
00000000
00000000
00000000
,
00000000
00000000
00000000
00000000
,
00000000
00000000
00000000
00000000
00000000
00000000
00033000
00000000
00000000
00000000
00000000
00000220
,
00000000
00000000
00000000
00000000
,
00000000
00000000
00000000
00000330
;

//---------------dance-double - ----------------
#NOTES:
     dance-double:
     :
     Easy:
     8:
     0.402542,0.479534,0.384759,0.407392,0.073557,249.000000,215.000000,34.000000,36.000000,0.000000,0.000000,0.402542,0.479534,0.384759,0.407392,0.073557,249.000000,215.000000,34.000000,36.000000,0.000000,0.000000:
00000000
00000000
00000000
00000000
,
00000000
00000000
00000000
00000000
,
00000000
00000000
00000000
00000000
,
00000000
00000000
00000000
00000000
,
00010000
00010000
00001000
00001000
,
00100000
00001000
00010000
00000000
,
00001000
00001000
00010000
00010000
,
00000010
00010000
00001000
00000000
,
00010000
00010000
00001000
00001000
,
01000000
00001000
00010000
00000000
,
00001000
00001000
00010000
00010000
,
00000100
00010000
00001000
00000000
,
00010000
00001000
00100000
00000000
,
00100000
00010000
01000000
00000000
,
01000000
00100000
10000000
00000000
,
10000000
01000000
00100000
00000000
,
00010000
01000000
00010000
01000000
,
00001000
00010000
00001000
00010000
,
00000100
00001000
00000100
00001000
,
00000001
00000100
00000001
00000000
,
00001000
00000100
00000010
00000000
,
00000010
00000001
00000100
00000000
,
00000100
00000010
00001000
00000000
,
00000100
00000000
00000000
00000000
00000000
00022000
00000000
00000000
00000000
00033000
00000000
00000000
,
00001000
01000000
00100000
10000000
,
01000000
00100000
00010000
01000000
,
00002000
00000000
00023000
00000000
,
00030100
00000010
00000001
00001000
,
00002002
00003003
00000001
00000100
,
00000020
00000000
00010030
00001000
,
00200000
00000000
00000000
00000000
00000000
00000000
00310000
00000000
00000000
00000000
00000000
10010000
,
00000000
00000000
00000000
00000000
30000000
01100000
00000000
00000000
00000000
00000000
00000000
00000000
,
20020000
30030000
10000000
00100000
,
02000000
00000000
03001000
00010000
,
00000200
00000000
00000000
00000000
00000000
00000000
00001300
00000000
00000000
00000000
00000000
00001001
,
00000000
00000000
00000000
00000000
00000003
00000110
00000000
00000000
00000000
00000000
00000000
00000000
,
00000001
00001000
00000001
00001000
,
00000100
00000100
00000100
00000000
,
00010000
00001000
00010000
00001000
,
01000000
01000000
01000000
00000000
,
00010000
10000000
00010000
10000000
,
01000000
01000000
01000000
00000000
,
00000000
00000000
00000000
00000000
,
00000000
00000000
00000000
00000000
,
20000000
00000000
30020000
00000000
,
00032000
00000000
00003002
00000000
,
00000103
00000100
00000010
00000010
,
00001000
00000001
00001000
00000000
,
00000001
00000010
00000100
00000010
,
00000100
00010000
00000100
00010000
,
00001000
00100000
00010000
01000000
,
00100000
10000000
00010000
00000000
,
20000000
00000000
32000000
00000000
,
03200000
00000000
00302000
00000000
,
00013000
00020000
00000000
00030010
,
00000020
00000000
00000230
00000000
,
00000301
00001000
00000100
00000000
,
00001000
00000001
00000100
00000000
,
00000002
00000000
00000023
00000000
,
00002030
00000000
00013000
00000000
,
00011000
00001000
00100000
00010000
,
01000000
00100000
10000000
01000000
,
00100000
00000000
00000000
00001000
00000000
00000000
00010000
00000000
00000000
00000000
00000000
00011000
,
00000000
00000000
00000000
00000000
00000000
00011000
00000000
00000000
00000000
00000000
00000000
00000000
,
00011000
00010000
00000100
00001000
,
00000010
00000100
00000001
00000010
,
00000100
00000000
00000000
00010000
00000000
00000000
00001000
00000000
00000000
00000000
00000000
00011000
,
00000000
00000000
00000000
00000000
00000000
00011000
00000000
00000000
00000000
00000000
00000000
00000000
,
00000000
00011000
00000000
01100000
,
00000000
00011000
00000000
00000110
,
00000000
00011000
00000000
01100000
,
00000000
00011000
00000000
00000110
,
00000000
00011000
00000000
10010000
,
00000000
00011000
00000000
00001001
,
00000000
00011000
00000000
10010000
,
00000000
00011000
00000000
00001001
,
00002002
00003003
00000000
00000000
,
00000000
00000010
00000010
00000000
,
00002002
00000000
00003003
00000000
00000000
00000220
00000000
00000330
,
00000000
00000000
00000000
00000000
00022000
00000000
00000000
00000000
00000000
00000000
00000000
00000000
,
00000000
00000000
00000000
00000000
,
00000000
00000000
00000000
00000000
,
00000000
00000000
00000000
00000000
00000000
00000000
00033000
00000000
00000000
00000000
00000000
20020000
,
00000000
00000000
00000000
00000000
,
00000000
00000000
00000000
30030000
;
