#VERSION:0.83;
#TITLE:Electric;
#SUBTITLE:;
#ARTIST:The DNC ft. Miss Amani;
#TITLETRANSLIT:;
#SUBTITLETRANSLIT:;
#ARTISTTRANSLIT:;
#GENRE:WORLD MUSIC;
#ORIGIN:;
#CREDIT:MUINELIM;
#BANNER:Electric.png;
#BACKGROUND:Electric-bg.PNG;
#PREVIEWVID:;
#JACKET:Electric-jacket.png;
#CDIMAGE:;
#DISCIMAGE:;
#LYRICSPATH:;
#CDTITLE:;
#MUSIC:Electric.MP3;
#OFFSET:-0.155000;
#SAMPLESTART:85.859985;
#SAMPLELENGTH:12.000000;
#SELECTABLE:YES;
#BPMS:0.000=120.000;
#STOPS:;
#DELAYS:;
#WARPS:;
#TIMESIGNATURES:0.000=4=4;
#TICKCOUNTS:0.000=4;
#COMBOS:0.000=1;
#SPEEDS:0.000=1.000=0.000=0;
#SCROLLS:0.000=1.000;
#FAKES:;
#LABELS:0.000=Song Start;
#BGCHANGES:-10000.000=black.mpg=1.000=1=0=1===CrossFade==,
-0.400=1302.mpg=1.000=0=0=1=Centered====,
0.000=Electric.avi=1.000=1=0=0=StretchNoLoop==CrossFade==,
99999=-nosongbg-=1.000=0=0=0 // don't automatically add -songbackground-
;
#KEYSOUNDS:;
#ATTACKS:
;

//---------------dance-single - ----------------
#NOTEDATA:;
#CHARTNAME:;
#STEPSTYPE:dance-single;
#DESCRIPTION:;
#CHARTSTYLE:;
#DIFFICULTY:Beginner;
#METER:3;
#RADARVALUES:0.125546,0.169173,0.052729,0.000000,0.000000,100.000000,94.000000,6.000000,0.000000,0.000000,0.000000,0.000000,0.000000,0.000000,0.125546,0.169173,0.052729,0.000000,0.000000,100.000000,94.000000,6.000000,0.000000,0.000000,0.000000,0.000000,0.000000,0.000000;
#CREDIT:MUINELIM;
#NOTES:
0000
0000
0000
0000
,
0000
0000
0000
0000
,
0000
0000
0000
0000
,
0000
0000
0000
0000
,
0000
0000
0000
0000
,
1000
0000
1000
0000
,
0001
0000
0001
0000
,
1000
0000
0001
0000
,
1000
0000
0001
0000
,
0100
0000
0010
0000
,
0100
0000
0010
0000
,
0100
0000
0100
0000
,
0010
0000
0010
0000
,
1000
0000
0100
0000
,
1000
0000
1000
0000
,
0001
0000
0010
0000
,
0001
0000
0001
0000
,
1001
0000
0000
0000
,
0000
0000
0000
0000
,
0100
0000
0100
0000
,
0100
0100
0100
0000
,
0010
0000
1000
0000
,
0010
0000
0010
0000
,
0100
0000
0001
0000
,
0100
0000
0100
0000
,
0001
0000
0010
0000
,
0100
0000
1000
0000
,
0010
0000
0100
0000
,
0010
0010
0010
0000
,
1001
0000
0000
0000
,
0000
0000
0000
0000
,
1000
0000
0010
0000
,
1000
0000
1000
0000
,
0001
0000
0100
0000
,
0001
0000
0001
0000
,
1000
0000
0010
0000
,
0100
0000
0001
0000
,
0010
0000
0100
0000
,
1000
0000
0001
0000
,
1001
0000
0000
0000
,
0000
0000
0000
0000
,
0010
0000
0010
0000
,
0010
0010
0010
0000
,
1000
0000
0100
0000
,
0010
0000
0010
0000
,
0001
0000
0010
0000
,
0100
0000
0100
0000
,
1000
0000
0010
0000
,
0100
0000
0001
0000
,
1000
0000
0010
0000
,
0100
0100
0100
0000
,
1001
0000
0000
0000
,
0010
0000
0100
0000
,
1001
0000
0000
0000
,
0100
0000
0010
0000
,
1001
0000
0000
0000
;

//---------------dance-single - ----------------
#NOTEDATA:;
#CHARTNAME:;
#STEPSTYPE:dance-single;
#DESCRIPTION:;
#CHARTSTYLE:;
#DIFFICULTY:Easy;
#METER:5;
#RADARVALUES:0.218449,0.248267,0.052729,0.087882,0.000000,174.000000,168.000000,6.000000,10.000000,0.000000,0.000000,0.000000,0.000000,0.000000,0.218449,0.248267,0.052729,0.087882,0.000000,174.000000,168.000000,6.000000,10.000000,0.000000,0.000000,0.000000,0.000000,0.000000;
#CREDIT:MUINELIM;
#NOTES:
0000
0000
0000
0000
,
0000
0000
0000
0000
,
0000
0000
0000
0000
,
0000
0000
0000
0000
,
0000
0000
0000
0000
,
1000
0001
1000
0001
,
0100
0010
0100
0010
,
1000
0001
1000
1000
,
0001
1000
0001
0001
,
0010
0010
0100
0100
,
1000
0001
0100
0010
,
1000
1000
0001
0001
,
1000
0100
0010
0001
,
0000
1000
0010
1000
,
0010
0100
0001
0100
,
0000
0001
0010
0001
,
0010
0100
1000
0100
,
0110
0000
0000
0000
,
0001
0000
1000
0000
,
0001
0001
1000
1000
,
0001
1000
2002
3003
,
0001
0001
1000
0100
,
0010
0001
1000
0000
,
0001
0001
1000
0100
,
0010
0001
1000
0000
,
0010
0010
0100
0010
,
1000
0001
0100
0000
,
0010
0010
0100
0100
,
0010
0010
0010
2000
,
3001
0000
0000
0000
,
0220
0000
0000
0330
,
1000
0001
1000
0010
,
0100
0100
0001
1000
,
0010
0010
1000
0001
,
0100
0100
0010
0100
,
0001
0001
1000
0001
,
0010
0010
0100
0010
,
0001
0100
0010
1000
,
0001
0100
0010
1000
,
1001
0000
0000
0000
,
0001
0000
1000
0000
,
0010
0010
0100
0100
,
0010
0100
0220
0330
,
0010
0010
0100
0001
,
0010
0100
1000
0000
,
0100
0100
0010
0001
,
0100
0010
1000
0000
,
0001
0001
1000
0010
,
0100
0001
0010
0000
,
0001
0001
1000
1000
,
0001
0001
0001
0200
,
0310
0000
1000
0000
,
0100
0000
0001
0000
,
0010
0000
1000
0000
,
0100
0000
0010
0010
,
2002
0000
0000
0000
,
0000
0000
3003
0000
;

//---------------dance-single - ----------------
#NOTEDATA:;
#CHARTNAME:;
#STEPSTYPE:dance-single;
#DESCRIPTION:;
#CHARTSTYLE:;
#DIFFICULTY:Medium;
#METER:9;
#RADARVALUES:0.330185,0.397226,0.360316,0.210917,0.000000,263.000000,222.000000,41.000000,24.000000,0.000000,0.000000,0.000000,0.000000,0.000000,0.330185,0.397226,0.360316,0.210917,0.000000,263.000000,222.000000,41.000000,24.000000,0.000000,0.000000,0.000000,0.000000,0.000000;
#CREDIT:MUINELIM;
#NOTES:
0000
0000
0000
0000
,
0000
0000
0000
0000
,
0000
0000
0000
0000
,
0000
0000
0000
0000
,
2000
3200
0320
0032
,
1003
0000
1001
0000
0001
1000
0001
0000
,
1000
0100
0010
0000
0010
0001
0100
0000
,
0010
1000
0100
0000
0100
0010
0001
0000
,
1000
0010
0100
0000
0100
0001
0010
0000
,
0010
0100
0010
0000
0100
0010
0100
0000
,
0100
1000
0001
0000
0001
0100
0010
0000
,
1010
0100
0101
1000
,
1010
0000
0001
0000
0101
0000
1000
0001
,
1000
0100
0010
0001
,
0100
0010
0100
0010
0100
0000
0110
0000
,
0010
1000
0100
0010
,
0001
0100
0001
0100
0001
0000
1000
0010
,
2000
0000
0000
3000
,
0002
0000
0000
0003
,
0100
0000
0100
0000
0010
0000
0010
0100
,
0000
0010
0000
0100
2002
0000
3003
0000
,
0110
1001
0002
0010
,
1000
0100
0010
1003
,
0110
1001
2000
0100
,
0001
0010
0100
3001
,
0110
1001
0002
0010
,
0100
1000
0010
0103
,
0110
0000
1010
0000
0110
0000
0101
1000
,
0000
1000
0000
1000
0020
0000
0230
0000
,
0301
0000
0000
0000
,
2002
0000
0000
3003
,
1000
0000
0001
0000
0010
0100
0010
0000
,
0010
0001
0100
0000
0100
0010
1000
0000
,
1000
0001
0010
0000
0010
0100
1000
0000
,
0100
0010
0001
0000
0001
1000
0100
0000
,
0100
0010
0001
0000
0001
0100
0010
0000
,
1000
0001
0010
0000
0010
0100
1000
0000
,
1100
0001
0011
0100
,
1100
0000
0010
0000
0011
0000
0100
0010
,
0200
0000
0000
0300
,
0020
0000
0000
0030
,
1000
0000
1000
0000
0001
0000
0001
1000
,
0000
0001
0000
1000
0220
0000
0330
0000
,
0101
1010
0020
1000
,
0100
0001
1000
0130
,
1010
0101
0200
0001
,
0010
1000
0001
0310
,
1010
0101
0200
1000
,
0010
0001
1000
0310
,
1001
0000
1100
0000
1001
0000
0011
0100
,
0000
0100
0000
0100
1000
0001
0010
0100
,
1000
1000
0000
0001
0000
0101
0000
0100
,
0000
0110
0000
0010
0000
1010
0000
1000
,
0001
1000
0000
1100
0000
0100
0000
0110
,
0000
0010
0000
0011
0000
0001
0000
1001
,
2002
0000
0000
0000
,
0000
0000
3003
0000
;

//---------------dance-single - ----------------
#NOTEDATA:;
#CHARTNAME:;
#STEPSTYPE:dance-single;
#DESCRIPTION:;
#CHARTSTYLE:;
#DIFFICULTY:Hard;
#METER:13;
#RADARVALUES:0.524781,0.546186,0.483351,0.079094,0.118641,418.000000,363.000000,55.000000,9.000000,0.000000,0.000000,0.000000,0.000000,0.000000,0.524781,0.546186,0.483351,0.079094,0.118641,418.000000,363.000000,55.000000,9.000000,0.000000,0.000000,0.000000,0.000000,0.000000;
#CREDIT:MUINELIM;
#NOTES:
0000
0000
0000
0000
,
0000
0000
0000
0000
,
0000
0000
0000
0000
,
0000
0000
0000
0000
,
1000
0001
1000
0000
0010
0000
0100
0000
0001
1000
0001
0000
0100
0000
0010
0000
,
1000
0000
0100
0000
0010
0000
0001
0000
1000
0000
1000
0000
1000
0000
0010
0100
,
0010
0000
0100
0000
0001
0000
0010
0000
0100
0000
0100
0000
0100
0000
1000
0010
,
1000
0100
0010
0001
0100
0100
0110
0000
,
0010
1000
0010
0000
0100
0000
0001
0000
0010
0000
0100
0000
1100
0000
0000
0000
,
1000
0010
0110
0000
0100
0001
0011
0000
,
0010
0000
0100
1000
0100
0000
0010
0000
0001
0000
0100
0000
0010
0000
1000
0000
,
0001
0001
0100
0100
0010
0010
1000
1000
,
0001
0010
0100
1000
0100
0010
0002
1003
,
0000
1000
0010
0100
0001
1000
0100
0010
,
0001
0100
0001
0100
0001
0000
1000
0000
0010
0000
0100
0000
0001
0000
0011
0000
,
0000
0010
0100
1000
0001
0100
0010
1000
,
0001
0001
0010
0010
0100
0100
1000
1000
,
0020
0100
0001
1030
,
0200
0010
1000
0301
,
0011
0000
1100
0000
1010
0000
0101
0100
,
0000
0000
0010
0000
0000
0000
0100
0000
0010
1000
0010
1000
0010
0000
0100
0000
,
0101
0000
1010
0000
0010
1000
0100
0001
,
0100
1000
0010
0001
0010
1000
0001
1000
,
1010
0000
0101
0000
0100
0001
0010
1000
,
0010
0001
0100
1000
0100
0001
1000
0001
,
0011
0000
1100
0000
1000
0010
0001
0010
,
1000
0100
0001
0100
1000
0010
0100
0001
,
0011
0000
1100
0000
1010
0000
0101
0001
,
0000
0010
0000
0100
2000
0000
3002
0000
,
0103
0010
1000
0001
,
0010
0100
0010
0000
0001
0000
1000
0000
0100
0010
0100
0000
1000
0000
0001
0000
,
0100
0000
0010
0000
1000
0000
0001
0000
0100
0000
1000
0000
0100
0000
0001
0010
,
0001
0000
0010
0000
0100
0000
1000
0000
0010
0000
0100
0000
0101
0000
0001
1000
,
0001
0010
0100
0001
0100
1000
1010
0000
,
0010
0100
0010
0000
1000
0000
0100
0000
0010
0000
0100
0000
1100
0000
1000
0010
,
1000
0000
0100
0000
0010
0000
1000
0000
0010
0000
0001
0000
0101
0000
0100
0010
,
0100
1000
0100
0001
0010
0100
0110
0010
,
0100
1000
0010
0001
0010
1000
0100
0001
,
0100
1000
0010
0001
0010
1000
0100
0010
,
0002
0100
1000
0013
,
2000
0100
0001
3010
,
1100
0000
0101
0000
0011
0000
1010
1000
,
0000
0000
0100
0000
0000
0000
0010
0000
0001
0100
0001
0100
0001
0000
1000
0000
,
1100
0000
0000
0000
0101
0000
0000
0000
0001
0000
0010
0000
0100
0000
0010
0001
,
0010
0000
0100
0000
1000
0000
0100
0010
0100
0000
1000
0000
0010
0000
0100
0000
,
0101
0000
0000
0000
1100
0000
0000
0000
1000
0000
0010
0000
0100
0000
0010
1000
,
0010
0000
0100
0000
0010
0000
0100
0001
0100
0000
0010
0000
1000
0000
0100
0000
,
1100
0000
0000
0000
0011
0000
0000
0000
0001
0000
0100
0000
1000
0000
0100
0001
,
0100
0000
0010
0000
0001
0000
0010
1000
0010
0000
0100
0000
0001
0000
1000
0000
,
1010
0000
0101
0000
0011
0000
1100
0100
,
0010
0001
0010
0000
1000
0000
0010
0000
0100
1000
0100
0000
0001
0000
0100
0000
,
0010
0011
0000
0101
0000
1100
0000
1010
,
0000
0011
0000
0101
0000
1100
0000
1010
,
0010
0101
0000
0011
0000
1010
0000
1100
,
0000
0101
0000
0011
0000
1010
0000
1100
,
2002
0000
0000
0000
,
0000
0000
3003
0000
;

//---------------dance-single - ----------------
#NOTEDATA:;
#CHARTNAME:;
#STEPSTYPE:dance-single;
#DESCRIPTION:;
#CHARTSTYLE:;
#DIFFICULTY:Challenge;
#METER:17;
#RADARVALUES:0.691757,0.769626,0.711844,0.588809,0.672297,551.000000,470.000000,81.000000,67.000000,204.000000,0.000000,0.000000,0.000000,0.000000,0.691757,0.769626,0.711844,0.588809,0.672297,551.000000,470.000000,81.000000,67.000000,204.000000,0.000000,0.000000,0.000000,0.000000;
#CREDIT:MUINELIM;
#NOTES:
0000
0000
0000
0000
,
0000
0000
0000
0000
,
0000
0000
0000
0000
,
0000
0000
0000
0000
,
1000
0010
1000
0000
0100
0000
0010
0000
0001
0100
0001
0000
0010
0000
0100
0000
1000
0000
0010
0000
0100
0000
0001
0000
0010
0100
0010
0000
0100
0000
1000
0000
,
0001
0000
0100
0000
0110
0000
0010
0000
1000
0000
0100
0000
0110
0000
0010
0001
,
0100
0010
0100
0001
0010
0001
0100
0010
1000
0000
0100
0000
1100
0000
1000
0010
,
1000
0001
0100
0001
0010
0100
1000
0010
1000
0001
0100
0000
0220
0000
0330
0000
,
0010
1000
0100
1000
0001
0010
0001
0100
0010
0000
1010
0000
2002
0000
3003
0000
,
0001
0011
0210
1300
1000
1010
0210
0301
,
0011
0000
0010
0001
0100
0010
1000
0001
0010
0100
1000
0000
1010
0000
0010
0000
,
0210
0301
0021
0130
1200
0310
0012
1003
,
2100
0000
3001
0000
0201
0000
0310
0000
1010
0000
1000
0001
0010
0100
1000
0001
,
0010
0001
0100
1000
0100
0001
0010
0200
,
1300
0001
0100
0001
1000
0000
0010
0000
0001
0000
0010
0000
1000
0000
2200
0000
,
3300
0100
0010
0001
0010
1000
0010
0001
,
0201
0310
2010
3100
0012
0103
0120
1030
,
1002
0100
0010
1003
,
2001
0100
0001
3010
,
2002
3003
0000
0000
0220
0330
0000
0000
2002
3003
0000
0000
0110
0000
2020
3030
,
0000
0000
0000
0000
0202
0000
0303
0000
0000
0000
0000
0000
1010
0000
0000
0000
1000
0100
1000
0000
0010
0000
0100
0000
0001
0010
0001
0000
0100
0000
0010
0000
,
1000
0000
MMMM
0000
1001
0000
MMMM
0000
0001
0000
0100
0000
0010
0000
1000
0100
,
1000
MMMM
1000
0100
1000
MMMM
1000
0100
1000
MMMM
1000
0100
1000
0000
1100
0000
,
0001
0000
MMMM
0000
1001
0000
MMMM
0000
1000
0000
0100
0000
0010
0000
0001
0100
,
0001
MMMM
0001
0100
0001
MMMM
0001
0100
0001
MMMM
0001
0100
0001
0000
0101
0000
,
1000
0000
MMMM
0000
0110
0000
MMMM
0000
0001
0000
1000
0000
0100
0000
0010
0001
,
0010
MMMM
0010
0001
0010
MMMM
0010
0001
0010
MMMM
0010
0001
0010
0000
0011
0000
,
1100
0000
MMMM
0000
1010
0000
MMMM
0000
0011
0000
MMMM
0000
0101
0000
2200
3300
,
0000
0000
0022
0033
0000
0000
0110
0000
1001
0000
MMMM
0000
1001
0000
0010
0000
,
0200
0302
2003
3020
,
0130
0001
0100
0000
0001
0000
1000
0000
0010
1000
0010
0000
1000
0000
0001
0000
0010
0000
0100
0000
1000
0000
0010
0000
0100
0010
0100
0000
0001
0000
0010
0000
,
0100
0000
1000
0000
0010
0000
0001
0000
1000
0000
0100
0000
0001
0000
0010
0100
,
0010
0001
0100
0010
1000
0200
0000
0310
0001
0000
0101
0000
1010
0000
1000
0100
,
0010
0100
1000
0010
0001
0010
1000
0000
0100
0000
0110
0000
2002
0000
3003
0000
,
0001
0010
0100
0020
0000
0230
0000
1300
0010
0000
0100
0000
0101
0000
0001
0010
,
1000
0010
0001
0100
0010
0100
0001
0010
0200
0000
1300
0000
1010
0000
1000
0100
,
0001
0100
1000
0010
0100
0001
0100
0010
2000
0000
3100
0000
0110
0000
0010
0000
,
0012
0103
2010
3001
0102
1003
2100
3010
,
0210
0000
0301
0000
0120
0000
1030
0000
1100
0000
0100
0010
0001
1000
0100
0010
,
0200
0001
0010
1300
,
0120
1000
0100
0031
,
0202
0303
0000
0000
2020
3030
0000
0000
0202
0303
0000
0000
1001
0000
0022
0033
,
0000
0000
0000
0000
2200
0000
3300
0000
0000
0000
0000
0000
0110
0000
0000
0000
0010
0001
0010
0000
0001
0000
0100
0000
0010
1000
0010
0000
1000
0000
0100
0000
,
0010
0000
MMMM
0000
0110
0000
MMMM
0000
0100
0000
1000
0000
0010
0000
0100
0001
,
0010
MMMM
0010
1000
0100
MMMM
0100
0001
0010
MMMM
0010
1000
0100
0000
0010
0000
,
0011
0000
0000
0000
0110
0000
0000
0000
0010
0000
0001
0000
0100
0000
0010
1000
,
0100
MMMM
0100
0001
0010
MMMM
0010
1000
0100
MMMM
0100
0001
0010
0000
0100
0000
,
1100
0000
MMMM
0000
1001
0000
MMMM
0000
1000
0000
0010
0000
0100
0000
0001
1000
,
0100
MMMM
0100
0001
0010
MMMM
0010
1000
0100
MMMM
0100
0001
1000
0000
0001
0000
,
0101
MMMM
1100
MMMM
1010
MMMM
0011
0100
,
1000
0001
1000
0000
0100
0000
0010
0000
0001
1000
0001
0000
0010
0000
0100
0000
1000
0000
0001
0000
0100
0000
0010
0000
1000
0001
0010
0000
0100
0000
1000
0000
,
0002
0000
0103
0010
MMMM
0000
0010
1000
MMMM
0000
1000
0100
MMMM
0000
0100
0010
,
MMMM
0000
0010
0001
MMMM
0000
0001
1000
MMMM
0000
1000
0010
MMMM
0000
0010
0100
,
MMMM
0000
0100
0001
MMMM
0000
0001
0010
MMMM
0000
0010
1000
MMMM
0000
1000
0100
,
MMMM
0000
0100
0001
MMMM
0000
0001
0010
MMMM
0000
0010
1000
MMMM
0000
1001
MMMM
,
0220
0000
0000
0000
,
0000
0000
0330
0000
;

//---------------dance-double - ----------------
#NOTEDATA:;
#CHARTNAME:;
#STEPSTYPE:dance-double;
#DESCRIPTION:;
#CHARTSTYLE:;
#DIFFICULTY:Hard;
#METER:13;
#RADARVALUES:0.507204,0.496533,0.307587,0.202128,0.145005,404.000000,369.000000,35.000000,23.000000,0.000000,0.000000,0.000000,0.000000,0.000000,0.507204,0.496533,0.307587,0.202128,0.145005,404.000000,369.000000,35.000000,23.000000,0.000000,0.000000,0.000000,0.000000,0.000000;
#CREDIT:MUINELIM;
#NOTES:
00000000
00000000
00000000
00000000
,
00000000
00000000
00000000
00000000
,
00000000
00000000
00000000
00000000
,
00000000
00000000
00000000
00000000
,
00001000
00010000
00001000
00000000
01000000
00000000
00001000
00000000
00010000
00001000
00010000
00000000
00000100
00000000
00010000
00000000
,
00001000
00000000
00000100
00000000
00000010
00000000
00001000
00000000
00000100
00000000
00000100
00000000
00000100
00000000
00000010
00000001
,
00000010
00000000
00000001
00000000
00000100
00000000
00001000
00000000
00010000
00000000
00010000
00000000
00010000
00000000
00001000
00010000
,
00001000
00010000
01000000
10000000
00100000
00100000
01100000
00000000
,
01000000
00010000
01000000
00000000
00010000
00000000
00100000
00000000
01000000
00000000
00010000
00000000
00011000
00000000
00000000
00000000
,
00001000
00000010
00000011
00000000
00000001
00000100
00000110
00000000
,
00000010
00000000
00010000
00001000
00010000
00000000
00100000
00000000
10000000
00000000
01000000
00000000
00100000
00000000
01000000
00000000
,
00010000
00001000
00010000
01000000
00100000
00010000
00100000
01000000
,
00010000
00001000
00010000
01000000
00100000
00010000
10000000
10010000
,
00000000
00010000
01000000
00001000
00010000
00000100
00001000
00000001
,
00000100
00000010
00000100
00000000
00001000
00000000
00010000
00000000
00100000
00000000
01000000
00000000
00100000
00000000
10100000
00000000
,
00000000
10000000
01000000
00010000
00001000
00000010
00000001
00000100
,
00001000
00010000
00001000
00000100
00000010
00000100
00001000
00010000
,
00200000
20300000
32000000
03020000
,
00032000
00003020
00000032
00000103
,
00000110
00000000
00010010
00000000
01001000
00000000
01100000
00100000
,
00000000
00000000
00010000
00000000
00000000
00000000
00001000
00000000
00010000
00001000
00010000
00000000
00001000
00000000
00000100
00000000
,
00000101
00000000
00001010
00000000
00001000
00000100
00010000
00000100
,
00001000
00000001
00001000
00000100
00010000
00001000
01000000
00100000
,
10100000
00000000
01010000
00000000
00010000
00100000
00001000
00100000
,
00010000
10000000
00010000
00100000
00001000
00010000
00000010
00000100
,
00000101
00000000
00001010
00000000
00001000
00000100
00000001
00000100
,
00000010
00000001
00000100
00001000
00010000
00100000
10000000
01000000
,
01100000
00000000
00101000
00000000
00010100
00000000
00000110
00000010
,
00000000
00000001
00000000
00000100
00002000
00000000
00023000
00000000
,
01030000
10000000
00100000
00010000
,
00001000
00010000
00001000
00000000
00010000
00000000
00000010
00000000
00010000
00001000
00010000
00000000
00001000
00000000
00100000
00000000
,
00001000
00000000
00010000
00000000
00100000
00000000
01000000
00000000
00010000
00000000
00100000
00000000
00100000
00000000
01000000
10000000
,
01000000
00000000
00010000
00000000
00001000
00000000
00000010
00000000
00000001
00000000
00000200
00000000
00000310
00000000
00000010
00001000
,
00000010
00010000
00001000
00000100
00000010
00020000
00031000
00000000
,
00001000
00100000
00001000
00000000
00010000
00000000
01000000
00000000
10000000
00000000
00200000
00000000
01300000
00000000
01000000
00010000
,
01000000
00000000
00001000
00000000
00010000
00000000
00100000
00000000
00010000
00000000
00002000
00000000
00003010
00000000
00000010
00000100
,
00000010
00000001
00000100
00001000
00010000
00200000
10300000
10000000
,
01000000
00100000
01000000
10000000
01000000
00010000
00001000
00000010
,
00000001
00000010
00000100
00000010
00000001
00000100
00001000
00010000
,
00000200
00000320
00000032
00000203
,
00002300
00023000
00230000
10300000
,
11000000
00000000
00101000
00000000
00010100
00000000
00000011
00000001
,
00000000
00000000
00000100
00000000
00000000
00000000
00001000
00000000
00010000
00001000
00010000
00000000
00100000
00000000
10000000
00000000
,
11000000
00000000
00110000
00000000
00100000
01000000
10000000
00100000
,
00010000
00000010
00001000
00000100
00000010
00001000
00000010
00000001
,
00000011
00000000
00001100
00000000
00000100
00000010
00000001
00000100
,
00001000
01000000
00010000
00100000
01000000
00010000
01000000
10000000
,
11000000
00000000
00110000
00000000
00100000
01000000
00010000
00000100
,
00001000
00000010
00010000
00100000
00001000
00000010
00000100
00000001
,
00000101
00000000
00010010
00000000
01001000
00000000
10100000
00100000
,
01000000
00010000
01000000
00000000
00001000
00000000
00010000
00000000
00000010
00001000
00000010
00000000
00000100
00000000
00000001
00000000
,
00000010
00000000
00000100
00000010
00000000
00000000
00000010
00000001
00000000
00000000
00000001
00000100
00000000
00000000
00000100
00000010
,
00000000
00000000
00000010
00010000
00000000
00000000
00010000
00001000
00000000
00000000
00001000
01000000
00000000
00000000
01000000
00100000
,
01000000
00000000
00100000
10000000
00000000
00000000
10000000
01000000
00000000
00000000
01000000
00010000
00000000
00000000
00010000
00001000
,
00000000
00000000
00001000
00000010
00000000
00000000
00000010
00000001
00000000
00000000
00000001
00000100
00000000
00000000
00001000
00000000
,
00022000
00000000
00000000
00000000
,
00000000
00000000
00033000
00000000
;

//---------------dance-double - ----------------
#NOTEDATA:;
#CHARTNAME:;
#STEPSTYPE:dance-double;
#DESCRIPTION:;
#CHARTSTYLE:;
#DIFFICULTY:Challenge;
#METER:17;
#RADARVALUES:0.642794,0.769626,0.360316,0.597597,0.597597,512.000000,471.000000,41.000000,68.000000,436.000000,0.000000,0.000000,1.000000,0.000000,0.642794,0.769626,0.360316,0.597597,0.597597,512.000000,471.000000,41.000000,68.000000,436.000000,0.000000,0.000000,1.000000,0.000000;
#CREDIT:MUINELIM;
#NOTES:
// measure 0
00000000
00000000
00000000
00000000
,  // measure 1
00000000
00000000
00000000
00000000
,  // measure 2
00000000
00000000
00000000
00000000
,  // measure 3
00000000
00000000
00000000
00000000
,  // measure 4
00001000
00010000
00100000
01000000
00001000
00100000
00010000
01000000
00001000
00010000
00100000
10000000
01000000
00100000
00010000
00100000
,  // measure 5
00001000
00000000
00010000
00000000
00010100
00000000
00000100
00000000
00010000
00000000
00001000
00000000
01001000
00000000
01000000
00010000
,  // measure 6
00100000
01000000
00100000
00010000
01000000
00100000
00010000
00100000
01000000
00000000
00010000
00000000
00110000
00000000
00100000
00001000
,  // measure 7
00010000
00000100
00001000
00000100
00010000
00001000
00000100
00001000
00010000
00000100
00001000
00000000
00002020
00000000
00003030
00000000
,  // measure 8
00000010
00000100
00000001
00000100
00000010
00001000
00000100
00000010
00000001
00000000
00000100
00000000
00000220
00000000
00000330
00000000
,  // measure 9
00000010
00020010
00032000
01003000
01000000
01002000
00023000
00030010
,  // measure 10
00000010
00000000
00001000
00000100
00000010
00001000
00010000
01000000
00100000
00010000
01000000
00000000
01100000
00000000
00100000
00000000
,  // measure 11
20000000
32000000
03020000
00032000
00023000
00230000
00320000
00032000
,  // measure 12
00003200
00000000
00002300
00000000
00023000
00000000
00032000
00000000
00003200
00000000
00000301
00000010
00000100
00001000
00000001
00000010
,  // measure 13
00000100
00001100
00001000
00000010
00010000
00001000
00011000
00020000
,  // measure 14
01030000
10000000
01000000
00100000
01000000
00000000
00010000
00000000
00001000
00000000
00000010
00000000
00000100
00000000
00002200
00000000
,  // measure 15
00003300
00001000
00000001
00000010
00001000
00010000
01000000
10000000
,  // measure 16
10200000
00310000
00012000
01003000
00021000
00030100
00002100
00003001
,  // measure 17
00000101
00001000
00010000
01000000
,  // measure 18
11000000
00010000
00001000
00000100
,  // measure 19
00000002
00000003
00002000
00003000
00020000
00030000
10000000
00200000
,  // measure 20
00000000
00000000
00320000
00000000
00000000
00000000
00031000
00000000
00001000
00000100
00000001
00000010
00000100
00001000
00000010
00010000
,  // measure 21
00001000
00000000
MMMMMMMM
00000000
00011000
00000000
MMMMMMMM
00000000
00010000
00000000
01000000
00000000
10000000
00000000
0010MMMM
01000000
,  // measure 22
0001MMMM
00000000
0010MMMM
01000000
1000MMMM
00000000
0010MMMM
01000000
0001MMMM
00000000
0010MMMM
01000000
1000MMMM
00000000
00100000
00000000
,  // measure 23
00010000
00000000
MMMMMMMM
00000000
00011000
00000000
MMMMMMMM
00000000
00001000
00000000
00000100
00000000
00000001
00000000
MMMM0010
00000100
,  // measure 24
MMMM1000
00000000
MMMM0010
00000100
MMMM0001
00000000
MMMM0010
00000100
MMMM1000
00000000
MMMM0010
00000100
MMMM0001
00000000
00000010
00000000
,  // measure 25
00001000
00000000
MMMMMMMM
00000000
00011000
00000000
MMMMMMMM
00000000
00010000
00000000
00100000
00000000
10000000
00000000
0100MMMM
00100000
,  // measure 26
0001MMMM
00000000
1000MMMM
01000000
0001MMMM
00000000
MMMM1000
00000100
MMMM0001
00000000
MMMM1000
00000010
MMMM0100
00000000
00000010
00000000
,  // measure 27
00001001
MMMMMMMM
00010010
MMMMMMMM
00101000
MMMMMMMM
10010000
20000000
,  // measure 28
00000000
30200000
00000000
00320000
00031000
MMMMMMMM
00011000
00001000
,  // measure 29
00000200
00020300
02030000
03002000
,  // measure 30
00013000
00001000
00000010
00000100
00010000
00000010
00001000
00000100
00010000
00001000
00000010
00000001
00000100
00000010
00001000
00000010
,  // measure 31
00010000
00000000
00001000
00000000
00000100
00000000
00000001
00000000
00000010
00000000
00001000
00000000
00010000
00000000
01000000
10000000
,  // measure 32
01000000
00100000
00010000
01000000
00100000
00020000
00000000
00031000
00000100
00000000
00000001
00000000
00001001
00000000
00001000
00000010
,  // measure 33
00000001
00000010
00001000
00000100
00000010
00000100
00001000
00000000
00000010
00000000
00010000
00000000
00022000
00000000
00033000
00000000
,  // measure 34
00001000
00010000
00100000
02000000
00000000
03200000
00000000
10300000
01000000
00000000
00010000
00000000
00011000
00000000
00001000
00010000
,  // measure 35
01000000
00010000
00001000
00100000
00010000
00100000
00001000
00010000
00000200
00000000
00000310
00000000
00000011
00000000
00000001
00000100
,  // measure 36
00000010
00001000
00000100
00010000
00001000
00100000
01000000
10000000
00200000
00000000
00310000
00000000
00011000
00000000
00001000
00000000
,  // measure 37
00000200
00000302
00000023
00002030
00203000
02300000
23000000
30200000
,  // measure 38
00320000
00000000
00030020
00000000
00000230
00000000
00000302
00000000
00002003
00000000
00003100
00000010
00001000
00010000
00100000
10000000
,  // measure 39
01000000
00010000
00001000
00000011
,  // measure 40
00000100
00001000
00010000
10100000
,  // measure 41
20000000
30000000
00020000
00030000
00002000
00003000
00000001
00000020
,  // measure 42
00000000
00000000
00000230
00000000
00000000
00000000
00010300
00000000
00010000
00100000
10000000
01000000
00100000
00010000
01000000
00001000
,  // measure 43
00010000
00000000
MMMMMMMM
00000000
00011000
00000000
MMMMMMMM
00000000
00001000
00000000
00000100
00000000
00000001
00000000
00000010
00001000
,  // measure 44
00010000
MMMMMMMM
00001000
00010000
00100000
MMMMMMMM
00010000
00100000
10000000
MMMMMMMM
00100000
10000000
01000000
00000000
00010000
00000000
,  // measure 45
00001000
00000000
MMMMMMMM
00000000
00011000
00000000
MMMMMMMM
00000000
00010000
00000000
01000000
00000000
10000000
00000000
00100000
00010000
,  // measure 46
00001000
MMMMMMMM
00010000
00001000
00000010
MMMMMMMM
00001000
00000010
00000001
MMMMMMMM
00000010
00000001
00000100
00000000
00001000
00000000
,  // measure 47
00010000
00000000
MMMMMMMM
00000000
00011000
00000000
MMMMMMMM
00000000
00001000
00000000
00000100
00000000
00000001
00000000
00000010
00001000
,  // measure 48
00010000
MMMMMMMM
00001000
00010000
00100000
MMMMMMMM
00010000
00001000
00000100
MMMMMMMM
00001000
00010000
01000000
00000000
10000000
00000000
,  // measure 49
10100000
MMMMMMMM
01001000
MMMMMMMM
00010100
MMMMMMMM
00000011
00000001
,  // measure 50
00000100
00000001
00000010
00001000
00010000
00000010
00000100
00001000
00010000
00100000
01000000
00001000
00010000
01000000
10000000
00100000
,  // measure 51
00020000
00000000
00031000
00000100
MMMM0001
00000000
MMMM0001
00000010
MMMM1000
00000000
MMMM1000
00000010
MMMM0001
00000000
MMMM0001
00000100
,  // measure 52
MMMM1000
00000000
0001MMMM
01000000
1000MMMM
00000000
1000MMMM
00100000
0001MMMM
00000000
0001MMMM
00100000
1000MMMM
00000000
1000MMMM
01000000
,  // measure 53
0001MMMM
00000000
00001000
00000010
00000001
MMMMMMMM
00000001
00000100
00001000
MMMMMMMM
00001000
00010000
01000000
MMMMMMMM
01000000
10000000
,  // measure 54
00100000
MMMMMMMM
00100000
00010000
00001000
MMMMMMMM
00001000
00000100
00000001
MMMMMMMM
00000001
00000010
00001000
00000000
MMMMMMMM
00000000
,  // measure 55
00022000
00000000
00000000
00000000
,  // measure 56
00000000
00000000
00033000
00000000
;
