#TITLE:Easy, Like;
#SUBTITLE:;
#ARTIST:TEEYZ;
#TITLETRANSLIT:;
#SUBTITLETRANSLIT:;
#ARTISTTRANSLIT:;
#GENRE:;
#CREDIT:;
#BANNER:;
#BACKGROUND:;
#LYRICSPATH:;
#CDTITLE:;
#MUSIC:Easy, Like.ogg;
#OFFSET:0.000000;
#SAMPLESTART:27.479000;
#SAMPLELENGTH:12.101000;
#SELECTABLE:YES;
#BPMS:0.000000=119.000000
;
#STOPS:
;
#BGCHANGES:;
#KEYSOUNDS:;
#ATTACKS:;

//---------------dance-single - ----------------
#NOTES:
     dance-single:
     :
     Hard:
     13:
     0.520279,0.512149,0.138199,0.455244,0.438985,448.000000,431.000000,17.000000,56.000000,0.000000,0.000000,0.520279,0.512149,0.138199,0.455244,0.438985,448.000000,431.000000,17.000000,56.000000,0.000000,0.000000:
0000
0000
0000
0000
,
0000
0000
0000
0000
,
1001
0000
0000
0000
1000
0000
0001
0100
0000
0001
0100
0000
0010
0000
1000
0001
,
0000
0001
1000
0000
0010
0000
1000
0100
0000
1000
0100
0000
0010
0000
0001
0000
,
2000
0000
0000
0000
3010
0000
0100
0001
0000
0100
0001
0000
1000
0000
0100
0020
,
0000
0000
0031
0000
1000
0000
0010
0200
0000
0000
0301
0000
0010
0000
0100
0000
,
2000
0000
0000
0000
3001
0000
0100
0000
1000
0000
0100
0002
0000
0000
0000
0000
,
2003
0000
0000
3002
0000
0000
0013
0000
1000
0000
0010
0002
0000
0000
0000
0000
,
0013
0100
0000
1000
0000
0000
0100
0000
0001
0000
0100
2000
0000
0000
0000
0000
,
3001
0000
0100
1000
0000
0100
0001
0000
1000
0000
0100
0000
0020
0000
0000
0000
,
0031
0000
1000
0000
0010
0000
0010
0200
0000
0000
0300
0000
0101
0000
0000
0000
,
1000
0000
0001
0000
0010
0000
0010
0200
0000
0000
0300
0000
1100
0000
0000
0000
,
0001
0000
0100
0000
0010
0000
0010
2000
0000
0000
0000
0000
3001
0000
0010
0000
,
0200
0000
0000
0000
2000
0000
3300
0000
1100
0000
0001
0000
1000
0010
1000
0000
,
0100
0000
0010
0000
0001
0000
1000
0010
0000
1000
0010
0000
0100
0000
0001
1000
,
0000
0001
1000
0000
0100
0000
0010
0002
0000
0000
1003
0000
0001
0010
0001
0000
,
0100
0000
0010
0000
1000
0000
0001
0010
0000
0001
0010
0000
0100
0000
1000
0001
,
0000
1000
0001
0000
0100
0000
0010
2000
0000
0000
3001
0000
0010
0100
1000
0000
,
0001
0000
0100
0000
0010
0000
1000
0001
0000
1000
0001
0000
0010
0000
0100
1000
,
0000
0100
1000
0000
0010
0000
1000
0002
0000
0000
1003
0000
0010
0100
0001
0000
,
1000
0000
0100
0000
0010
0000
0001
1000
0000
0001
1000
0000
0010
0100
0001
0000
,
2000
0000
0200
3300
1100
0001
0100
0010
,
1010
1000
0001
0001
,
0010
0000
0010
0000
0100
0000
2002
3003
,
1000
0000
0000
0000
0001
0000
0100
0010
0000
0100
0001
0000
1000
0100
0000
0010
,
0000
0100
1000
0000
0001
0000
0100
0010
0000
0100
0001
0000
1000
0000
1000
0000
,
0002
0000
0000
0000
1003
0000
0100
0010
0000
0100
1000
0000
0001
0100
0000
0010
,
0000
0100
0001
0000
1000
0100
0000
0010
0000
0100
1000
0000
0001
0000
0001
0000
,
2000
0000
0000
0000
3001
0000
0010
0000
1000
0000
0010
0002
0000
0000
0000
0000
,
2003
0000
0000
3002
0000
0000
0103
0000
1000
0000
0100
0002
0000
0000
0000
0000
,
1003
0000
0100
2000
0000
0000
3100
0000
0001
0000
0100
2000
0000
0000
0000
0000
,
3001
0000
0100
1000
0000
0100
0001
0000
2000
0000
0000
0000
0000
0000
0000
0000
,
3002
0100
1000
0023
,
0230
0001
0010
1300
,
2000
0100
0001
0010
,
3200
0000
0000
0000
0000
0310
0001
0001
,
2000
0100
0001
3020
,
0230
1000
0010
0301
,
0002
0100
1000
0010
,
0203
0000
0000
0000
0000
0310
1000
1000
,
0002
0000
0103
0001
1000
0001
0020
0000
,
0230
0000
0301
0100
0010
0100
2000
0000
,
3001
0000
0100
0000
0010
0000
1000
0000
0100
0000
1000
0000
0010
1000
0001
0000
,
0020
0000
0000
0000
0002
0000
0033
0000
0011
0000
1000
0000
0001
0100
0001
0000
,
0010
0000
0100
0000
1000
0000
0001
0100
0000
0001
0100
0000
0010
0000
1000
0001
,
0000
1000
0001
0000
0010
0000
0100
2000
0000
0000
3001
0000
1000
0100
1000
0000
,
0010
0000
0100
0000
0001
0000
1000
0100
0000
1000
0100
0000
0010
0000
0001
1000
,
0000
0001
1000
0000
0010
0000
0100
0002
0000
0000
1003
0000
0100
0010
0001
0000
,
1000
0000
0010
0000
0100
0000
0001
1000
0000
0001
1000
0000
0100
0000
0010
0001
,
0000
0010
0001
0000
0100
0000
0001
2000
0000
0000
3001
0000
0100
0010
1000
0000
,
0001
0000
0010
0000
0100
0000
1000
0001
0000
1000
0001
0000
0100
0010
1000
0000
,
0002
0000
0020
0033
0011
1000
0010
0100
,
0001
0000
0000
0000
0101
0000
0000
0000
1200
0000
0310
0001
0000
0010
0001
0000
,
1000
0000
0001
0100
0000
0001
0100
0000
0010
0000
1000
0000
0001
0010
0001
0000
,
1000
0000
0000
0000
1100
0000
0000
0000
0201
0000
0310
1000
0000
0010
1000
0000
,
0001
0000
1000
0100
0000
1000
0100
0000
0010
0000
0001
0000
1000
0010
1000
0000
,
0100
0000
0000
0000
0110
0000
0000
0000
0021
0000
0130
1000
0000
0100
1000
0000
,
0001
0000
1000
0010
0000
1000
0010
0000
0100
0000
0001
0000
1000
0100
1000
0000
,
0010
0000
0000
0000
0110
0000
0000
0000
1020
0000
0130
0001
0000
0100
0001
0000
,
1000
0000
0001
0010
0000
0001
0010
0000
0100
0000
1000
0000
0001
0100
0001
0000
,
1000
0000
0000
0000
;

//---------------dance-single - FS+ XO FSDS-----------------
#NOTES:
     dance-single:
     :
     Challenge:
     16:
     0.688672,0.780418,0.357692,0.325174,0.934876,593.000000,549.000000,44.000000,40.000000,39.000000,0.000000,0.688672,0.780418,0.357692,0.325174,0.934876,593.000000,549.000000,44.000000,40.000000,39.000000,0.000000:
// measure 0
0000
0000
0000
0000
,  // measure 1
0000
0000
0000
0000
,  // measure 2
1001
0000
0000
0000
0000
0000
1000
0000
0001
0000
0010
0000
0002
0000
0100
0000
0000
0000
0100
00M0
0103
0000
1000
0000
0100
0000
0010
0000
0002
0000
0010
0000
,  // measure 3
0000
0000
1003
0000
0010
0000
0000
0000
0100
0000
0001
0000
2000
0000
0100
0000
0000
0000
3100
00M0
0100
0000
0001
0000
0100
0000
0010
0000
1000
0000
0001
0000
,  // measure 4
0020
0000
0000
0000
0130
1000
0001
0100
00M0
0100
1000
0001
0100
0010
0200
1000
,  // measure 5
0000
0000
0301
1000
0100
0010
0200
0001
0000
0000
0310
0001
0010
0100
1000
0001
,  // measure 6
0200
0000
0000
0000
0010
0000
0301
0000
0010
0000
0100
1000
0000
0000
0001
0000
,  // measure 7
0201
0000
0000
0310
0000
1000
0001
0000
0021
0000
0130
1000
0000
0000
0001
0000
,  // measure 8
1000
0100
0000
0001
0000
0100
0010
0000
0011
0000
1000
0010
0000
0000
0100
0000
,  // measure 9
0001
0000
0100
1000
0000
0100
0010
0000
1010
0000
0001
0000
0101
0000
1000
0000
,  // measure 10
0001
0010
0001
0010
0100
0000
1000
0020
0000
0000
0100
0000
1030
0000
0001
0000
,  // measure 11
1000
0100
1000
0100
0010
0000
0001
0200
0000
0000
0300
0000
1001
0000
0000
0000
,  // measure 12
1000
0010
1000
0010
0100
0000
0001
0020
0000
0000
0000
0000
0130
1000
0001
0000
,  // measure 13
0101
0000
0000
0000
1100
0000
0000
0000
2001
0000
3010
0100
1000
0100
0001
0000
,  // measure 14
1001
0000
0000
0000
1000
0000
0001
0000
0100
00M0
0100
0000
1000
0000
0100
0000
0000
0000
0010
0000
0001
0000
1000
0000
0100
00M0
0100
0000
0001
0000
0100
0000
,  // measure 15
0000
0000
0010
0000
1000
0000
0001
0000
0100
00M0
0100
0000
1000
0000
0200
0000
0000
0000
0000
0000
0310
0000
0100
0000
0001
0000
0100
0000
1000
0000
0000
0000
,  // measure 16
1001
0000
0000
0000
0001
0000
1000
0000
0100
00M0
0100
0000
0001
0000
0100
0000
0000
0000
0010
0000
1000
0000
0001
0000
0100
00M0
0100
0000
1000
0000
0100
0000
,  // measure 17
0000
0000
0010
0000
0001
0000
1000
0000
0100
00M0
0100
0000
0001
0000
0200
0000
0000
0000
0000
0000
0310
0000
0100
0000
1000
0000
0100
0000
0001
0000
0000
0000
,  // measure 18
1001
0000
0000
0000
1000
0000
0001
0000
0100
00M0
0100
0000
1000
0000
0100
0000
0000
0000
0010
0000
0001
0000
1000
0000
0100
00M0
0100
0000
0001
0000
0100
00M0
,  // measure 19
0100
0000
1000
0000
0001
0000
0100
00M0
0100
0000
1000
0000
0100
0000
0010
0000
0001
0000
0000
0000
0010
0000
0100
0000
0001
0000
0100
0000
1000
0000
0000
0000
,  // measure 20
1001
0000
0000
0000
0001
0000
1000
0000
0100
00M0
0100
0000
0001
0000
0100
0000
0000
0000
0010
0000
1000
0000
0010
0000
0001
0000
0010
0000
0100
0000
0000
0000
,  // measure 21
0101
0000
0000
0000
1100
0000
0000
0000
1002
0000
0013
0100
0001
0100
1000
0000
,  // measure 22
1001
0001
0100
0010
,  // measure 23
1000
0000
0001
0000
0020
0000
0200
0330
,  // measure 24
1002
0000
0000
0000
0013
0100
1000
0100
00M0
0100
0001
0000
0100
0010
1000
0010
,  // measure 25
0M00
0010
0001
0000
0010
0100
1000
0100
00M0
0100
0001
0000
0200
0000
0310
1000
,  // measure 26
0002
0000
0000
0000
0013
0100
1000
0100
00M0
0100
0001
0000
1000
0001
0000
0010
,  // measure 27
0M00
0010
1000
0000
0001
1000
0000
0100
00M0
0100
0001
0000
0200
0000
0310
1000
,  // measure 28
0002
0000
0000
0000
0013
0000
0100
0000
0001
0000
0100
2000
0000
0000
0000
0000
,  // measure 29
3001
0000
0100
1000
0000
0100
0010
0000
1000
0000
0001
0020
0000
0000
0000
0000
,  // measure 30
0130
0000
1000
0100
0000
0001
0100
0000
0010
0000
0001
2000
0000
0000
0000
0000
,  // measure 31
3010
0000
0100
1000
0000
0100
0001
0000
2001
0000
0000
0000
3010
0000
0100
0000
,  // measure 32
0102
0100
1000
0010
,  // measure 33
2003
0010
0001
0100
,  // measure 34
3002
0100
1000
0010
,  // measure 35
0203
0000
0000
0000
0000
0000
0000
0000
0000
0000
0310
0000
1000
0001
0010
0000
,  // measure 36
0200
1000
0010
0001
,  // measure 37
0320
1000
0100
0032
,  // measure 38
0203
0001
0010
1000
,  // measure 39
0320
0000
0000
0000
0000
0000
0000
0000
0000
0000
1030
0000
0001
1000
0100
0000
,  // measure 40
0010
0000
0001
0000
1000
0000
0100
0000
0010
0000
0100
0000
0001
0100
1000
0000
,  // measure 41
0001
0000
0100
0000
1000
0000
0100
0000
0010
0000
0100
0000
0001
1000
0100
0000
,  // measure 42
0010
0000
0001
0000
0100
0000
0010
0000
1000
0000
0100
0000
0001
0100
0010
0000
,  // measure 43
0011
0000
0000
0000
1100
0000
0000
0000
1002
0000
0013
0100
0001
0100
1000
0000
,  // measure 44
1001
0000
0000
0000
0001
0000
1000
0000
0100
00M0
0100
0000
0001
0000
0100
0000
0010
0000
1000
0000
0001
0000
1000
0000
0100
00M0
0100
0000
0001
0000
0100
0000
,  // measure 45
0010
0000
1000
0000
0001
0000
1000
0000
0100
00M0
0100
0000
0001
0000
0200
0000
0000
0000
0000
0000
0310
0000
0100
0000
1000
0000
0100
0000
0001
0000
0000
0000
,  // measure 46
1001
0000
0000
0000
1000
0000
0001
0000
0100
00M0
0100
0000
1000
0000
0100
0000
0010
0000
0001
0000
1000
0000
0001
0000
0100
00M0
0100
0000
1000
0000
0100
0000
,  // measure 47
0010
0000
0001
0000
1000
0000
0001
0000
0100
00M0
0100
0000
1000
0000
0200
0000
0000
0000
0000
0000
0310
0000
0100
0000
0001
0000
0100
0000
1000
0000
0000
0000
,  // measure 48
1001
0000
0000
0000
0001
0000
1000
0000
0100
00M0
0100
0000
0001
0000
0100
0000
0010
0000
1000
0000
0001
0000
1000
0000
0100
00M0
0100
0000
0001
0000
0100
00M0
,  // measure 49
0100
0000
1000
0000
0001
0000
0100
00M0
0100
0000
1000
0000
0100
0000
0010
0000
0001
0000
0000
0000
0010
0000
0100
0000
0001
0000
0100
0000
1000
0000
0000
0000
,  // measure 50
1001
0000
0000
0000
1000
0000
0001
0000
0100
00M0
0100
0000
1000
0000
0100
0000
0010
0000
0001
0000
1000
0000
0010
0000
0001
0000
0010
0000
0100
0000
0000
0000
,  // measure 51
0101
0000
0000
0000
1100
0000
0000
0000
2001
0000
3010
0100
1000
0100
0001
0000
,  // measure 52
1001
0000
0000
0000
1100
0000
0000
0000
0011
0M00
0010
1000
0000
0010
0100
0000
,  // measure 53
0001
0000
010M
1000
0000
0100
0010
0000
0001
0000
0010
0100
0001
0100
1000
0000
,  // measure 54
1001
0000
0000
0000
0101
0000
0000
0000
1010
0M00
0010
0001
0000
0010
0100
0000
,  // measure 55
1000
0000
M100
0001
0000
0100
0010
0000
1000
0000
0010
0100
1000
0100
0001
0000
,  // measure 56
1001
0000
0000
0000
1010
0000
0000
0000
0101
00M0
0100
1000
0000
0100
0010
0000
,  // measure 57
0001
0000
001M
1000
0000
0010
0100
0000
0001
0000
0100
0010
0001
0010
1000
0000
,  // measure 58
1001
0000
0000
0000
0011
0000
0000
0000
1100
00M0
0100
0001
0000
0100
0010
0000
,  // measure 59
1000
0000
M010
0001
0000
0010
0100
0000
1000
0000
0100
0010
1000
0010
0001
0000
,  // measure 60
1001
0000
0000
0000
;
