#TITLE:EVERGREEN;
#SUBTITLE:;
#ARTIST:Cranky;
#TITLETRANSLIT:;
#SUBTITLETRANSLIT:;
#ARTISTTRANSLIT:;
#GENRE:TRANCE;
#CREDIT:;
#BANNER:EVERGREEN.png;
#BACKGROUND:EVERGREEN-bg.png;
#LYRICSPATH:;
#CDTITLE:;
#MUSIC:EVERGREEN.ogg;
#OFFSET:-0.013000;
#SAMPLESTART:86.062004;
#SAMPLELENGTH:15.000000;
#SELECTABLE:YES;
#BPMS:0.000000=145.000000
;
#STOPS:
;
#BGCHANGES:0.000=EVERGREEN.avi=1.000=0=0=0=StretchNoLoop==CrossFade_Fastest==,
99999=-nosongbg-=1.000=0=0=0 // don't automatically add -songbackground-
;
#KEYSOUNDS:;
#ATTACKS:;

//---------------dance-single - Daff_4K----------------
#NOTES:
     dance-single:
     Daff_4K:
     Beginner:
     2:
     0.086643,0.167197,0.065567,0.000000,0.000000,74.000000,66.000000,8.000000,0.000000,0.000000,0.000000,0.086643,0.167197,0.065567,0.000000,0.000000,74.000000,66.000000,8.000000,0.000000,0.000000,0.000000:
0000
0000
0000
0000
,
0000
0000
0000
0000
,
0000
0000
0000
0000
,
0000
0000
0000
0000
,
0000
0000
0000
0000
,
0000
0000
0000
0000
,
0000
0000
0000
0000
,
0000
0000
0000
0000
,
0010
0000
0000
0000
,
0000
0000
0000
0000
,
0010
0000
0000
0000
,
0000
0000
0000
0000
,
0100
0000
0000
0000
,
0000
0000
0000
0000
,
0100
0000
0000
0000
,
0000
0000
0000
0000
,
1001
0000
0000
1000
,
0000
0000
0010
0000
,
0010
0000
0000
0100
,
0000
0000
0001
0000
,
1000
0000
0000
0001
,
0000
0000
0010
0000
,
0010
0000
0000
0100
,
0000
0000
1000
0000
,
0001
0000
0000
1000
,
0000
0000
0010
0000
,
0010
0000
0000
0100
,
0000
0000
0001
0000
,
1000
0000
0000
0001
,
0000
0000
0010
0000
,
0010
0000
0000
0100
,
0000
0000
1000
0000
,
1001
0000
0000
0001
,
0001
0000
0000
0000
,
0100
0000
0000
0010
,
0010
0000
0000
0000
,
1000
0000
0000
1000
,
1000
0000
0000
0000
,
0100
0000
0000
0000
,
0010
0000
0000
0000
,
0110
0000
0000
0000
,
0000
0000
0000
0000
,
0100
0000
0000
0000
,
0000
0000
0000
0000
,
1000
0000
0000
0000
,
0000
0000
0000
0000
,
0001
0000
0000
0000
,
0000
0000
0000
0000
,
1001
0000
0000
0000
,
0000
0000
0000
0000
,
0110
0000
0000
0000
,
0000
0000
0000
0000
,
0000
0000
0000
0000
,
0000
0000
0000
0000
,
1001
0000
0000
1000
,
1000
0000
0000
0001
,
0001
0000
0000
0000
,
0000
0000
0000
0000
,
1001
0000
0000
0001
,
0001
0000
0000
1000
,
1000
0000
0000
0001
,
0001
0000
0000
0000
,
0010
0000
0000
0100
,
0100
0000
0000
0000
,
1000
0000
0000
1000
,
1000
0000
0000
0000
,
0010
0000
0000
0000
,
0100
0000
0000
0000
,
1001
0000
0000
0000
;

//---------------dance-single - Daff_4K----------------
#NOTES:
     dance-single:
     Daff_4K:
     Easy:
     5:
     0.144014,0.222929,0.040980,0.213094,0.000000,123.000000,118.000000,5.000000,26.000000,0.000000,0.000000,0.144014,0.222929,0.040980,0.213094,0.000000,123.000000,118.000000,5.000000,26.000000,0.000000,0.000000:
0000
0000
0000
0000
,
0000
0000
0000
0000
,
0000
0000
0000
0000
,
0000
0000
0000
0000
,
0000
0000
0000
0000
,
0000
0000
0000
0000
,
0000
0000
0000
0000
,
0000
0000
0000
0000
,
2000
0000
0000
0000
,
3000
0000
0000
0000
,
0002
0000
0000
0000
,
0003
0000
0000
0000
,
0200
0000
0000
0000
,
0300
0000
0000
0000
,
0020
0000
0000
0000
,
0030
0000
0000
0000
,
1000
0000
0001
1000
,
0000
0010
0100
0100
,
0001
0000
1000
0001
,
0000
0010
0100
1000
,
0001
0000
0100
0010
,
0000
0100
0001
0001
,
1000
0000
0100
0010
,
0000
0100
1000
0001
,
0100
0010
0100
0000
,
0001
1000
0001
1000
,
0100
0010
0100
0000
,
0010
0001
1000
0001
,
1000
0010
0100
0000
,
0010
1000
0001
1000
,
0001
0010
0100
0000
,
0010
0001
1000
0001
,
0200
0000
0000
0010
,
0020
0000
0330
0000
,
2000
0000
0000
0001
,
3001
0000
1000
0100
,
0200
0000
0000
0010
,
0020
0000
0330
0000
,
0002
0000
0000
1000
,
1003
0000
0001
0000
,
1001
0000
0000
0000
,
1000
0000
0001
0010
,
0200
0000
0000
0300
,
1000
0000
0001
1000
,
0020
0000
0000
0030
,
0100
0000
0001
0000
,
1000
0000
0001
0000
,
0010
0010
0100
0100
,
0220
0000
0330
0000
,
0000
0000
0000
0000
,
2002
0000
3003
0000
,
0000
0000
0000
0000
,
0000
0000
0000
0000
,
0000
0000
0000
0000
,
0002
0000
0003
1000
,
0200
0000
0300
0010
,
1001
0000
0000
0000
,
0000
0000
0000
0000
,
2000
0000
3000
0001
,
0200
0000
0300
0010
,
1000
0000
0200
0010
,
0020
0000
0000
0330
,
0010
0000
0002
1000
,
2000
0000
0000
3003
,
0001
0000
0200
0010
,
0020
0000
0000
0330
,
0010
0000
1000
0000
,
0001
1000
0001
1000
,
1001
0000
0000
0000
;

//---------------dance-single - Daff_4K----------------
#NOTES:
     dance-single:
     Daff_4K:
     Medium:
     8:
     0.266953,0.362259,0.172114,0.319641,0.000000,228.000000,207.000000,21.000000,39.000000,0.000000,0.000000,0.266953,0.362259,0.172114,0.319641,0.000000,228.000000,207.000000,21.000000,39.000000,0.000000,0.000000:
0000
0000
0000
0000
,
0000
0000
0000
0000
,
0000
0000
0000
0000
,
0000
0000
0000
0000
,
0000
0000
0000
0000
,
0000
0000
0000
0000
,
0000
0000
0000
0000
,
2000
3002
0203
0320
,
2030
0000
0000
0000
,
0000
0000
0000
0000
,
3002
0000
0000
0000
,
0023
0000
0130
1000
,
0002
0000
0000
0000
,
0000
0000
0000
0000
,
1003
1000
0001
0001
,
0100
0010
1000
0001
,
1001
0000
1000
0100
1000
0000
0001
0000
,
1000
0010
1000
0000
0200
0000
0310
0000
,
0001
0000
1000
0001
0100
0000
0001
0000
,
1000
0001
0010
0000
0200
0000
0310
0000
,
1001
0000
0001
0100
0001
0000
1000
0000
,
0001
0010
0001
0000
0200
0000
0310
0000
,
1000
0000
0001
1000
0100
0000
1000
0000
,
0001
1000
0010
0000
0200
0000
0310
0000
,
1000
0000
0001
0100
0001
0000
0010
0000
,
0100
1000
0100
0000
0020
0000
0031
0000
,
1000
0000
0010
0100
0001
0000
1000
0000
,
0001
0100
0010
0000
1000
0000
1001
0000
,
0001
0000
1000
0100
1000
0000
0010
0000
,
0100
0001
0100
0000
0020
0000
1030
0000
,
0001
0000
0010
0100
1000
0000
0001
0000
,
1000
0100
0010
0000
0001
0000
1001
0000
,
2000
0000
3010
0000
0000
0101
0000
2002
,
0000
0000
0000
3003
,
1000
0000
0001
0000
1000
0100
0000
0220
,
0000
0000
0000
0330
,
0002
0000
0013
0000
0000
1100
0000
2002
,
0000
0000
0000
3003
,
0001
0000
1000
0000
0001
0100
0000
0010
,
2000
3200
0320
0032
,
2003
0000
0010
3010
,
0000
0000
1000
0000
0001
1000
0001
0000
,
0020
0000
0100
0130
,
0000
1000
0001
0100
,
0002
0000
0010
0013
,
0000
0000
0001
0000
1000
0001
1000
0000
,
0010
0100
0001
1000
,
0100
0010
0100
0010
0001
0000
0100
0000
,
0101
0000
0000
1010
0000
0000
0000
0000
,
0000
0000
0000
0000
,
1100
0000
0000
0011
0000
0000
0000
0000
,
0000
0000
0000
0000
,
0001
0000
0000
1000
0000
0000
0010
0000
,
0000
0100
0000
0000
0001
0000
1000
0000
,
1002
0100
1003
0001
,
0100
0010
1000
0001
,
1000
0000
0000
0001
0000
0000
0010
0000
,
0000
0100
0000
0000
1000
0000
0001
0000
,
2001
0100
3001
1000
,
0100
0010
0001
1000
,
0020
0000
0130
0000
0000
1010
0000
2002
,
0000
0000
0000
3003
,
0001
0000
1000
0000
0100
0010
0000
0022
,
0000
0000
0000
0033
,
0020
0000
0130
0000
0000
0011
0000
2002
,
0000
0000
0000
3003
,
1000
0000
0001
0000
0100
0010
0000
1000
,
0001
1000
0100
0000
0010
0001
1000
0000
,
1001
0000
0000
0000
;

//---------------dance-single - Daff_4K----------------
#NOTES:
     dance-single:
     Daff_4K:
     Hard:
     12:
     0.425017,0.473724,0.417992,0.606498,0.086057,363.000000,312.000000,51.000000,74.000000,0.000000,0.000000,0.425017,0.473724,0.417992,0.606498,0.086057,363.000000,312.000000,51.000000,74.000000,0.000000,0.000000:
0000
0000
0000
0000
,
0000
0000
0000
0000
,
0000
0000
0000
0000
,
0000
0000
0000
0000
,
0000
0000
0000
0000
,
0000
0000
0000
0000
,
0000
0000
0000
0000
,
2000
3002
0203
0320
,
2030
0000
0100
0200
,
0000
0000
0300
0001
,
3002
0000
0100
0200
,
0000
0000
0300
1000
,
2003
3002
0023
0200
,
0000
0000
0000
0330
,
2000
3002
0203
0320
,
2030
3200
0320
0031
,
2001
0000
3010
0100
0001
0000
2001
0000
,
3100
0010
0001
0000
0101
0000
1010
0000
,
1002
0000
0013
0100
1000
0000
1020
0000
,
0130
0001
1000
0000
1100
0000
0011
0000
,
1002
0000
0013
0100
1000
0000
1002
0000
,
0103
0010
1000
0000
1100
0000
0011
0000
,
2001
0000
3010
0100
0001
0000
0021
0000
,
0130
1000
0001
0000
0101
0000
1010
0000
,
1000
0100
0010
0100
2000
0000
3001
1000
,
0010
1000
0001
0000
0011
0000
1100
0000
,
1000
0001
0100
0010
0200
0000
0301
1000
,
0100
0010
0001
0000
0110
0000
1001
0000
,
0001
0100
0010
0100
0002
0000
1003
0001
,
0010
0001
1000
0000
1010
0000
0101
0000
,
0001
1000
0100
0010
0200
0000
1300
0001
,
0100
0010
1000
0100
0010
0001
1000
0000
,
1002
0000
0100
0000
0013
0100
0000
2100
,
0000
0001
3001
0000
1000
0001
1000
0010
,
0200
0000
0010
0000
0301
1000
0000
1002
,
0000
0000
0010
0000
0013
0000
0100
0000
1000
0000
0001
1000
0001
0000
0000
0000
,
2001
0000
0100
0000
3010
0100
0000
0102
,
0000
1000
1003
0000
0001
1000
0001
0010
,
0200
0000
0010
0000
1300
0001
0100
0010
,
1000
0000
0000
1000
0100
0000
0000
0100
0010
0000
0000
0010
0001
0000
0000
0000
,
2001
0000
0010
0000
0100
0100
0100
0000
,
3020
0000
0130
0000
0001
1000
0100
0000
,
0120
0000
0001
0000
0130
1000
0002
0000
,
0103
0000
1010
0000
1000
0100
0010
0000
,
1002
0000
0010
0000
0100
0100
0100
0000
,
0023
0000
0130
0000
1000
0001
0100
0000
,
0120
0000
1000
0000
0130
0001
2000
0000
,
3001
0010
0100
1000
0010
0100
0001
0000
,
1000
0100
1000
0100
0000
0000
0010
0001
0010
0001
0000
0000
0000
0000
0000
0000
,
0000
0000
0000
0000
,
0001
0100
0001
0100
0000
0000
0010
1000
0010
1000
0000
0000
0000
0000
0000
0000
,
0000
0000
0000
0000
,
2200
0000
3300
0202
0000
0303
0022
0000
,
0033
2020
0000
3030
1001
0000
0110
0000
,
2001
0000
0000
0100
0000
0000
3010
0000
1000
0000
0100
0000
0001
0000
0100
0000
,
2000
0000
0000
0010
0000
0000
3001
0000
1000
0000
0100
0000
0010
0000
0001
0000
,
0202
0000
0303
2200
0000
3300
2020
0000
,
3030
0022
0000
0033
1001
0000
0110
0000
,
1002
0000
0000
0100
0000
0000
0013
0000
0001
0000
0100
0000
1000
0000
0100
0000
,
0002
0000
0000
0010
0000
0000
1003
0000
0001
0000
0100
0000
0010
0000
1000
0000
,
0200
0000
0010
0000
1300
0001
0000
2001
,
0000
0000
0010
0000
3010
0000
0100
0000
0001
0000
1000
0001
1000
0000
0100
0010
,
0200
0000
0001
0000
0310
0001
0000
1002
,
0000
0000
0103
0000
0001
0000
0010
0000
0100
0000
1000
0001
1000
0000
0001
0000
,
0200
0000
0010
0000
0301
1000
0000
1002
,
0000
0000
0010
0000
0013
0000
0100
0000
1000
0000
0001
1000
0001
0000
0100
0010
,
0200
0000
1000
0000
0310
1000
0000
2001
,
0000
3100
0001
1000
0010
0001
1000
0000
,
1001
0000
0000
0000
;

//---------------dance-single - Daff_4K----------------
#NOTES:
     dance-single:
     Daff_4K:
     Challenge:
     14:
     0.512830,0.640921,0.245877,0.401600,0.249975,438.000000,408.000000,30.000000,49.000000,0.000000,0.000000,0.512830,0.640921,0.245877,0.401600,0.249975,438.000000,408.000000,30.000000,49.000000,0.000000,0.000000:
// measure 0
0000
0000
0000
0000
,  // measure 1
0000
0000
0000
0000
,  // measure 2
0000
0000
0000
0000
,  // measure 3
0000
0000
0000
0000
,  // measure 4
0000
0000
0000
0000
,  // measure 5
0000
0000
0000
0000
,  // measure 6
0000
0000
0000
0000
,  // measure 7
2000
3002
0023
0230
,  // measure 8
2300
0000
0010
0020
,  // measure 9
0000
0030
3002
0023
,  // measure 10
0230
0000
1300
0001
1000
0010
0200
0000
,  // measure 11
0000
0000
0302
2003
,  // measure 12
3002
0000
0010
0020
,  // measure 13
0033
0001
2000
0000
3020
0000
0230
0000
,  // measure 14
0301
0010
1000
0010
0001
0100
1000
0100
,  // measure 15
0001
0000
0010
0000
0100
0000
1000
0000
0010
0100
0010
0000
0100
0000
0001
0000
,  // measure 16
1000
0010
0001
0010
1000
0000
0001
0010
,  // measure 17
0100
0000
1000
0000
0010
0000
0000
0100
0001
0000
0000
0001
1000
0000
0000
0000
,  // measure 18
0001
0010
0100
0010
0001
0000
1000
0001
,  // measure 19
0100
0000
0010
0000
1000
0000
0000
0100
0010
0000
0000
0010
0001
0000
1000
0000
,  // measure 20
0001
0010
1000
0010
0001
0000
1000
0010
,  // measure 21
0100
0000
0001
0000
0010
0000
0000
0100
1000
0000
0000
1000
0001
0000
0000
0000
,  // measure 22
1000
0010
0100
0010
1000
0000
0001
1000
,  // measure 23
0100
0000
0010
0000
0001
0000
0000
0100
0010
0000
0000
0010
1000
0000
0001
0000
,  // measure 24
1000
0100
0010
0100
0001
0000
1000
0010
,  // measure 25
0001
0000
1000
0000
0001
0000
0000
0100
0010
0000
0000
0010
1000
0000
0100
0000
,  // measure 26
0010
0001
0100
0010
1000
0000
0001
0010
,  // measure 27
0100
0000
1000
0000
0001
0000
0000
0100
0010
0000
0000
0010
1000
0000
0001
1000
,  // measure 28
0001
0100
0010
0100
1000
0000
0001
0010
,  // measure 29
1000
0000
0001
0000
1000
0000
0000
0100
0010
0000
0000
0010
0001
0000
0100
0000
,  // measure 30
0010
1000
0100
0010
0001
0000
1000
0010
,  // measure 31
0100
0000
0001
0000
1000
0000
0100
0000
0010
0100
0010
0000
0001
0000
1000
0000
,  // measure 32
1020
0000
0001
0000
1030
1001
0000
0012
,  // measure 33
0000
0000
0103
0000
0010
0000
1000
0100
1000
0000
0001
0100
0001
0000
0010
0000
,  // measure 34
0200
0000
1000
0000
0310
0110
0000
2001
,  // measure 35
0000
0000
3010
0000
0100
0000
0001
0000
0010
0100
0010
0001
1000
0000
0000
0000
,  // measure 36
0021
0000
1000
0000
0031
1001
0000
2010
,  // measure 37
0000
0000
3100
0000
0010
0000
0001
0100
0001
0000
1000
0100
1000
0000
0010
0000
,  // measure 38
0200
0000
0001
0000
0310
1000
0100
0010
,  // measure 39
0001
1000
0001
0000
1000
0000
0010
0100
0010
0000
0100
0000
0001
0000
0000
0000
,  // measure 40
2001
0000
3100
0010
0001
1000
0020
0000
,  // measure 41
0001
0100
1030
0110
,  // measure 42
1002
0000
0013
1000
0001
0100
2000
0000
,  // measure 43
0010
3001
1100
0011
,  // measure 44
1002
0000
0103
0010
1000
0001
0020
0000
,  // measure 45
1000
0100
0031
0110
,  // measure 46
2001
0000
3010
0001
1000
0100
0002
0000
,  // measure 47
1003
0000
0100
1000
0100
0000
0010
0001
0010
0000
0001
0000
0100
0000
0010
0000
,  // measure 48
1000
0100
1000
0100
0000
0000
0010
0001
0010
0001
0000
0000
0000
0000
0000
0000
,  // measure 49
0000
0000
0000
1001
,  // measure 50
0001
0100
0001
0100
0000
0000
0010
1000
0010
1000
0000
0000
0000
0000
0000
0000
,  // measure 51
0000
0000
0000
0000
,  // measure 52
2200
0000
3300
2020
0000
3030
0202
0000
,  // measure 53
0303
0022
0000
0033
0110
0000
1001
0000
,  // measure 54
1000
0000
0001
0100
0000
0100
0010
0000
1000
0000
0100
0000
0001
0000
0100
0000
,  // measure 55
1000
0000
0010
0100
0000
0100
0001
0000
1000
0000
0100
0000
0010
0000
0001
0000
,  // measure 56
0202
0000
0303
0022
0000
0033
2200
0000
,  // measure 57
3300
2020
0000
3030
0110
0000
1001
0000
,  // measure 58
0001
0000
1000
0100
0000
0100
0010
0000
0001
0000
0100
0000
1000
0000
0100
0000
,  // measure 59
0001
0000
0010
0100
0000
0100
1000
0000
0001
0000
0100
0000
0010
0000
1000
0000
,  // measure 60
0001
0000
0010
0000
1000
0000
0010
0100
0000
0100
0010
0000
0001
0000
1000
0001
,  // measure 61
0100
0000
0010
0000
1000
0000
0001
0010
0001
0000
1000
0010
1000
0000
0100
0000
,  // measure 62
0001
0000
0100
0000
1000
0000
0010
0000
0100
0000
0001
1000
0001
0000
0010
0000
,  // measure 63
1000
0000
0010
0000
0100
0000
0010
0000
0001
1000
0001
0100
0020
0000
0000
0000
,  // measure 64
1030
0000
0010
0000
0001
0000
0010
0100
0000
0100
0010
0000
1000
0000
0001
1000
,  // measure 65
0100
0000
0010
0000
0001
0000
1000
0010
1000
0000
0001
0010
0001
0000
0100
0000
,  // measure 66
1000
0000
0100
0000
0001
0000
0010
0000
0100
0000
1000
0001
1000
0000
0010
0000
,  // measure 67
0100
0010
0100
0000
0001
0000
1000
0001
1000
0000
0100
0010
0001
1000
0001
0000
,  // measure 68
1001
0000
0000
0000
;
