#VERSION:0.83;
#TITLE:EVERBLUE;
#SUBTITLE:;
#ARTIST:Omoinotake;
#TITLETRANSLIT:;
#SUBTITLETRANSLIT:;
#ARTISTTRANSLIT:;
#GENRE:;
#ORIGIN:;
#CREDIT:;
#BANNER:;
#BACKGROUND:;
#PREVIEWVID:;
#JACKET:;
#CDIMAGE:;
#DISCIMAGE:;
#LYRICSPATH:;
#CDTITLE:;
#MUSIC:EVERBLUE.ogg;
#OFFSET:0.000000;
#SAMPLESTART:72.427055;
#SAMPLELENGTH:14.222221;
#SELECTABLE:YES;
#BPMS:0.000=135.000;
#STOPS:;
#DELAYS:;
#WARPS:;
#TIMESIGNATURES:0.000=4=4;
#TICKCOUNTS:0.000=4;
#COMBOS:0.000=1;
#SPEEDS:0.000=1.000=0.000=0;
#SCROLLS:0.000=1.000;
#FAKES:;
#LABELS:0.000=Song Start;
#BGCHANGES:;
#KEYSOUNDS:;
#ATTACKS:
;

//---------------dance-single - Classic 9 | Modern 13----------------
#NOTEDATA:;
#CHARTNAME:;
#STEPSTYPE:dance-single;
#DESCRIPTION:Classic 9 | Modern 13;
#CHARTSTYLE:Pad;
#DIFFICULTY:Hard;
#METER:13;
#RADARVALUES:0.586589,0.641230,0.093747,0.449986,0.562482,438.000000,428.000000,10.000000,48.000000,0.000000,0.000000,0.000000,0.000000,0.000000,0.586589,0.641230,0.093747,0.449986,0.562482,438.000000,428.000000,10.000000,48.000000,0.000000,0.000000,0.000000,0.000000,0.000000;
#CREDIT:DDRDAIKENKAI;
#NOTES:
// measure 0
0000
0000
0000
0000
,  // measure 1
0000
0000
0000
0000
,  // measure 2
0000
0000
0000
0000
,  // measure 3
0000
0000
0000
0000
,  // measure 4
1000
0000
0100
0000
1000
0000
0010
0000
0100
0000
0001
0010
0000
0001
0000
0100
,  // measure 5
0010
0000
1000
0000
0100
0000
0010
0000
0001
1000
0001
0000
0010
0000
0100
0000
,  // measure 6
1000
0000
0000
0001
0000
0000
1000
0000
0000
0000
0000
0000
0100
0000
0000
0000
0000
0000
0001
0000
0000
0000
0000
0000
0100
0000
0000
0000
0000
0000
0010
0000
0000
0000
0000
0000
0001
0000
1000
0000
0001
0000
2000
0000
0000
0000
0000
0000
,  // measure 7
0000
0000
0001
0000
3001
0000
0000
0000
0002
0000
0000
2000
0003
0000
3200
0000
,  // measure 8
0010
0000
0000
0000
1000
0000
0000
0000
0310
0000
0000
0001
0000
0000
2000
0000
,  // measure 9
0010
0000
0000
0000
3100
0000
1000
0000
0001
0000
0000
0100
0000
0000
0020
0000
,  // measure 10
1000
0000
0000
0000
0001
0000
0000
0000
0130
0000
0000
0010
0000
0000
2000
0000
,  // measure 11
0000
0000
0001
0000
3001
0000
0000
0000
0001
0000
0000
0010
0000
0000
0200
0000
,  // measure 12
1000
0000
0000
0000
0001
0000
0000
0000
1300
0000
0000
0010
0000
0000
0200
0000
,  // measure 13
0001
0000
0000
0000
1000
0000
0000
0000
0301
0000
0000
1000
0000
0000
0200
0000
,  // measure 14
0010
0000
0000
0000
1300
0000
0010
0000
1000
0000
0000
0001
0000
0000
0200
0000
,  // measure 15
0000
0010
0310
0000
0100
1001
1001
0002
,  // measure 16
2003
0000
0000
0100
0000
3100
0000
0100
0000
0010
0000
0001
1000
0000
0100
0000
,  // measure 17
2000
0000
0000
0010
0000
3010
0000
0010
0000
0100
0000
0010
1000
0000
0001
0000
,  // measure 18
0020
0000
0000
0100
0000
0130
0000
0100
0000
1000
0000
0001
1000
0000
0100
0000
,  // measure 19
0020
0000
0000
0001
0000
0031
0000
0001
0000
1000
0000
0010
1000
0000
0001
0000
,  // measure 20
0200
0000
0000
0310
0000
1000
0000
0001
0000
0010
0000
0001
1000
0000
0100
0000
,  // measure 21
0020
0000
0000
0031
0000
1000
0000
0100
0000
1000
0000
0010
0100
0000
0010
0000
,  // measure 22
2000
0000
0000
3001
0000
0100
0000
0010
0000
1000
0000
0001
1000
0000
0100
0010
,  // measure 23
0001
0000
0000
0011
0000
0000
1001
0000
0000
0000
0000
0000
0200
0000
0000
0000
,  // measure 24
1300
0000
0000
0001
1000
0000
0100
0000
1000
0000
0010
0000
0100
0000
0001
0000
,  // measure 25
1000
0000
0000
0001
1000
0000
0010
0000
1000
0000
0100
0000
0010
0000
0100
0000
,  // measure 26
1000
0000
0000
0001
1000
0000
0010
0000
0100
0000
0010
0000
1000
0000
0001
0000
,  // measure 27
0100
0000
0000
0001
0010
0000
0001
0000
1000
0000
0010
0000
0100
0000
0010
0000
,  // measure 28
1000
0000
0000
0100
0010
0000
0100
0000
0001
0000
0100
0000
1000
0001
0100
0000
,  // measure 29
0010
0000
0000
1000
0100
0000
0001
0000
0100
0000
0010
0000
0100
0000
1000
0000
,  // measure 30
0100
0000
0000
1000
0001
0000
1000
0000
0010
0000
0100
0000
0010
1000
0010
0000
,  // measure 31
0100
0000
0000
0001
1000
0000
0100
0000
0010
0100
0010
0000
0110
0000
0100
0000
,  // measure 32
1000
0000
0000
0100
1000
0000
0001
0000
0100
0000
1000
0000
0100
0000
0001
0000
,  // measure 33
1000
0000
0000
0010
0100
0000
0001
0000
0010
0001
0010
0001
1000
0000
0010
0000
,  // measure 34
0100
0000
0000
0001
1000
0000
0100
0000
0001
0000
0100
0000
0010
0000
0001
0000
,  // measure 35
1000
0000
0000
0010
1000
0000
0001
0000
0100
0001
0100
0001
1000
0000
0010
0000
,  // measure 36
1000
0000
0000
0001
0010
0000
0001
0000
0100
0010
0100
0010
1000
0000
0001
0000
,  // measure 37
0010
0000
0000
0100
0010
0000
0001
0000
1000
0010
1000
0010
0100
0000
1000
0000
,  // measure 38
0100
0000
0000
0001
1000
0000
0100
0000
0010
0001
0010
0001
1000
0000
0010
0000
,  // measure 39
0100
0000
0000
0001
1000
0000
0001
0000
0010
0100
0010
0100
0010
0000
0020
0000
,  // measure 40
0031
0010
0001
0010
0000
0100
0000
2000
0000
3100
0010
0001
1000
0000
2000
0000
,  // measure 41
0100
0000
0001
0000
3100
0010
0001
2000
,  // measure 42
0010
3020
0001
0032
0100
0203
1000
1300
,  // measure 43
0010
0000
1000
0000
0001
1000
0100
0000
0010
0000
0000
0010
0000
0000
0010
0000
,  // measure 44
0100
0000
1000
0000
0001
0100
0010
0000
2000
0000
0000
3100
0000
0000
0001
0000
,  // measure 45
0100
0000
1000
0000
0001
0010
0001
0000
2000
0000
0000
3010
0000
0000
0001
0000
,  // measure 46
0010
0000
1000
0000
0001
0100
0001
0000
0020
0000
0000
0230
0000
0000
0310
0000
,  // measure 47
0001
0000
1000
0000
0100
0000
1000
0010
1000
0000
0001
1000
0001
1000
0001
1000
,  // measure 48
0020
1030
1001
0100
0110
0010
0011
0002
,  // measure 49
0010
0000
0000
0000
0100
0000
0000
0000
1003
0000
0010
0100
0010
0000
2000
0000
,  // measure 50
0100
3200
0001
0302
0010
0023
1000
2030
,  // measure 51
0100
0000
3100
0000
0010
0001
0010
0000
0100
0000
1000
0010
1000
0000
0001
1000
,  // measure 52
0001
1000
0001
0000
0001
0000
0010
0000
2000
0000
0000
3020
0000
0000
0031
0000
,  // measure 53
1000
0000
0010
0000
0100
0001
0100
0000
0002
0000
0000
0023
0000
0000
2030
0000
,  // measure 54
3010
0000
0001
0000
0100
0010
0100
0000
2000
0000
0000
3200
0000
0000
0320
0000
,  // measure 55
1000
0000
1030
0000
0001
0000
0100
0000
0010
0000
1000
0000
0001
1000
0001
1000
,  // measure 56
0010
1000
0000
1000
0100
0010
0000
0110
0000
0010
0001
1000
0000
2002
0000
0000
,  // measure 57
3003
0000
0000
0000
;

//---------------dance-single - Classic 5 | Modern 7----------------
#NOTEDATA:;
#CHARTNAME:;
#STEPSTYPE:dance-single;
#DESCRIPTION:Classic 5 | Modern 7;
#CHARTSTYLE:Pad;
#DIFFICULTY:Easy;
#METER:7;
#RADARVALUES:0.293294,0.319560,0.018749,0.299991,0.004687,219.000000,217.000000,2.000000,32.000000,0.000000,0.000000,0.000000,0.000000,0.000000,0.293294,0.319560,0.018749,0.299991,0.004687,219.000000,217.000000,2.000000,32.000000,0.000000,0.000000,0.000000,0.000000,0.000000;
#CREDIT:DDRDAIKENKAI;
#NOTES:
// measure 0
0000
0000
0000
0000
,  // measure 1
0000
0000
0000
0000
,  // measure 2
0000
0000
0000
0000
,  // measure 3
0000
0000
0000
0000
,  // measure 4
1000
1000
0100
0100
,  // measure 5
0010
0010
0001
0001
,  // measure 6
0100
0000
0010
0000
1000
0000
0001
0020
,  // measure 7
0000
0100
0130
0000
0000
0000
0000
0000
,  // measure 8
0110
0100
0100
0010
,  // measure 9
0001
0001
0001
0100
,  // measure 10
0010
0010
0010
1000
,  // measure 11
0001
0001
1000
1000
,  // measure 12
0100
0010
0100
0100
,  // measure 13
0001
0100
0010
0010
,  // measure 14
0001
0010
1000
1000
,  // measure 15
0001
0000
0100
0000
1000
0000
1000
0100
,  // measure 16
1000
1000
0100
0100
,  // measure 17
1000
0000
0001
0000
1000
0000
1000
0001
,  // measure 18
1000
1000
0010
0010
,  // measure 19
0100
0000
0100
0000
0010
0000
0010
0100
,  // measure 20
0010
0100
0001
1000
,  // measure 21
0100
0000
0001
0000
0100
0000
1000
0100
,  // measure 22
1000
1000
0010
0010
,  // measure 23
1000
0000
0000
1000
0000
0000
1000
0000
0000
0000
0000
0000
0200
0000
0000
0000
,  // measure 24
1300
0100
0001
0100
,  // measure 25
1000
0010
0001
0010
,  // measure 26
1000
0100
1000
0001
,  // measure 27
0100
0010
0100
0100
,  // measure 28
0001
1000
0100
1000
,  // measure 29
0010
1000
0100
0010
,  // measure 30
0001
0100
0001
0010
,  // measure 31
0100
0000
0010
0000
0001
0000
0001
0010
,  // measure 32
0001
0000
0010
0000
0100
0000
0010
1000
,  // measure 33
0010
0000
0100
0000
0001
0000
0100
1000
,  // measure 34
0100
0000
0010
0000
0100
0000
1000
0001
,  // measure 35
1000
0000
0010
0000
0100
0000
0001
0010
,  // measure 36
0001
0000
0010
0000
0100
0000
0010
1000
,  // measure 37
0010
0000
0100
0000
0010
0000
0001
1000
,  // measure 38
0001
0000
0100
0000
0010
0000
1000
0001
,  // measure 39
2000
0000
3010
0000
0001
1000
0001
0000
,  // measure 40
2002
0000
0000
0000
3003
0000
1000
2000
,  // measure 41
0000
0000
0001
0000
3001
1000
1000
2000
,  // measure 42
0000
3020
0000
0230
0000
0302
0000
2003
,  // measure 43
0000
0000
3100
0200
0000
0000
0310
0000
,  // measure 44
0010
0100
0010
0000
0002
0000
1003
0000
,  // measure 45
0100
1000
2000
3001
,  // measure 46
0100
0001
0002
0203
,  // measure 47
0320
0000
2030
0000
0100
0000
3010
0020
,  // measure 48
0000
0230
0000
0320
0000
0000
1030
2000
,  // measure 49
0000
0000
0100
0000
0000
3001
0000
0002
,  // measure 50
0000
0023
0000
0230
0000
2300
0000
3002
,  // measure 51
0000
0000
0103
0200
0000
0000
0010
0000
,  // measure 52
0010
0310
2000
3100
,  // measure 53
0001
0100
0020
0031
,  // measure 54
0010
0100
1000
0001
,  // measure 55
0002
2000
0000
0000
,  // measure 56
0000
0000
0000
0000
0000
0000
0000
0000
0000
0000
0000
0000
0000
3003
0000
0000
;

//---------------dance-single - Classic 6 | Modern 9----------------
#NOTEDATA:;
#CHARTNAME:;
#STEPSTYPE:dance-single;
#DESCRIPTION:Classic 6 | Modern 9;
#CHARTSTYLE:Pad;
#DIFFICULTY:Medium;
#METER:9;
#RADARVALUES:0.380345,0.400769,0.074998,0.271867,0.121871,284.000000,276.000000,8.000000,29.000000,0.000000,0.000000,0.000000,0.000000,0.000000,0.380345,0.400769,0.074998,0.271867,0.121871,284.000000,276.000000,8.000000,29.000000,0.000000,0.000000,0.000000,0.000000,0.000000;
#CREDIT:DDRDAIKENKAI;
#NOTES:
// measure 0
0000
0000
0000
0000
,  // measure 1
0000
0000
0000
0000
,  // measure 2
0000
0000
0000
0000
,  // measure 3
0000
0000
0000
0000
,  // measure 4
1000
0010
0100
0001
,  // measure 5
1000
0100
0001
0100
,  // measure 6
0010
0000
0001
0000
0100
0000
0010
2000
,  // measure 7
0000
0001
3001
0000
0000
0000
0000
0000
,  // measure 8
1000
0000
0000
0000
1000
0000
0000
0000
0001
0000
0000
0100
0000
0000
0010
0000
,  // measure 9
1000
0000
0000
0000
1000
0000
0000
0000
0010
0000
0000
0100
0000
0000
0001
0000
,  // measure 10
1000
0000
0000
0000
0100
0000
0000
0000
0010
0000
0000
0001
0000
0000
1000
0000
,  // measure 11
0000
0000
0100
0000
0100
0000
0000
0000
0010
0000
0000
0100
0000
0000
1000
0000
,  // measure 12
0001
0000
0000
0000
0100
0000
0000
0000
0010
0000
0000
0010
0000
0000
0010
0000
,  // measure 13
0100
0000
0000
0000
0001
0000
0000
0000
1000
0000
0000
0100
0000
0000
1000
0000
,  // measure 14
0001
0000
0000
0000
0100
0000
0000
0000
0001
0000
0000
0001
0000
0000
0001
0000
,  // measure 15
0000
1000
0100
0000
0010
0000
0110
0000
,  // measure 16
0010
0000
0100
0000
1000
0000
0001
0100
,  // measure 17
0010
0000
0001
0000
0010
1000
0001
1000
,  // measure 18
0100
0000
0010
0000
0100
0000
1000
0001
,  // measure 19
0010
0000
1000
0000
0010
0001
1000
0001
,  // measure 20
0100
0000
1000
0000
0100
0000
0010
1000
,  // measure 21
0100
0000
0010
0000
0100
1000
0010
0100
,  // measure 22
0001
0000
0010
0000
0100
0000
0010
0010
,  // measure 23
0001
0000
0000
0001
0000
0000
1000
0000
0000
0000
0000
0000
0200
0000
0000
0000
,  // measure 24
0310
0000
0000
0000
0001
0000
0000
0000
1000
0000
0000
1000
0000
0000
0001
0000
,  // measure 25
0010
0000
0000
0000
0100
0000
0000
0000
0010
0000
0000
0001
0000
0000
1000
0000
,  // measure 26
0010
0000
0000
0000
0100
0000
0000
0000
0010
0000
0000
1000
0000
0000
0100
0000
,  // measure 27
0000
0000
0010
0000
0010
0000
0000
0000
0100
0000
0000
1000
0000
0000
0001
0000
,  // measure 28
0100
0000
0000
0000
0100
0000
0000
0000
0010
0000
0000
0100
0000
0000
0001
0000
,  // measure 29
1000
0000
0000
0000
0100
0000
0000
0000
0010
0000
0000
0001
0000
0000
1000
0000
,  // measure 30
0100
0000
0000
0000
1000
0000
0000
0000
0010
0000
0000
1000
0000
0000
0001
0000
,  // measure 31
0000
0100
0100
0000
0110
0000
1001
0002
,  // measure 32
0000
1003
0100
0000
0010
0100
1000
0001
,  // measure 33
0100
0000
0100
0000
0001
0000
0010
0200
,  // measure 34
0310
0000
0010
0000
0001
0100
0010
2000
,  // measure 35
0010
0000
3010
0000
0100
0000
0010
2000
,  // measure 36
3001
0000
0001
0000
0010
0100
0010
0001
,  // measure 37
2000
0000
3100
0000
0010
0000
0001
0200
,  // measure 38
0010
0310
1000
0001
0001
1000
0100
1000
,  // measure 39
0002
0000
0013
0000
0100
1000
0010
0000
,  // measure 40
0220
0000
0000
0000
0330
0000
1000
0020
,  // measure 41
1000
0000
1000
0000
1030
0001
1000
0200
,  // measure 42
0000
0320
0000
0032
0000
2003
0000
3010
,  // measure 43
0020
0000
0000
0000
2030
0000
0000
0000
3001
0000
0000
0010
0000
0000
0100
0000
,  // measure 44
0010
0000
0001
0000
0010
0000
0001
0000
2000
0000
0000
3010
0000
0000
0100
0000
,  // measure 45
0000
0000
0001
0000
0010
0000
0001
0000
0010
0000
0000
0100
0000
0000
2000
0000
,  // measure 46
0000
0000
3001
0000
0100
0000
0000
0000
0010
0000
0000
0100
0000
0000
0020
0000
,  // measure 47
0000
1000
2030
0000
3001
0100
0001
0100
,  // measure 48
0010
0000
0110
0000
1001
0000
0110
0002
,  // measure 49
1000
0000
0100
0000
1003
0100
1000
0002
,  // measure 50
0000
0023
0000
2030
0000
3200
0000
0301
,  // measure 51
0100
0000
0001
0000
0100
0000
0000
0000
0010
0000
0000
0010
0000
0000
0010
0000
,  // measure 52
1000
0000
0100
0000
1000
0000
0001
0000
1000
0000
0000
1000
0000
0000
1000
0000
,  // measure 53
0000
0000
0001
0000
0100
0000
0100
0000
0001
0000
0000
0001
0000
0000
0001
0000
,  // measure 54
0000
0000
1000
0000
0010
0000
1000
0000
0001
0000
0000
0100
0000
0000
0010
0000
,  // measure 55
1000
0100
1000
0000
0001
0010
0001
0000
,  // measure 56
1000
0010
0000
0000
0100
0000
0000
0001
0000
0000
1000
0000
0000
2002
0000
0000
,  // measure 57
3003
0000
0000
0000
;
