#VERSION:0.83;
#TITLE:ETERNAL DRAIN;
#SUBTITLE:;
#ARTIST:カラフル・サウンズ・ポート;
#TITLETRANSLIT:;
#SUBTITLETRANSLIT:;
#ARTISTTRANSLIT:COLORFUL SOUNDS PORT;
#GENRE:ANIME POP;
#ORIGIN:;
#CREDIT:;
#BANNER:ETERNAL DRAIN.png;
#BACKGROUND:ETERNAL DRAIN-bg.png;
#PREVIEWVID:;
#JACKET:ETERNAL DRAIN-jacket.png;
#CDIMAGE:;
#DISCIMAGE:;
#LYRICSPATH:;
#CDTITLE:cdtitle.png;
#MUSIC:ETERNAL DRAIN.ogg;
#OFFSET:-0.205000;
#SAMPLESTART:72.668007;
#SAMPLELENGTH:15.000000;
#SELECTABLE:YES;
#BPMS:0.000=149.000;
#STOPS:;
#DELAYS:;
#WARPS:;
#TIMESIGNATURES:0.000=4=4;
#TICKCOUNTS:0.000=4;
#COMBOS:0.000=1;
#SPEEDS:0.000=1.000=0.000=0;
#SCROLLS:0.000=1.000;
#FAKES:;
#LABELS:0.000=Song Start;
#BGCHANGES:0.000=ETERNAL DRAIN.avi=1.000=0=0=0=StretchNoLoop==CrossFade_Fastest==,
99999=-nosongbg-=1.000=0=0=0 // don't automatically add -songbackground-
;
#KEYSOUNDS:;
#ATTACKS:
;

//---------------dance-single - Daff_4K----------------
#NOTEDATA:;
#CHARTNAME:Daff_4K;
#STEPSTYPE:dance-single;
#DESCRIPTION:Daff_4K;
#CHARTSTYLE:;
#DIFFICULTY:Beginner;
#METER:2;
#RADARVALUES:0.121959,0.171929,0.047429,0.000000,0.000000,108.000000,102.000000,6.000000,0.000000,0.000000,0.000000,0.000000,0.000000,0.000000,0.121959,0.171929,0.047429,0.000000,0.000000,108.000000,102.000000,6.000000,0.000000,0.000000,0.000000,0.000000,0.000000,0.000000;
#CREDIT:Daff_4K;
#NOTES:
0000
0000
0000
0000
,
0000
0000
0000
0000
,
0000
0000
0000
0000
,
0000
0000
0000
0000
,
0000
0000
0000
0000
,
0000
0000
0000
0000
,
0010
0000
0000
0000
,
0100
0000
0000
0000
,
0010
0000
0000
0000
,
0001
0000
1000
0000
,
1001
0000
0000
0000
,
0000
0000
0000
0000
,
0001
0000
0000
0000
,
1000
0000
0000
0000
,
0010
0000
0100
0000
,
0010
0000
0010
0000
,
1000
0000
0000
0000
,
0001
0000
0000
0000
,
0010
0000
0000
0000
,
0100
0000
0100
0000
,
1000
0000
0000
0000
,
0001
0000
1000
0000
,
0010
0000
0000
0000
,
0100
0000
0001
0000
,
1000
0000
0000
0000
,
0100
0000
0000
0000
,
0001
0000
0100
0000
,
1000
0000
0000
0000
,
0001
0000
0000
0000
,
1000
0000
0001
0000
,
0010
0000
0000
0000
,
0100
0000
1000
0000
,
0001
0000
0001
0000
,
1000
0000
1000
0000
,
0010
0000
0100
0000
,
0001
0000
0000
0000
,
1000
0000
0000
0000
,
0001
0000
0000
0000
,
0010
0000
0010
0000
,
0100
0000
0000
0000
,
1000
0000
0010
0000
,
1000
0000
0001
0000
,
0001
0000
0010
0000
,
0001
0000
1000
0000
,
1001
0000
0000
0000
,
1000
0000
1000
0000
,
0010
0000
0010
0000
,
1000
0000
0001
0000
,
1000
0000
1001
0000
,
0001
0000
0001
0000
,
0100
0000
0100
0000
,
0010
0000
0000
0000
,
1000
1000
1000
0000
,
0001
0000
0001
0000
,
0010
0000
0010
0000
,
0001
0000
1000
0000
,
0001
0000
1001
0000
,
1000
0000
1000
0000
,
0100
0000
0100
0000
,
0010
0000
0000
0000
,
0001
0000
1000
0000
,
0001
0000
1000
0000
,
1001
0000
0000
0000
,
0001
0000
0000
0000
,
1000
0000
0000
0000
,
0100
0000
0100
0000
,
0010
0000
0100
0000
,
1000
0000
0000
0000
,
0001
0000
0000
0000
,
0100
0000
0000
0000
,
0010
0000
0000
0000
,
1000
0000
0000
0000
,
0001
0000
1001
0000
;

//---------------dance-single - Daff_4K----------------
#NOTEDATA:;
#CHARTNAME:Daff_4K;
#STEPSTYPE:dance-single;
#DESCRIPTION:Daff_4K;
#CHARTSTYLE:;
#DIFFICULTY:Easy;
#METER:4;
#RADARVALUES:0.187456,0.261450,0.047429,0.466381,0.000000,166.000000,160.000000,6.000000,59.000000,0.000000,0.000000,0.000000,0.000000,0.000000,0.187456,0.261450,0.047429,0.466381,0.000000,166.000000,160.000000,6.000000,59.000000,0.000000,0.000000,0.000000,0.000000,0.000000;
#CREDIT:Daff_4K;
#NOTES:
0000
0000
0000
0000
,
0000
0000
0000
0000
,
0000
0000
0000
0000
,
0000
0000
0000
0000
,
0000
0000
0000
0000
,
0000
0000
0000
0000
,
0002
0003
2000
3000
,
0020
0030
0200
0300
,
0020
0000
0000
0030
,
1000
1000
0001
0001
,
2002
0000
0000
0000
,
3003
0000
0000
0000
,
2000
3000
0020
0030
,
2000
3000
0001
1000
,
0200
0300
0020
0030
,
0001
1000
0010
0100
,
0002
0003
0020
0030
,
0002
0003
1000
0001
,
0200
0000
0000
0300
,
0010
1000
0001
0000
,
2000
3000
0000
0100
,
1000
0100
0010
0000
,
0002
0003
0000
1000
,
0001
1000
0010
0000
,
0100
0001
0010
0000
,
0100
1000
0010
0000
,
0200
0000
0300
0001
,
2000
0000
0000
3000
,
0002
0003
0000
0100
,
0001
0100
0010
0000
,
2000
3000
0000
0001
,
1000
0001
0010
0000
,
0100
1000
0010
0000
,
0100
0001
0010
0000
,
0100
0100
1000
0001
,
0200
0000
0000
0300
,
0002
0000
0003
0000
,
2000
0000
3000
0000
,
0100
0010
0001
1000
,
0020
0000
0030
0000
,
1000
0100
0010
0000
,
0001
0100
0010
0000
,
1000
1000
0001
0001
,
0020
0000
0000
0000
,
0200
0000
0000
0330
,
2000
3000
0020
0030
,
2000
3000
0002
0003
,
2000
3000
0200
0300
,
0020
0000
0130
0000
,
1000
1000
0001
0001
,
0100
0100
0010
0010
,
2000
0000
3001
0000
,
1000
0001
1001
0000
,
0002
0003
0020
0030
,
0002
0003
2000
3000
,
0002
0003
0200
0300
,
0020
0000
0130
0000
,
0001
0001
1000
1000
,
0100
0100
0010
0010
,
0002
0000
1003
0000
,
0001
1000
0010
0100
,
0002
0000
1003
0000
,
2002
0000
0000
3003
,
2000
3000
0200
0300
,
2000
3000
0001
1000
,
0020
0030
0200
0300
,
0001
1000
0100
0010
,
0002
0003
0200
0300
,
0002
0003
1000
0001
,
0020
0000
0000
0030
,
0100
1000
0001
0100
,
0020
0000
0000
0030
,
1001
0110
2002
0000
,
0000
0000
3003
0000
;

//---------------dance-single - Daff_4K----------------
#NOTEDATA:;
#CHARTNAME:Daff_4K;
#STEPSTYPE:dance-single;
#DESCRIPTION:Daff_4K;
#CHARTSTYLE:;
#DIFFICULTY:Medium;
#METER:8;
#RADARVALUES:0.296993,0.348600,0.118571,0.553333,0.000000,263.000000,248.000000,15.000000,70.000000,0.000000,0.000000,0.000000,0.000000,0.000000,0.296993,0.348600,0.118571,0.553333,0.000000,263.000000,248.000000,15.000000,70.000000,0.000000,0.000000,0.000000,0.000000,0.000000;
#CREDIT:Daff_4K;
#NOTES:
0000
0000
0000
0000
,
0000
0000
0000
0000
,
0000
0000
0000
0000
,
0000
0000
0000
0000
,
0000
0000
0000
0000
,
0000
0000
0000
0000
,
0002
0000
0103
0001
,
2000
0000
3100
1000
,
0020
0000
0130
0001
,
2000
3100
0002
0103
,
0220
0330
2002
3003
,
1000
0001
1000
0000
0001
1000
0001
0000
,
2000
3100
0002
0103
,
2000
3010
0002
0013
,
2000
0000
3001
0000
1000
0001
1000
0000
,
0100
0010
0100
1001
,
0002
0103
2000
3100
,
0002
0013
2000
3010
,
0200
0010
1000
0310
,
0001
1000
0010
0100
,
0002
1003
0000
0001
,
0010
0000
0100
0010
0100
0000
1000
0000
,
0002
0103
0000
0001
,
1000
0000
0100
0010
0100
0000
0010
0000
,
0001
0100
1000
0000
,
0001
0010
1000
0001
,
0020
0000
0130
1000
,
0002
0000
1003
0001
,
2000
3001
0000
1000
,
0010
0000
0100
0010
0100
0000
0001
0000
,
2000
3100
0000
1000
,
0001
0000
0100
0010
0100
0000
0010
0000
,
1000
0100
0001
0100
,
1000
0010
0001
0010
,
1000
1000
0001
0001
,
0220
0000
0000
0330
,
2000
0010
3001
0000
,
2000
0100
3001
0000
,
1000
0010
0001
0010
,
2000
0000
0002
3003
,
0002
0010
1003
0000
,
0002
0100
1003
0000
,
0001
0001
1000
1000
,
0200
0000
0020
0330
,
2002
0000
0000
3003
,
0002
0103
2000
3100
,
0002
0013
2000
3010
,
0002
0103
2000
3010
,
0220
0330
1001
0000
,
2000
3100
0002
0103
,
2000
3010
0002
0013
,
2000
0100
0001
3010
,
1000
0000
0001
1000
0001
0000
1001
0000
,
1000
0000
0001
1000
0001
0000
0100
0000
,
0010
0000
1000
0010
1000
0000
0001
0000
,
0010
0000
0100
0010
0100
0000
1000
0000
,
0220
0330
1001
0000
,
0001
0000
1000
0001
1000
0000
0100
0000
,
0010
0000
0001
0010
0001
0000
1000
0000
,
0020
0100
0130
0001
,
0020
0130
2000
3001
,
0200
0010
0010
0310
,
2002
0000
0000
3003
,
0002
0013
2000
3010
,
0002
0103
2000
3100
,
0002
0000
1003
0000
0001
1000
0001
0000
,
0010
0100
0010
1001
,
2000
3010
0002
0013
,
2000
3100
0002
0103
,
0020
0100
0001
0130
,
1000
0001
0100
0010
,
1000
0100
0010
0001
,
1001
0110
2002
0000
,
0000
0000
3003
0000
;

//---------------dance-single - Daff_4K----------------
#NOTEDATA:;
#CHARTNAME:Daff_4K;
#STEPSTYPE:dance-single;
#DESCRIPTION:Daff_4K;
#CHARTSTYLE:;
#DIFFICULTY:Hard;
#METER:12;
#RADARVALUES:0.477674,0.522900,0.268762,0.458476,0.252952,423.000000,389.000000,34.000000,58.000000,0.000000,0.000000,0.000000,0.000000,0.000000,0.477674,0.522900,0.268762,0.458476,0.252952,423.000000,389.000000,34.000000,58.000000,0.000000,0.000000,0.000000,0.000000,0.000000;
#CREDIT:Daff_4K;
#NOTES:
// measure 0
0000
0000
0000
0000
,  // measure 1
0000
0000
0000
0000
,  // measure 2
0000
0000
0000
0000
,  // measure 3
0000
0000
0000
0000
,  // measure 4
0000
0000
0000
0000
,  // measure 5
0000
0000
0000
0000
,  // measure 6
2000
0000
0010
0000
0001
0000
3100
1000
,  // measure 7
0002
0000
0010
0000
1000
0000
0103
0001
,  // measure 8
0020
1000
0100
0031
,  // measure 9
2001
0000
3010
0000
1002
0000
0013
0100
,  // measure 10
1000
0000
0000
1010
0000
0000
0100
0000
0001
0000
0000
0011
0000
0000
0100
0000
,  // measure 11
1000
0001
0000
0000
0001
0100
0000
0000
0100
0010
0000
0000
0010
1000
0000
0000
,  // measure 12
1002
0000
0000
0000
0013
0000
0000
0100
2000
0000
0000
0000
3001
0000
0000
0100
,  // measure 13
0020
0000
0000
0000
1030
0000
0000
0001
0020
0000
0000
0000
0130
0000
0000
0000
,  // measure 14
2001
0000
3010
0100
0001
1000
0001
0010
,  // measure 15
0200
0010
1300
0110
,  // measure 16
2001
0000
0000
0000
3010
0000
0000
0100
0002
0000
0000
0000
1003
0000
0000
0100
,  // measure 17
0020
0000
0031
1000
0010
0100
0001
1000
,  // measure 18
0200
0000
0001
0000
0010
0000
1300
0001
,  // measure 19
0100
0010
0100
1000
0001
0010
1000
0000
,  // measure 20
1002
0000
0013
0000
0001
0100
0010
0100
,  // measure 21
1000
0000
0000
0100
0000
0000
0001
0000
1000
0000
0000
0000
0011
0000
0000
0000
,  // measure 22
2001
0000
3100
0000
1000
0010
0100
0010
,  // measure 23
0001
0000
0000
0010
0000
0000
1000
0000
0001
0000
0000
0000
1100
0000
0000
0000
,  // measure 24
1000
0000
0000
0010
0000
0000
0100
0000
0002
0000
0000
0000
1003
0000
0000
0000
,  // measure 25
0001
0000
0000
0010
0000
0000
0100
0000
1000
0000
0001
0000
0100
0000
0000
0000
,  // measure 26
0120
0000
1000
0000
0031
0010
1000
0000
,  // measure 27
0100
0000
0010
0000
0100
0000
0000
1000
0000
0000
0001
0000
1000
0000
0000
0000
,  // measure 28
0001
0100
0020
0000
0130
0001
1000
0001
,  // measure 29
0010
0000
0000
0100
0000
0000
0010
0000
0001
1000
0000
0000
1010
0000
0000
0000
,  // measure 30
1000
0100
0020
0000
0130
1000
0001
1000
,  // measure 31
0010
0000
0000
0100
0000
0000
0010
0000
1000
0001
0000
0000
0011
0000
0000
0000
,  // measure 32
0001
0000
0000
0100
0000
0000
1000
0000
0001
0000
0000
0010
0000
0000
1000
0000
,  // measure 33
0001
0000
0000
1000
0000
0000
0100
0000
0010
0000
0001
0000
0100
0000
0010
0000
,  // measure 34
1000
0000
0000
0100
0000
0000
0001
0000
1000
0000
0000
0010
0000
0000
0001
0000
,  // measure 35
0200
1000
0010
0301
,  // measure 36
1000
0000
0000
0001
0000
0000
0010
0000
0100
0000
0000
0000
0011
0000
0000
0000
,  // measure 37
0001
0000
0000
1000
0000
0000
0010
0000
0100
0000
0000
0000
1010
0000
0000
0000
,  // measure 38
1000
0000
0001
0000
0010
0000
0100
0010
0000
0000
0001
0000
1000
0000
0000
0000
,  // measure 39
0020
0001
0100
1030
,  // measure 40
0001
0000
0000
0010
0000
0000
1000
0000
0100
0000
0000
0000
0001
0000
0000
0000
,  // measure 41
1000
0000
0000
0010
0000
0000
0001
0000
0100
0000
0000
0000
1000
0000
0000
0000
,  // measure 42
1010
0000
0000
0001
0000
0000
1000
0000
0011
0000
0000
1000
0000
0000
0001
0000
,  // measure 43
0200
1000
0010
0301
,  // measure 44
1000
0100
1000
0000
0001
0100
0001
0000
0020
0000
0000
0000
0130
0000
0000
0000
,  // measure 45
2001
3100
0012
0103
,  // measure 46
0010
0000
0000
1000
0000
0000
0100
0000
0002
0000
0000
0000
0103
0000
0000
0000
,  // measure 47
2100
0000
3010
0000
0102
0000
0013
0100
,  // measure 48
2000
0000
0000
0000
3001
0000
0100
0010
0100
0000
0000
0000
0110
0000
0000
0000
,  // measure 49
1002
0103
2010
3100
,  // measure 50
0010
0000
0000
0001
0000
0000
0100
0000
1000
0000
0000
0100
0000
0000
0001
0000
,  // measure 51
0020
0000
1000
0000
0100
0000
0031
1000
,  // measure 52
0010
0100
0010
0000
1000
0001
1000
0000
0200
0000
0000
0000
0310
0000
0000
0000
,  // measure 53
0001
0000
1000
0020
0000
0000
0130
0000
0010
0000
1000
0002
0000
0000
0013
0000
,  // measure 54
0001
0000
0000
0100
0000
0000
1000
0000
0001
0000
0000
0010
0000
0000
1000
0000
,  // measure 55
0001
0000
0010
0200
0000
0000
0310
0000
0001
0000
1000
0020
0000
0000
0130
0000
,  // measure 56
0002
0000
0000
0000
1003
0000
0100
0010
0100
0000
0000
0000
1001
0000
0000
0000
,  // measure 57
1000
0000
0001
0020
0000
0000
0130
0000
0010
0000
0001
2000
0000
0000
3010
0000
,  // measure 58
1000
0000
0000
0100
0000
0000
0001
0000
1000
0000
0000
0010
0000
0000
0001
0000
,  // measure 59
0200
0000
1000
0000
0010
0000
0301
1000
,  // measure 60
1200
0310
0201
0310
,  // measure 61
1001
0000
0000
0000
1000
0000
0100
0000
0010
0000
0001
0000
1000
0001
1000
0000
,  // measure 62
0020
0000
0000
0030
,  // measure 63
2001
0000
0000
0000
3100
0000
0000
0010
0002
0000
0000
0000
1003
0000
0000
0010
,  // measure 64
0200
0000
0000
0000
0301
0000
0000
1000
0200
0000
0000
0000
0310
0000
0000
0000
,  // measure 65
1002
0000
0103
0010
1000
0001
1000
0100
,  // measure 66
0020
0100
0031
0110
,  // measure 67
1002
0000
0000
0000
0103
0000
0000
0010
2000
0000
0000
0000
3001
0000
0000
0010
,  // measure 68
0200
0000
1300
0001
0100
0010
1000
0001
,  // measure 69
0020
0000
1000
0000
0100
0000
0031
1000
,  // measure 70
0010
0100
0010
0000
1000
0001
1000
0000
0100
0000
0010
0000
0001
0000
1000
0000
,  // measure 71
0020
0000
0000
0000
0001
0000
0000
0000
0100
0000
0000
0000
1030
0000
0001
1000
,  // measure 72
0000
0100
0010
0100
0010
0001
1000
0001
0200
0000
0000
0000
0000
0000
0000
0000
,  // measure 73
0000
0000
0300
0000
;

//---------------dance-single - 音ゲー戦士Daff_4K----------------
#NOTEDATA:;
#CHARTNAME:音ゲー戦士Daff_4K;
#STEPSTYPE:dance-single;
#DESCRIPTION:音ゲー戦士Daff_4K;
#CHARTSTYLE:;
#DIFFICULTY:Challenge;
#METER:14;
#RADARVALUES:0.583823,0.726250,0.229238,0.719333,0.513810,517.000000,488.000000,29.000000,91.000000,0.000000,0.000000,0.000000,0.000000,0.000000,0.583823,0.726250,0.229238,0.719333,0.513810,517.000000,488.000000,29.000000,91.000000,0.000000,0.000000,0.000000,0.000000,0.000000;
#CREDIT:音ゲー戦士Daff_4K;
#NOTES:
0000
0000
0000
0000
,
0000
0000
0000
0000
,
0000
0000
0000
0000
,
0000
0000
0000
0000
,
0000
0000
0000
0000
,
0000
0000
0000
0000
,
0001
0000
1000
0000
0010
0000
0000
0100
0000
0000
0001
0000
1000
0000
0100
0000
,
1000
0000
0001
0000
0010
0000
0000
0100
0000
0000
1000
0000
0001
0000
0100
0000
,
0020
0000
0001
0000
0130
0010
1000
0001
,
1000
0100
0000
0000
0100
0010
0000
0000
0010
0001
0000
0000
0001
0000
1000
0000
,
1002
0000
0000
0100
0000
0000
0013
0000
2001
0000
0000
0100
0000
0000
3010
0000
,
1000
0100
1000
0000
0001
0100
0001
0000
0010
0000
1000
0000
0010
0000
0001
0000
,
2000
0000
0000
3010
0000
0000
0100
0001
0200
0000
0000
0310
0000
0000
1000
0001
,
2000
0000
0000
3100
0000
0000
0010
0001
0020
0000
0000
0000
0130
0000
0000
0000
,
1002
0000
0000
0103
0000
0000
0010
0100
0010
0000
1000
0000
0100
0000
0001
0000
,
0200
0000
0000
0010
0000
0000
1300
0001
0200
0000
0000
0000
0310
0000
0000
0000
,
1002
0000
0000
0013
0000
0000
0100
1000
0200
0000
0000
0310
0000
0000
0001
1000
,
0002
0000
0000
0103
0000
0000
0010
1000
0010
0000
0100
0000
0001
0000
1000
0000
,
0200
0000
0010
0000
0301
0100
1000
0001
,
0100
0010
0000
0000
0010
1000
0000
0000
1000
0000
0001
0000
0010
0000
0100
0000
,
1100
0000
0000
1000
0001
0000
0000
0001
0100
0000
0010
0000
1000
0000
0100
0000
,
0002
0000
0000
0203
0000
0000
2300
0000
3010
0100
0000
0000
0110
0000
0000
0000
,
1001
0000
0000
0001
0010
0000
0000
0010
0100
0000
1000
0000
0010
0000
0100
0000
,
0002
0000
0000
2003
0000
0000
3200
0000
0310
0001
0000
0000
1001
0000
0000
0000
,
0102
0000
0000
1000
0000
0000
0013
0000
0100
0000
0000
0000
1001
0000
0000
0000
,
2100
0000
0000
0001
0000
0000
3010
0000
0100
0000
0001
0000
1000
0000
0001
0000
,
0020
0000
1000
0000
0130
0010
0001
1000
,
0020
0000
0100
0000
0130
0000
0010
0100
0000
0001
1000
0000
0001
0000
0100
0000
,
0101
0000
0000
0001
1000
0000
0000
1000
0100
0000
0010
0000
0001
0000
0100
0000
,
2000
0000
0000
3200
0000
0000
0302
0000
0013
0100
0000
0000
0110
0000
0000
0000
,
1001
0000
0000
1000
0010
0000
0000
0010
0100
0000
0001
0000
0010
0000
0100
0000
,
2000
0000
0000
3002
0000
0000
0203
0000
0310
1000
0000
0000
1001
0000
0000
0000
,
2000
0000
0000
0100
0000
0000
3100
0000
0020
0000
0000
0001
0000
0000
0031
0000
,
0200
0000
0000
0320
0000
0000
1030
0000
0100
0000
0001
0000
1000
0000
0010
0000
,
0002
0000
0000
0100
0000
0000
0103
0000
0020
0000
0000
1000
0000
0000
1030
0000
,
0200
0000
0010
0000
0310
0000
0001
1000
0000
0001
1000
0000
0010
0000
0100
0000
,
0102
0000
0000
0010
0000
0000
1003
0000
0001
0000
0100
0010
1000
0000
0000
0000
,
2100
0000
0000
0010
0000
0000
3001
0000
1000
0000
0100
0010
0001
0000
0000
0000
,
1000
0010
0110
0000
0001
0010
0110
0000
,
1002
0000
0000
0000
0100
0000
0000
0000
0013
0000
0100
0010
0100
0000
1000
0000
,
0020
0000
0000
0001
0000
0000
0130
0000
0010
0000
1000
0001
1000
0000
0001
0000
,
0020
0000
0000
1000
0000
0000
0130
0000
0010
0000
0001
1000
0001
0000
1000
0000
,
1002
0000
0000
0203
0000
0000
0310
0000
2001
0000
0000
3200
0000
0000
0310
0000
,
0001
0100
1000
0100
0001
0010
0100
1000
,
0001
0100
0001
0000
1000
0100
1000
0000
0010
0000
0100
0000
0001
0000
1000
0000
,
1002
0000
0000
0100
0000
0000
0013
0000
0200
0000
0000
0010
0000
0000
1300
0000
,
0020
0000
0000
1000
0000
0000
0130
0000
0002
0000
0000
0023
0000
0000
0230
0000
,
2300
0000
0000
0010
0000
0000
3001
0000
0020
0000
0000
0001
0000
0000
0130
0000
,
2000
0000
0000
0000
3001
0000
1000
0010
0100
0000
0000
0000
0110
0000
0000
0000
,
2001
0000
0000
0100
0000
0000
3010
0000
0200
0000
0000
0010
0000
0000
0301
0000
,
0020
0000
0000
0001
0000
0000
0130
0000
2000
0000
0000
3020
0000
0000
0230
0000
,
0302
0000
0010
0000
1000
0000
0103
0010
,
1000
0100
1000
0000
0001
0100
0001
0000
0010
0000
0100
0000
1000
0000
0001
0000
,
1000
0000
0010
0100
0000
0100
0001
0000
1000
0000
0100
0010
0000
0010
0001
0000
,
2000
0000
0000
3020
0000
0000
0032
0000
2003
0000
0000
3200
0000
0000
0302
0000
,
0013
0000
0100
1000
0000
1000
0001
0000
0100
0000
0010
1000
0000
1000
0100
0000
,
0002
0000
0000
0000
0103
0000
1000
0001
1000
0000
0000
0000
1001
0000
0000
0000
,
0001
0000
0010
0100
0000
0100
1000
0000
0001
0000
0100
0010
0000
0010
1000
0000
,
0002
0000
0000
0023
0000
0000
2030
0000
3002
0000
0000
0203
0000
0000
2300
0000
,
3020
0000
0001
0000
0100
0000
1030
0001
,
0010
0100
0010
0000
0001
0100
0001
0000
1000
0100
1000
0000
0010
0000
0100
0000
,
0001
0000
1000
0010
1000
0000
0001
0010
0001
0000
0100
0010
0100
0010
1000
0002
,
2000
0000
0000
3003
,
1002
0000
0000
0103
0000
0000
0010
1000
0020
0000
0000
0130
0000
0000
0001
1000
,
0002
0000
0000
0013
0000
0000
0100
1000
0200
0000
0000
0000
0310
0000
0000
0000
,
2001
0000
0000
3010
0000
0000
0100
0001
1000
0000
0001
0000
0010
0000
1000
0000
,
0020
0000
0000
0100
0000
0000
0031
1000
0020
0000
0000
0000
0130
0000
0000
0000
,
2001
0000
0000
3100
0000
0000
0010
0001
0020
0000
0000
0130
0000
0000
1000
0001
,
2000
0000
0000
3010
0000
0000
0100
0001
0100
0000
0010
0000
1000
0000
0001
0000
,
0020
0000
1030
0010
0001
0100
0010
1000
,
0001
0010
0001
0000
1000
0010
1000
0000
0001
0100
0001
0000
1000
0100
1000
0000
,
0020
0000
0000
0000
0031
0000
0010
0000
1000
0000
0100
0000
0001
0000
0100
0010
,
0000
0001
1000
0001
0100
0010
1000
0100
0020
0000
0000
0000
0000
0000
0000
0000
,
0000
0000
0030
0000
;
