#TITLE:Deep in Abyss;
#SUBTITLE:;
#ARTIST:Riko (VA: Miyu Tomita), Reg (VA: Mariya Ise);
#MUSIC:Deep in Abyss.ogg;
#BANNER:;
#BACKGROUND:;
#LYRICSPATH:;
#CDTITLE:;
#SAMPLESTART:47.089;
#SAMPLELENGTH:14.914000000000001;
#OFFSET:0.189;
#BPMS:0.000=135.000;
#STOPS:;
#TIMESIGNATURES:;
#BGCHANGES:;
#FGCHANGES:;
#ATTACKS:;

//---------------dance-single - D0omsday---------------
#NOTES:
     dance-single:
     D0omsday:
     Beginner:
     4:
     0,0,0,0,0:
// measure 0
0000
0000
0000
0000
,  // measure 1
0000
0000
0000
0000
,  // measure 2
0000
0000
0000
0000
,  // measure 3
1000
0000
1000
0000
,  // measure 4
0010
0000
0010
0000
,  // measure 5
1000
0000
0001
0000
,  // measure 6
1000
0000
0100
0000
,  // measure 7
0010
0000
0010
0000
,  // measure 8
0100
0000
0100
0000
,  // measure 9
1000
0000
0000
0000
,  // measure 10
0001
0000
0000
0000
,  // measure 11
0100
0000
0000
0000
0000
0000
0000
0010
,  // measure 12
0000
0000
0000
0000
,  // measure 13
0001
0000
0001
0000
,  // measure 14
1000
0000
1000
0000
,  // measure 15
0100
0000
0100
0000
0000
0000
0000
0010
,  // measure 16
0000
0000
0000
0010
0000
0000
0000
0000
,  // measure 17
2002
0000
0000
0000
,  // measure 18
3003
0000
0000
0000
,  // measure 19
0220
0000
0000
0000
,  // measure 20
0330
0000
0000
0000
,  // measure 21
0001
1000
0001
0000
,  // measure 22
1000
0001
1000
0000
,  // measure 23
0200
0000
0000
0000
,  // measure 24
0300
0010
0010
0010
,  // measure 25
0001
0000
1000
0000
,  // measure 26
2002
0000
3003
0000
,  // measure 27
1000
0000
1000
0000
,  // measure 28
0001
0000
0001
0000
,  // measure 29
0010
0000
0100
0000
,  // measure 30
1000
0000
0000
0000
,  // measure 31
0010
0000
0010
0000
,  // measure 32
0100
0000
0100
0000
,  // measure 33
0001
0000
0010
0000
,  // measure 34
0100
0000
0000
0000
,  // measure 35
1001
0000
0000
0000
,  // measure 36
0110
0000
0000
0000
,  // measure 37
1000
0000
0100
0000
,  // measure 38
1000
0000
0001
0001
,  // measure 39
0010
0000
0000
0100
0000
0000
0000
1000
,  // measure 40
0000
0000
0000
0001
0000
0000
0000
0000
,  // measure 41
1000
0000
1000
0000
1000
0000
0000
0010
,  // measure 42
0000
0000
0000
0100
0000
0000
0000
0000
,  // measure 43
0001
0000
0001
0000
0001
0000
0000
0010
,  // measure 44
0000
0000
0000
0001
0000
0000
0000
0000
,  // measure 45
1000
0100
0010
0001
,  // measure 46
2002
0000
0000
0000
,  // measure 47
3003
0001
0000
0100
,  // measure 48
0010
0000
0010
0000
,  // measure 49
2000
0000
0002
0000
,  // measure 50
3003
0000
0000
0000
;

//---------------dance-single - D0omsday---------------
#NOTES:
     dance-single:
     D0omsday:
     Easy:
     7:
     0,0,0,0,0:
// measure 0
0000
0000
0000
0000
,  // measure 1
0000
0000
0000
0000
,  // measure 2
0000
0000
0000
0000
,  // measure 3
2002
3003
0001
0010
,  // measure 4
0100
0000
1000
0001
,  // measure 5
2002
3003
1000
0010
,  // measure 6
0100
1000
0100
0010
,  // measure 7
1000
0000
0001
1000
0001
0000
1000
0010
,  // measure 8
1000
0000
0001
0010
0001
0000
0100
0000
,  // measure 9
0020
0100
2030
0000
,  // measure 10
3002
0023
0100
0032
,  // measure 11
2003
0000
0000
0000
0020
0000
3030
1000
,  // measure 12
0000
0001
0000
0010
0000
0000
0000
0000
,  // measure 13
0200
0010
2300
0000
,  // measure 14
3020
0230
0001
0320
,  // measure 15
2030
0000
0002
0000
0000
0000
3003
1000
,  // measure 16
0000
0100
0000
0010
0000
0000
0000
0000
,  // measure 17
0001
0000
0000
1000
0000
0000
0001
0000
1000
0000
0000
0001
0000
0000
1000
0000
,  // measure 18
0001
0100
0010
1000
,  // measure 19
0100
0000
0000
0010
0000
0000
0100
0000
0000
0000
0000
0000
1000
0000
0000
0000
,  // measure 20
2002
0000
0000
3003
,  // measure 21
0002
0010
2003
0010
,  // measure 22
3002
0100
1003
0100
,  // measure 23
0220
0300
0002
0030
,  // measure 24
1003
0010
0100
0010
,  // measure 25
0100
0000
0000
0001
0000
0000
1000
0000
0000
0000
0001
0000
0000
0000
0110
0000
,  // measure 26
0000
0010
0100
0010
0000
0000
0000
0000
,  // measure 27
0001
0000
0000
1000
0000
0000
0001
0000
0100
0000
0000
0000
0010
0000
0000
0000
,  // measure 28
1000
0000
0000
0100
0000
0000
1000
0000
0001
0000
0000
0000
0010
0000
0000
0000
,  // measure 29
0100
1000
0000
0010
1000
0000
0100
0000
,  // measure 30
0010
1000
0010
0100
,  // measure 31
1000
0000
0000
0001
0000
0000
1000
0000
0010
0000
0000
0000
0100
0000
0000
0000
,  // measure 32
0001
0000
0000
0010
0000
0000
0001
0000
1000
0000
0000
0000
0100
0000
0000
0000
,  // measure 33
0010
0001
0000
0100
0001
0000
1000
0000
,  // measure 34
0010
0100
2002
3003
,  // measure 35
0001
0010
1000
0010
,  // measure 36
0001
0100
1000
0100
,  // measure 37
0001
0000
1000
0001
1000
0000
0100
0000
,  // measure 38
0220
0330
0001
1000
,  // measure 39
0010
0000
0000
0100
0000
0001
0000
1000
,  // measure 40
0000
0100
0000
0010
0000
0000
0001
0000
,  // measure 41
0100
0000
0100
0010
0000
0010
0000
1000
,  // measure 42
0000
0001
0000
0010
0000
0000
0100
0000
,  // measure 43
0010
0000
0010
0001
0000
0001
0000
1000
,  // measure 44
0000
0010
0000
0100
0000
0000
0001
0000
,  // measure 45
1001
0110
1001
0110
,  // measure 46
2002
0000
0000
0000
3000
0000
0000
0000
0203
0000
0000
0320
0000
0000
0230
0000
,  // measure 47
0302
2003
3200
0320
,  // measure 48
0032
0000
2003
3020
0000
0230
0000
0320
,  // measure 49
0000
2030
3200
0320
0000
0032
0000
0000
,  // measure 50
0003
0000
0000
0000
;

//---------------dance-single - D0omsday---------------
#NOTES:
     dance-single:
     D0omsday:
     Medium:
     10:
     0,0,0,0,0:
// measure 0
0000
0000
0000
0000
,  // measure 1
0000
0000
0000
0000
,  // measure 2
0000
0000
0000
0000
,  // measure 3
2001
0000
0000
3010
0200
0000
0302
0000
,  // measure 4
0023
0000
0130
0010
0001
0100
0010
1000
,  // measure 5
0200
0000
1300
0001
0020
0000
0230
0000
,  // measure 6
2300
0000
3010
1000
0001
0100
0001
0000
,  // measure 7
0020
0000
0031
1000
0020
0000
0130
0001
,  // measure 8
0020
0000
0130
1000
0002
0000
0013
0001
,  // measure 9
2000
0000
0000
0000
3010
0000
1000
0002
0000
0000
0000
0000
0013
0000
0100
0000
,  // measure 10
2000
0000
0000
0000
3001
0000
0100
0010
0000
0000
0100
0000
1000
0000
0100
0000
,  // measure 11
0020
0000
0100
0000
0001
0000
1030
0001
,  // measure 12
0000
0010
0100
1000
0000
0001
0100
0000
,  // measure 13
0020
0000
0000
0000
0130
0000
0001
0000
1000
0000
0000
0100
0000
0000
0010
0000
,  // measure 14
0001
0000
0001
0000
1000
0000
0010
0100
0000
0000
1000
0000
0100
0000
0010
0000
,  // measure 15
2000
0000
3002
0000
0010
0000
0103
0010
,  // measure 16
0000
1000
0100
0010
0000
0001
0010
0100
,  // measure 17
1000
0000
0000
1000
0000
0000
1000
0000
0010
0000
0000
0010
0000
0000
0010
0000
,  // measure 18
0100
0000
0001
0010
0100
0000
0010
0001
,  // measure 19
1000
0000
0000
1000
0000
0000
1000
0000
0000
0000
0010
0000
0100
0000
0010
0000
,  // measure 20
2000
0000
0000
3001
0020
0000
0000
0031
,  // measure 21
0100
0000
0010
0000
1000
0000
0000
1000
0100
0000
0010
0000
0001
0000
0000
0001
,  // measure 22
0100
0010
0001
0010
0100
0000
0001
1000
,  // measure 23
0002
0000
0000
0000
0000
0000
0013
0100
0020
0000
0000
0100
0000
0000
0130
0000
,  // measure 24
1000
1100
1001
0101
,  // measure 25
0001
0000
0000
0010
0000
0000
0100
0000
1000
0000
0010
0000
1000
0000
1001
0000
,  // measure 26
0000
0001
0010
0100
0000
0000
0000
0000
,  // measure 27
1000
0000
0000
0010
0000
0000
1010
0000
1000
0000
0100
0000
0010
0000
0001
0000
,  // measure 28
0100
0000
0000
0010
0000
0000
0110
0000
0100
0000
0001
0000
0010
0000
0001
0000
,  // measure 29
1000
1000
0000
0010
0010
0000
0100
0001
,  // measure 30
1000
0000
0100
0010
0100
0000
0010
0001
,  // measure 31
1000
0000
0000
0010
0000
0000
1010
0000
1000
0000
0100
0000
0010
0000
0001
0000
,  // measure 32
0100
0000
0000
0010
0000
0000
0110
0000
0100
0000
0001
0000
1000
0000
0100
0000
,  // measure 33
0010
0010
0000
0001
0001
0000
0010
0100
,  // measure 34
1000
0001
2002
3003
,  // measure 35
1000
0010
0100
1000
0100
0010
1000
0000
,  // measure 36
0001
0010
0100
0001
0100
0010
0001
0000
,  // measure 37
1000
0010
0100
0001
0000
0010
0100
0000
,  // measure 38
2002
3003
1000
0010
,  // measure 39
1000
0000
1000
0100
0000
0100
0010
0001
,  // measure 40
0000
0001
1000
0010
0000
1000
0001
0000
,  // measure 41
0010
0001
1000
0001
0010
0100
1000
0010
,  // measure 42
0000
0010
1000
0100
0000
0010
0001
0000
,  // measure 43
1000
0010
1000
0100
1000
0010
0100
0001
,  // measure 44
0000
0001
0010
0100
0000
0010
0001
0000
,  // measure 45
0011
1001
1010
0110
,  // measure 46
1002
0000
0000
0000
0013
0000
0100
0000
2000
0000
0000
3020
0000
0000
0130
0000
,  // measure 47
1000
0000
0100
0010
1000
0000
0100
0000
,  // measure 48
0020
0000
2030
3020
0000
0032
0000
0203
,  // measure 49
0000
2300
3200
0320
0000
0032
0000
0000
,  // measure 50
0003
0000
0000
0000
;

//---------------dance-single - D0omsday---------------
#NOTES:
     dance-single:
     D0omsday:
     Hard:
     14:
     0,0,0,0,0:
// measure 0
0000
0000
0000
0000
,  // measure 1
0000
0000
0000
0000
,  // measure 2
0000
0000
0000
0000
,  // measure 3
1002
0000
0000
0000
0013
0000
0001
1000
0020
0000
0000
0000
0230
0000
0000
0000
,  // measure 4
0302
0000
0000
0000
0000
0000
0103
0001
1000
0100
0010
0001
1000
0100
0010
0000
,  // measure 5
0002
0000
0000
0000
0000
0000
0103
0000
0000
0001
1000
0001
1000
0000
0000
0010
0000
0000
0100
0000
0000
0010
0000
0000
,  // measure 6
2000
0000
0000
0000
3001
0000
0010
0200
0000
0000
0000
0301
0100
0020
0000
0000
,  // measure 7
0032
0000
0010
0100
2003
0000
0010
0100
,  // measure 8
3002
0000
0000
0000
0010
0000
0103
0010
0001
0000
0010
0000
0100
0000
0001
0000
,  // measure 9
0021
0000
0000
0000
0130
0000
1000
0002
0100
0000
0000
0000
1000
0000
0013
0100
,  // measure 10
2000
0000
0000
0000
3001
0000
0100
0010
0100
0000
0001
0000
0010
0000
0100
0000
,  // measure 11
2000
0000
0000
0000
0000
0000
3100
0000
0000
0010
0001
0010
0001
0000
0000
1000
0010
1000
0010
0000
0000
0110
0000
0000
,  // measure 12
0000
0110
0010
2010
0000
3001
0010
0000
,  // measure 13
0120
0000
0000
0000
0031
0000
1000
0020
0100
0000
0000
0001
0000
0000
0130
0001
,  // measure 14
1000
0000
0100
0000
0010
0000
0001
1000
0000
0000
0010
0100
0001
0000
0010
0000
,  // measure 15
0200
0000
0000
0000
0301
0000
0100
0010
0001
0000
1000
0010
0100
0000
0101
0000
,  // measure 16
0000
0000
0101
0000
0001
0000
1001
0000
1000
0100
0010
0001
1000
0000
0010
0100
,  // measure 17
0020
0000
0000
0001
0000
0000
1000
0000
0230
0000
0000
1000
0000
0000
0010
0000
,  // measure 18
0301
0000
0000
0000
1000
0100
0010
0001
1000
0010
0100
0001
1000
0100
0010
0000
,  // measure 19
0200
0000
0000
0001
0000
0000
1300
0000
0000
0000
0001
0100
0010
0000
1000
0000
,  // measure 20
0200
0000
0000
0000
0000
0000
1300
0010
0200
0000
0000
0000
0300
0000
0010
0100
,  // measure 21
0001
0000
0000
0010
0001
0000
0100
0010
1000
0000
0000
0100
0010
0000
0100
1000
,  // measure 22
0001
0000
0000
0000
0100
0000
0010
1000
0100
0010
0001
0010
0100
1000
0001
0100
,  // measure 23
0010
0000
0000
0000
1000
0000
0001
0010
0100
0000
0000
0010
0001
0000
1000
0000
,  // measure 24
0010
0100
0110
0000
1010
0000
1001
0000
,  // measure 25
0011
0000
0000
0010
0100
0000
0001
0000
0100
0000
1000
0000
0001
0000
0101
0000
,  // measure 26
0000
0000
0100
0010
0100
0010
0100
0000
0000
0000
0000
0000
0000
0000
0000
0000
,  // measure 27
0001
0000
0001
1000
0000
1000
0010
0000
0100
0000
1000
0000
0100
0000
0010
0000
,  // measure 28
1000
0000
1000
0100
0000
0100
0010
0001
1000
0000
0010
0000
1000
0000
0200
0000
,  // measure 29
0010
0000
1300
0001
0200
0000
0010
0000
0301
0000
0010
0000
0100
0010
0001
0000
,  // measure 30
1000
0000
0010
0000
0100
0000
1000
0000
0100
0000
0010
0000
1000
0001
0010
0000
,  // measure 31
0100
0000
0100
0001
0000
0001
0100
0000
0010
0000
0001
0000
1000
0000
0010
0000
,  // measure 32
0100
0000
0100
1000
0000
1000
0100
0000
0010
0000
1000
0000
0001
0010
0200
0000
,  // measure 33
0001
0000
0310
0001
0200
0000
0010
0000
1300
0000
0100
0000
0010
1000
0001
0000
,  // measure 34
0011
0110
2100
3010
,  // measure 35
1001
0000
0001
0000
0010
0000
0100
0001
0000
0100
0000
0010
0001
0000
0100
0000
,  // measure 36
0010
0000
1000
0000
0100
0000
0010
1000
0000
0010
0000
0100
1000
0000
0010
0000
,  // measure 37
0100
0001
0100
0000
0010
0000
0001
0000
0010
0000
1000
0000
0001
0000
0010
0100
,  // measure 38
0020
0000
0000
0000
0000
0000
0031
0000
0000
1000
0001
1000
0001
0000
0000
0000
0000
0000
0101
0000
0000
0000
0000
0000
,  // measure 39
0110
0010
1000
1100
0100
0010
0001
0101
,  // measure 40
0000
0110
0100
0102
0000
0013
0100
0000
,  // measure 41
1000
0000
0001
0100
0001
0000
1000
0100
1000
0000
0010
0000
0100
0000
0101
0000
,  // measure 42
0000
0000
1001
0000
0001
0000
0011
0000
0010
0000
0100
0000
1000
0001
0100
0000
,  // measure 43
0010
0000
1000
0001
0010
0000
0001
1000
0010
0000
1000
0000
0100
0000
0110
0000
,  // measure 44
0000
0000
0011
0000
0001
0000
1001
0000
0000
0000
1000
0010
0100
0000
0000
0000
,  // measure 45
0101
0001
1001
1000
1100
0100
0110
0010
,  // measure 46
0012
0000
0000
0000
1003
0010
1000
0001
0020
0000
0000
2030
0000
0000
3010
0000
,  // measure 47
0100
0000
1000
0001
0100
0000
0010
0000
0001
0000
0010
0000
0100
0000
0001
0000
,  // measure 48
0022
0033
1001
0220
0330
2020
3030
2200
,  // measure 49
3300
0110
0011
2002
3003
2020
0000
0000
,  // measure 50
3030
0000
0000
0000
;
