#VERSION:0.83;
#TITLE:大見解の新見解;
#SUBTITLE:;
#ARTIST:CALF;
#TITLETRANSLIT:Daikenkai no shinkenkai;
#SUBTITLETRANSLIT:;
#ARTISTTRANSLIT:;
#GENRE:HIP ROCK REMIX;
#CREDIT:;
#MUSIC:Daikenkai no shinkenkai.ogg;
#BANNER:Daikenkai no shinkenkai.png;
#BACKGROUND:Daikenkai no shinkenkai-bg.png;
#CDTITLE:;
#SAMPLESTART:16.901;
#SAMPLELENGTH:15.000;
#SELECTABLE:YES;
#OFFSET:0.000;
#BPMS:0.000=142.000
,160.000=121.940
,164.000=170.000
,296.000=121.940
,297.000=101.940
,298.000=71.940
,298.500=51.940
;
#STOPS:;
#TIMESIGNATURES:0.000=4=4;
#DISPLAYBPM:142.000:170.000;
#BGCHANGES:;
#FGCHANGES:;

//--------------- dance-single - Extraordiberry ----------------
#NOTEDATA:;
#STEPSTYPE:dance-single;
#DESCRIPTION:Extraordiberry;
#DIFFICULTY:Beginner;
#METER:3;
#RADARVALUES:0,0,0,0,0;
#CREDIT:Extraordiberry;
#NOTES:
0000
0000
0000
0000
,
0000
0000
0000
0000
,
0000
0000
0000
0000
,
0000
0000
0000
0000
,
0000
0000
0000
0000
,
0000
0000
0000
0000
,
0000
0000
0000
0000
,
0000
0000
0000
0000
,
1000
0000
0000
0000
,
0000
0000
0000
0000
,
1000
0000
0000
0000
,
0001
0000
0000
0000
,
0010
0000
0000
0000
,
0001
0000
0000
0000
,
0001
0000
0000
0000
,
1000
0000
0000
0000
,
0010
0000
0000
0000
,
1000
0000
0000
0000
,
0001
0000
0000
0000
,
1000
0000
0000
0000
,
0100
0000
0000
0000
,
0010
0000
0010
0000
,
0001
0000
0000
0000
,
1000
0000
0000
0000
,
0010
0000
0000
0000
,
0100
0000
0000
0000
,
0001
0000
0001
0000
,
0001
0000
0000
0000
,
1000
0000
1000
0000
,
1000
0000
0000
0000
,
0100
0000
0000
0000
,
0010
0000
0000
0000
,
0100
0000
0000
0000
,
1000
1000
1000
0000
,
0000
0000
0000
0000
,
0000
0000
0000
0000
,
0000
0000
0000
0000
,
0000
0000
0000
0000
,
0001
0000
0000
0000
,
0000
0000
0000
0000
,
1000
0000
0000
0000
,
0000
0000
0000
0000
,
0001
0000
0000
0000
,
1000
0000
0000
0000
,
0010
0000
0000
0000
,
1000
0000
0000
0000
,
1000
0000
0000
0000
,
0001
0000
0000
0000
,
0010
0000
0000
0000
,
0001
0000
0000
0000
,
1000
0000
0000
0000
,
0001
0000
0000
0000
,
0100
0000
0000
0000
,
0010
0000
0010
0000
,
1000
0000
0000
0000
,
0001
0000
0000
0000
,
0010
0000
0000
0000
,
0100
0000
0100
0000
,
1000
0000
0000
0000
,
0001
0000
0000
0000
,
0100
0000
0000
0000
,
0010
0000
0010
0000
,
1000
0000
0000
0000
,
0100
0000
0000
0000
,
0010
0000
0000
0000
,
0001
0000
0001
0000
,
1000
0000
0000
0000
,
0001
0000
0001
0000
,
1000
0000
0000
0000
,
0010
0000
0010
0000
,
0100
0000
0000
0000
,
0001
0000
1000
1000
,
1000
0000
0000
0000
,
0000
0000
0000
0000
,
0001
0000
0000
0000
;

//--------------- dance-single - Extraordiberry ----------------
#NOTEDATA:;
#STEPSTYPE:dance-single;
#DESCRIPTION:Extraordiberry;
#DIFFICULTY:Easy;
#METER:7;
#RADARVALUES:0,0,0,0,0;
#CREDIT:Extraordiberry;
#NOTES:
0000
0000
0000
0000
,
0000
0000
0000
0000
,
0000
0000
0000
0000
,
0000
0000
0000
0000
,
0000
0000
0000
0000
,
0000
0000
0000
0000
,
0000
0000
0000
0000
,
0000
0000
0000
0000
,
0002
0000
0000
0000
,
0000
0000
0000
0003
,
1000
0100
0010
0000
,
0001
0100
0010
0000
,
1000
0100
0010
0001
,
0100
0010
1000
0000
,
0001
0010
0100
0000
,
1000
0010
0100
0000
,
0001
0010
0100
1000
,
0010
0100
0001
0000
,
1000
0100
0001
0100
,
1000
1000
0001
0000
,
0001
0100
0010
0000
,
1000
0100
0010
0000
,
0001
0001
0100
0000
,
0001
1000
0100
0100
,
1000
0010
0100
0000
,
0001
0010
0100
0000
,
1000
0010
0100
0010
,
1000
0001
0010
0000
,
0001
0100
0010
0000
,
1000
0100
0010
0000
,
0001
0100
1000
0000
,
1000
0100
0001
0000
,
1000
0100
0001
0000
,
0001
0100
1000
0000
,
0002
0000
0000
0000
,
0000
0000
0000
0003
,
2000
0000
0000
0000
,
0000
0000
0000
3000
,
0001
0000
0100
0000
,
0010
0000
1000
0000
,
0002
0000
0000
0000
,
0000
0000
0000
0000
,
1003
0100
0010
0000
,
0001
0100
0010
0000
,
1000
0100
0010
0001
,
0100
0010
1000
0000
,
0001
0010
0100
0000
,
1000
0010
0100
0000
,
0001
0010
0100
1000
,
0010
0100
0001
0000
,
1000
0100
0010
0000
,
0001
0100
0010
0000
,
1000
0100
0001
0100
,
1000
1000
0001
0000
,
1000
0010
0100
0000
,
0001
0010
0100
0000
,
1000
1000
0001
0100
,
0010
0100
0001
0000
,
1000
0100
0001
0000
,
0001
0100
1000
0000
,
0001
0100
0010
0100
,
0001
1000
0001
0000
,
1000
0010
0001
0000
,
0001
0010
1000
0000
,
0001
0001
1000
0100
,
0010
0010
0100
0000
,
1000
1000
0001
0100
,
0010
0010
0100
0000
,
0001
0001
1000
0100
,
0010
0010
0100
0000
,
1000
0010
0001
0010
,
1000
1000
0001
1000
,
2002
0000
3003
0000
,
0000
0000
0000
0000
,
2000
0000
0000
3000
;

//--------------- dance-single - Extraordiberry ----------------
#NOTEDATA:;
#STEPSTYPE:dance-single;
#DESCRIPTION:Extraordiberry;
#DIFFICULTY:Medium;
#METER:12;
#RADARVALUES:0,0,0,0,0;
#CREDIT:Extraordiberry;
#NOTES:
0000
0000
0000
0000
,
0000
0000
0000
0000
,
0000
0000
0000
0000
,
0000
0000
0000
0000
,
0000
0000
0000
0000
,
0000
0000
0000
0000
,
0000
0000
0000
0000
,
0000
0000
0000
0000
,
0002
0000
0000
0000
,
0000
0000
0000
0000
,
1003
0100
0010
0100
1000
0010
0100
0000
,
0001
0010
0100
0010
0001
0100
0010
0000
,
1000
0100
0010
0100
1000
0010
0100
0010
,
1000
0100
0001
0100
1000
0000
0000
0000
,
0001
0100
0010
0100
0001
0010
0100
0000
,
1000
0010
0100
0010
1000
0100
0010
0000
,
0001
0100
0010
0100
0001
0010
0100
0010
,
0001
0100
1000
0100
0001
0000
0000
0000
,
1000
0100
0001
0100
1000
0001
0100
0001
,
1000
0100
0001
0100
1000
0000
0001
0010
,
1000
0010
0001
1000
0010
0000
1000
0100
,
0001
0100
1000
0001
0100
0000
1001
0000
,
0001
0100
1000
0100
0001
0000
1000
0100
,
1000
0010
0001
0010
1000
0001
0010
0000
,
0001
0100
1000
0100
0001
1000
0100
0000
,
1000
0010
0001
0010
1000
0000
0000
0000
,
0001
0100
0010
0010
1000
0010
0100
0100
,
0001
0010
1000
0010
0001
0100
0001
0001
,
1000
0100
0010
0100
1000
0001
1000
0100
,
0010
0001
0010
0100
1000
0001
0100
0000
,
0001
0100
1000
0100
0001
0000
1000
0100
,
1000
0010
0001
0010
1000
0000
0001
0001
,
1000
0100
0001
0100
1000
0000
0001
0100
,
1000
0001
0010
1000
0001
0000
0000
0000
,
2000
0000
0001
0000
,
0010
0000
3001
0000
,
0002
0000
1000
0000
,
0010
0000
1003
0000
,
1000
0000
0100
0000
,
0010
0000
0001
0000
,
2000
0000
0000
0000
,
0000
0000
0000
0000
,
3001
0100
0010
0100
0001
0010
0100
0000
,
1000
0010
0100
0010
1000
0100
0010
0000
,
0001
0100
0010
0100
0001
0010
0100
0010
,
0001
0100
1000
0100
0001
0000
0000
0000
,
1000
0100
0010
0100
1000
0010
0100
0000
,
0001
0010
0100
0010
0001
0100
0010
0000
,
1000
0100
0010
0100
1000
0010
0100
0010
,
1000
0100
0001
0100
1000
0000
0000
0000
,
0001
0100
1000
0100
0001
1000
0100
0000
,
1000
0010
0001
0010
1000
0001
0010
0000
,
0001
0001
1000
1000
0010
0100
0010
0000
,
1000
0100
0001
0100
1000
0000
0000
0000
,
0001
0100
1000
0100
0001
1000
0100
0000
,
1000
1000
0001
0001
0100
0010
0100
0000
,
0001
0010
0001
0100
0001
1000
0100
1000
,
0001
0100
1000
0100
0001
1000
0100
0000
,
1000
0010
0001
0010
1000
0100
0010
0000
,
0001
0100
1000
0100
0001
0010
0100
0000
,
1000
1000
0001
0001
1000
0100
0001
0000
,
0001
0100
1000
0001
0100
0000
0000
0000
,
0001
0010
1000
0010
0001
0100
0010
0000
,
1000
1000
0001
0001
0010
0100
1000
0000
,
0001
0100
0001
0010
0001
0100
0010
1000
,
0001
0010
1000
0010
0001
0100
0010
0000
,
1000
0100
1000
0010
1000
0100
0010
0001
,
1000
0010
0001
0010
1000
0100
0010
0000
,
0001
0100
0001
0010
0001
0100
0010
1000
,
0001
0010
1000
0010
0001
0100
0010
0000
,
1000
1000
0001
0001
1000
0100
0010
0001
,
1000
0010
0001
0010
1000
0100
0010
0001
,
2002
0000
3003
0000
,
0000
0000
0000
0000
,
2000
0000
0000
3000
;

//--------------- dance-single - Extraordiberry ----------------
#NOTEDATA:;
#STEPSTYPE:dance-single;
#DESCRIPTION:Extraordiberry;
#DIFFICULTY:Hard;
#METER:15;
#RADARVALUES:0,0,0,0,0;
#CREDIT:Extraordiberry;
#NOTES:
0000
0000
0000
0000
,
0000
0000
0000
0000
,
0000
0000
0000
0000
,
0000
0000
0000
0000
,
0000
0000
0000
0000
,
0000
0000
0000
0000
,
0000
0000
0000
0000
,
0000
0000
0000
0000
,
0002
0000
0000
0000
,
0000
0000
0000
0000
,
1003
0010
0100
1000
0100
0010
1000
0000
,
0001
0010
0100
0001
0100
0010
0001
0000
,
1000
0010
0100
1000
0100
0010
1000
0001
,
0010
1000
0010
0001
1001
0000
0000
0000
,
0001
0100
0010
0001
0010
0100
0001
0000
,
1000
0100
0010
1000
0010
0100
1000
0000
,
0001
0100
0010
0001
0010
0100
0001
1000
,
0100
0001
0100
1000
1001
0000
0000
0000
,
1000
0000
0001
0010
0100
0000
0010
0000
0001
0000
0100
0000
0010
0000
0100
0000
,
0001
0010
0100
0000
0010
0000
0001
0000
0100
0000
0000
0000
0001
0000
1000
0100
,
0010
0000
0100
0000
1000
0000
0010
0000
0100
0000
0000
0000
0001
0000
1000
0100
,
0010
0100
1000
0010
0100
0000
1001
0000
,
0001
0000
0100
0010
1000
0000
0001
0010
0100
0000
0000
0000
0010
0001
1000
0000
,
0010
0000
0100
0010
1000
0000
0001
0010
0100
0000
1000
0100
0010
0000
0000
0000
,
0001
1000
0100
0000
1000
0001
0100
0000
0010
1000
0001
0010
0100
0000
0000
0000
,
1000
0010
0000
0100
0010
1000
0001
0010
0100
0000
0000
0000
0000
0000
0000
0000
,
2000
0001
3010
1000
0002
1000
0013
0001
,
1000
0010
0001
0010
2000
0001
3010
1000
,
0001
0000
0010
0000
0100
0010
0001
0000
0100
0000
0010
0000
1000
0001
1000
0000
,
0001
0000
0010
0000
0100
0010
0001
0000
0100
0000
0010
0000
1001
0000
0000
0000
,
1000
0000
0001
0100
0010
1000
0001
0010
0100
0000
0000
0000
0010
0100
1000
0000
,
0001
0000
1000
0010
0100
0001
1000
0100
0010
0000
0000
0000
0100
0010
0001
0000
,
2000
0000
0010
0000
3001
1000
0000
0100
0010
0000
0000
0000
0001
0100
0010
0000
,
1000
0100
0010
0100
1000
0010
0100
0001
0010
0000
0000
0000
0000
0000
0000
0000
,
0002
0000
0010
0000
1000
0000
0100
0100
,
0000
1000
0000
0010
0000
1000
1003
0000
,
2000
0000
0010
0000
0001
0000
0100
0100
,
0000
0001
0000
0010
0000
0001
3001
0000
,
1000
0000
0100
0000
0001
0000
0100
1000
,
0000
0010
0000
0001
0000
0010
1000
0100
,
2000
0000
0000
0000
,
0000
0000
0000
0000
,
3001
0010
0100
0001
0100
0010
0001
0000
,
1000
0010
0100
1000
0100
0010
1000
0000
,
0001
0010
0100
0001
0100
0010
0001
1000
,
0010
0001
0010
1000
1001
0000
0000
0000
,
1000
0100
0010
1000
0010
0100
1000
0000
,
0001
0100
0010
0001
0010
0100
0001
0000
,
1000
0100
0010
1000
0010
0100
1000
0001
,
0100
1000
0100
0001
1001
0000
0000
0000
,
1000
0000
0001
0100
0010
0000
0100
0000
0001
0000
0010
0000
0100
0000
0000
0000
,
1000
0000
0001
0100
0010
0000
0100
0000
0001
0000
0010
0000
0100
0000
0000
0000
,
1000
0100
0010
0000
0001
0100
0010
0000
1000
0000
0100
0000
0010
0000
0000
0000
,
0001
0000
0100
0010
1000
0000
0100
0000
0010
0000
0000
0000
0000
0000
0000
0000
,
0001
0000
1000
0100
0010
0000
0100
0000
1000
0000
0010
0000
0100
0000
0000
0000
,
0001
0100
0010
0000
1000
0100
0010
0000
0001
0000
0100
0000
0010
0000
0000
0000
,
2000
0010
3002
0010
1003
0010
0100
0010
,
1000
0000
0100
0010
0001
0010
0100
0000
1000
0000
0010
0000
0100
0000
0000
0000
,
0001
0000
0100
0010
1000
0000
0100
0000
0001
0000
0100
0000
1000
0000
0000
0000
,
0001
0000
0100
0010
1000
0000
0100
0000
0001
0000
0100
0000
1000
0000
0000
0000
,
0001
0010
0100
0000
1000
0010
0100
0000
0001
0000
0010
0000
0100
0000
0000
0000
,
1000
0000
0010
0100
0001
0000
0010
0000
0100
0000
0000
0000
0000
0000
0000
0000
,
1000
0000
0100
0010
0001
0000
0100
0000
1000
0000
0100
0000
0001
0000
0000
0000
,
1000
0000
0100
0010
0001
0000
0100
0000
1000
0000
0100
0000
0001
0000
0000
0000
,
2000
0010
3002
0010
1003
0010
0001
0010
,
1000
0000
0100
0010
0001
0010
0100
0000
1000
0000
0010
0000
0100
0000
0000
0000
,
0002
0010
2003
0010
3001
0010
1000
0010
,
0001
0000
0100
0010
1000
0010
0100
0000
0001
0000
0010
0000
0100
0000
0000
0000
,
2000
0010
3002
0010
1003
0010
0001
0010
,
1000
0000
0100
0010
0001
0010
0100
0000
1000
0000
0010
0000
0100
0000
0000
0000
,
0001
0010
0100
0000
1000
0010
0100
0000
0001
0000
0010
0000
1000
0000
0010
0000
,
0001
1000
0001
1000
0010
0100
0010
0100
0001
1000
0100
0010
0001
0000
1000
0000
,
2002
0000
3003
0000
,
0000
0000
0000
0000
0000
1000
0100
0010
,
0002
0000
0000
0003
;

//--------------- dance-double - Extraordiberry ----------------
#NOTEDATA:;
#STEPSTYPE:dance-double;
#DESCRIPTION:Extraordiberry;
#DIFFICULTY:Easy;
#METER:7;
#RADARVALUES:0,0,0,0,0;
#CREDIT:Extraordiberry;
#NOTES:
00000000
00000000
00000000
00000000
,
00000000
00000000
00000000
00000000
,
00000000
00000000
00000000
00000000
,
00000000
00000000
00000000
00000000
,
00000000
00000000
00000000
00000000
,
00000000
00000000
00000000
00000000
,
00000000
00000000
00000000
00000000
,
00000000
00000000
00000000
00000000
,
00020000
00000000
00000000
00000000
,
00000000
00000000
00000000
00030000
,
00001000
01000000
00010000
00000000
,
10000000
00010000
00100000
00000000
,
00001000
00010000
00000100
00001000
,
00000010
00000010
00010000
00000000
,
00010000
00000100
00001000
00000000
,
00000001
00001000
00000010
00000000
,
00010000
00001000
01000000
00010000
,
00100000
00100000
00001000
00000000
,
00010000
00001000
01000000
00001000
,
00010000
00010000
00001000
00000000
,
00010000
00000100
00001000
00000000
,
00000001
00000100
00000010
00000000
,
00010000
00001000
01000000
00000000
,
00010000
10000000
01000000
00100000
,
00001000
00010000
00000100
00000000
,
00001000
00000010
00010000
00000000
,
00001000
00001000
01000000
01000000
,
00010000
00010000
10000000
01000000
,
10000000
00010000
00100000
00000000
,
00001000
00010000
00000100
00000000
,
00001000
00000010
00000100
00000000
,
00000010
00010000
00001000
00000000
,
01000000
00010000
10000000
01000000
,
00010000
00001000
00010000
00000000
,
00002000
00000000
00000000
00000000
,
00000000
00000000
00000000
00003000
,
00020000
00000000
00000000
00000000
,
00000000
00000000
00000000
00030000
,
00001000
00000000
00010000
00000000
,
00001000
00000000
00010000
00000000
,
00002000
00000000
00000000
00000000
,
00000000
00000000
00000000
00000000
,
00013000
00000100
00001000
00000000
,
00000001
00001000
00000010
00000000
,
00010000
00001000
01000000
00010000
,
00100000
00100000
00001000
00000000
,
00001000
01000000
00010000
00000000
,
10000000
00010000
00100000
00000000
,
00001000
00010000
00000100
00001000
,
00000010
00000010
00010000
00000000
,
00001000
01000000
00010000
00000000
,
10000000
01000000
00100000
00000000
,
00001000
00010000
00000100
00010000
,
00001000
00001000
00010000
00000000
,
00010000
00000100
00001000
00000000
,
00000001
00000100
00000010
00000000
,
00010000
00010000
00001000
01000000
,
00001000
00010000
00001000
00000000
,
00001000
01000000
00010000
00000000
,
10000000
01000000
00100000
00000000
,
00010000
00100000
00001000
00010000
,
00000100
00010000
00001000
00000000
,
00010000
00000100
00001000
00000000
,
00000001
00000100
00000010
00000000
,
00001000
00001000
00000010
00010000
,
00001000
01000000
00001000
00000000
,
00010000
00010000
00100000
00001000
,
00010000
00000100
00010000
00000000
,
00001000
00001000
00000010
00010000
,
00001000
01000000
00001000
00000000
,
00010000
00001000
00100000
00010000
,
10000000
01000000
00010000
00001000
,
00022000
00000000
00033000
00000000
,
00000000
00000000
00000000
00000000
,
00002000
00000000
00000000
00003000
;

//--------------- dance-double - Extraordiberry ----------------
#NOTEDATA:;
#STEPSTYPE:dance-double;
#DESCRIPTION:Extraordiberry;
#DIFFICULTY:Medium;
#METER:13;
#RADARVALUES:0,0,0,0,0;
#CREDIT:Extraordiberry;
#NOTES:
00000000
00000000
00000000
00000000
,
00000000
00000000
00000000
00000000
,
00000000
00000000
00000000
00000000
,
00000000
00000000
00000000
00000000
,
00000000
00000000
00000000
00000000
,
00000000
00000000
00000000
00000000
,
00000000
00000000
00000000
00000000
,
00000000
00000000
00000000
00000000
,
00020000
00000000
00000000
00000000
,
00000000
00000000
00000000
00000000
,
00031000
00010000
00000100
00001000
00000001
00000100
00001000
00000000
,
00010000
00001000
01000000
00010000
10000000
01000000
00010000
00000000
,
00001000
00010000
00000100
00001000
00000001
00000100
00001000
00010000
,
00001000
00000100
00000001
00000100
00001000
00000000
00000000
00000000
,
00010000
00001000
01000000
00010000
10000000
01000000
00010000
00000000
,
00001000
00010000
00000100
00001000
00000001
00000100
00001000
00000000
,
00010000
00001000
01000000
00010000
10000000
01000000
00010000
00001000
,
00010000
01000000
10000000
01000000
00010000
00000000
00000000
00000000
,
00001000
01000000
00010000
10000000
01000000
00010000
00001000
01000000
,
00010000
10000000
01000000
00010000
00001000
00000000
00010000
00001000
,
01000000
00010000
10000000
01000000
00010000
00000000
00001000
01000000
,
00010000
10000000
01000000
00010000
00001000
00000000
00011000
00000000
,
00010000
00000100
00001000
00000001
00000100
00000000
00001000
00001000
,
00010000
00000100
00001000
00000001
00000100
00001000
00010000
00000000
,
00001000
00010000
00000100
00000010
00000001
00000100
00001000
00000000
,
00000100
00000001
00000100
00001000
00010000
00000000
00000000
00000000
,
00001000
00100000
00001000
01000000
00010000
01000000
00100000
10000000
,
01000000
00010000
01000000
00100000
00001000
00010000
00100000
10000000
,
00010000
10000000
01000000
00010000
00001000
00000000
00010000
00001000
,
00000100
00000001
00000010
00001000
00010000
00000000
00011000
00000000
,
00001000
00010000
00100000
10000000
00010000
00000000
10000000
01000000
,
00010000
00001000
00000010
00000001
00001000
00000000
00000001
00000100
,
00001000
00010000
00001000
00100000
00001000
00000000
00010000
00100000
,
10000000
00000000
01000000
00000000
00010000
00001000
00010000
00000000
00011000
00000000
00000000
00000000
00000000
00000000
00000000
00000000
,
00002000
00000000
00010000
00000000
,
01000000
00000000
00013000
00000000
,
00020000
00000000
00001000
00000000
,
00000100
00000000
00031000
00000000
,
00001000
00000000
01000000
00000000
,
00010000
00000000
10000000
01000000
,
00020000
00000000
00000000
00000000
,
00000000
00000000
00000000
00000000
,
00031000
00010000
00000100
00001000
00000001
00000100
00001000
00000000
,
00010000
00001000
01000000
00010000
10000000
01000000
00010000
00000000
,
00001000
00010000
00000100
00001000
00000001
00000100
00001000
00010000
,
00001000
00000100
00000001
00000100
00001000
00000000
00000000
00000000
,
00010000
00001000
01000000
00010000
10000000
01000000
00010000
00000000
,
00001000
00010000
00000100
00001000
00000001
00000100
00001000
00000000
,
00010000
00001000
01000000
00010000
10000000
01000000
00010000
00001000
,
00010000
01000000
10000000
01000000
00010000
00000000
00000000
00000000
,
00001000
01000000
00010000
10000000
01000000
00010000
00001000
00000000
,
00010000
00000010
00001000
00000001
00000010
00001000
00010000
00000000
,
00001000
00001000
01000000
01000000
00010000
10000000
01000000
00000000
,
00010000
01000000
10000000
01000000
00010000
00000000
00000000
00000000
,
00010000
00000100
00001000
00000001
00000100
00001000
00010000
00000000
,
00001000
00100000
00010000
10000000
00100000
00010000
00001000
00000000
,
00010000
00000100
00001000
00000100
00010000
00001000
00000100
00000001
,
00001000
00000001
00000010
00000001
00000100
00001000
00010000
00000000
,
00001000
01000000
00010000
10000000
01000000
00010000
00001000
00000000
,
00010000
00000010
00001000
00000001
00000010
00001000
00010000
00000000
,
00001000
00001000
01000000
01000000
00010000
10000000
01000000
00000000
,
00010000
01000000
10000000
01000000
00010000
00000000
00000000
00000000
,
00010000
00000010
00001000
00000001
00000010
00001000
00010000
00000000
,
00001000
00001000
01000000
01000000
00010000
10000000
01000000
00000000
,
00010000
00000010
00001000
00000010
00010000
00001000
00000010
00000001
,
00001000
00000001
00000100
00000001
00000010
00001000
00010000
00000000
,
00001000
00100000
00010000
00100000
00001000
00010000
00100000
10000000
,
00010000
10000000
01000000
10000000
00100000
00010000
00001000
00000000
,
00010000
00000010
00001000
00000010
00010000
00001000
00000010
00000001
,
00001000
00000001
00000100
00000001
00000010
00001000
00010000
00000000
,
00001000
00010000
00100000
10000000
00100000
00010000
00001000
00010000
,
01000000
10000000
01000000
00010000
00001000
00000010
00000001
00001000
,
00002002
00000000
00003003
00000000
,
00000000
00000000
00000000
00000000
,
00022000
00000000
00000000
00033000
;

//--------------- dance-double - Extraordiberry ----------------
#NOTEDATA:;
#STEPSTYPE:dance-double;
#DESCRIPTION:Extraordiberry;
#DIFFICULTY:Hard;
#METER:15;
#RADARVALUES:0,0,0,0,0;
#CREDIT:Extraordiberry;
#NOTES:
00000000
00000000
00000000
00000000
,
00000000
00000000
00000000
00000000
,
00000000
00000000
00000000
00000000
,
00000000
00000000
00000000
00000000
,
00000000
00000000
00000000
00000000
,
00000000
00000000
00000000
00000000
,
00000000
00000000
00000000
00000000
,
00000000
00000000
00000000
00000000
,
00020000
00000000
00000000
00000000
,
00000000
00000000
00000000
00000000
,
00031000
00010000
00100000
10000000
00100000
00010000
00001000
00000000
,
00010000
00001000
00000010
00000001
00000010
00001000
00010000
00000000
,
00001000
00010000
00100000
10000000
00100000
00010000
00001000
00010000
,
01000000
10000000
01000000
00010000
00011000
00000000
00000000
00000000
,
00010000
00001000
00000100
00000001
00000100
00001000
00010000
00000000
,
00001000
00010000
01000000
10000000
01000000
00010000
00001000
00000000
,
00010000
00001000
00000100
00000001
00000100
00001000
00010000
00001000
,
00000010
00000001
00000010
00001000
00011000
00000000
00000000
00000000
,
00010000
00000000
00001000
01000000
00010000
00000000
10000000
00000000
01000000
00000000
00010000
00000000
00001000
00000000
01000000
00000000
,
00001000
01000000
00010000
00000000
10000000
00000000
01000000
00000000
00010000
00000000
00000000
00000000
00001000
00000000
00010000
00000010
,
00001000
00000000
00000001
00000000
00000010
00000000
00001000
00000000
00010000
00000000
00000000
00000000
00001000
00000000
00010000
00000010
,
00001000
00000001
00000010
00001000
00010000
00000000
00011000
00000000
,
00010000
00000000
00100000
01000000
00100000
00000000
10000000
00000000
01000000
00000000
00000000
00000000
00010000
00000000
00001000
00000000
,
00010000
00000000
00100000
01000000
00100000
00000000
10000000
00000000
01000000
00000000
00010000
00000000
00001000
00000000
00000000
00000000
,
00010000
00000100
00001000
00000000
00000100
00010000
00001000
00000000
00000010
00000000
00000001
00000000
00000100
00000000
00000000
00000000
,
00001000
00010000
00000100
00000000
00000010
00000000
00000001
00000000
00000100
00000000
00000000
00000000
00000000
00000000
00000000
00000000
,
00001000
00010000
00000010
00010000
00001000
00000010
00000001
00000010
,
00001000
00010000
00000100
00000000
00010000
00000100
00001000
00000000
00000001
00000000
00000100
00000000
00001000
00000000
00010000
00000000
,
01000000
00000000
10000000
00000000
00100000
01000000
00100000
00000000
00010000
00000000
00001000
00000000
00010000
00001000
00010000
00000000
,
01000000
00000000
10000000
00000000
00100000
01000000
00100000
00000000
00010000
00000000
00001000
00000000
00011000
00000000
00000000
00000000
,
00010000
00000000
00001000
00000010
00000100
00000000
00001000
00000010
00000100
00000000
00000000
00000000
00001000
00000000
01000000
00000000
,
00001000
00000000
00010000
00100000
01000000
00000000
00010000
00100000
01000000
00000000
00000000
00000000
00010000
00000000
00001000
00000000
,
00100000
00000000
00001000
00000000
00010000
00000000
00100000
00000000
00010000
00000000
00000000
00000000
00001000
00010000
00001000
00000000
,
00010000
00000000
00001000
00000010
00000100
00000010
00000001
00001000
00000010
00000000
00000000
00000000
00000000
00000000
00000000
00000000
,
00002000
00000000
00000100
00000000
00000001
00000000
00000100
00000100
,
00000000
00000001
00000000
00000010
00000000
00010000
00013000
00000000
,
00020000
00000000
01000000
00000000
10000000
00000000
01000000
01000000
,
00000000
10000000
00000000
00100000
00000000
00001000
00031000
00000000
,
00001000
00000000
00000100
00000000
00000010
00000000
00000001
00000100
,
00000000
00000010
00000000
00001000
00000000
00001000
00000100
00010000
,
00002000
00000000
00000000
00000000
,
00000000
00000000
00000000
00000000
,
00013000
00001000
00000010
00000001
00000010
00001000
00010000
00000000
,
00001000
00010000
00100000
10000000
00100000
00010000
00001000
00000000
,
00010000
00001000
00000010
00000001
00000010
00001000
00010000
00001000
,
00000100
00000001
00000100
00001000
00011000
00000000
00000000
00000000
,
00001000
00010000
01000000
10000000
01000000
00010000
00001000
00000000
,
00010000
00001000
00000100
00000001
00000100
00001000
00010000
00000000
,
00001000
00010000
01000000
10000000
01000000
00010000
00001000
00010000
,
00100000
10000000
00100000
00010000
00011000
00000000
00000000
00000000
,
00001000
00000000
00010000
00000100
00001000
00000000
00000001
00000000
00000100
00000000
00001000
00000000
00010000
00000000
00000000
00000000
,
00001000
00000000
00010000
00000100
00001000
00000000
00000001
00000000
00000100
00000000
00001000
00000000
00010000
00000000
00000000
00000000
,
00001000
01000000
00010000
00000000
10000000
01000000
00100000
00000000
00010000
00000000
10000000
00000000
00100000
00000000
00000000
00000000
,
00010000
00000000
00001000
00100000
00010000
00000000
10000000
00000000
00100000
00000000
00000000
00000000
00000000
00000000
00000000
00000000
,
00010000
00000000
00001000
01000000
00010000
00000000
10000000
00000000
01000000
00000000
00010000
00000000
00001000
00000000
00000000
00000000
,
00010000
00001000
01000000
00000000
00100000
01000000
00010000
00000000
10000000
00000000
01000000
00000000
00010000
00000000
00000000
00000000
,
00001000
00010000
00001000
00000000
00000100
00000010
00000100
00000000
00000001
00000000
00000010
00000000
00001000
00000000
00010000
00001000
,
01000000
00000000
00100000
01000000
00010000
00000000
10000000
00000000
01000000
00000000
00010000
00000000
00001000
00000000
00000000
00000000
,
00010000
00000000
00001000
00000010
00000100
00000000
00000010
00000000
00000001
00000000
00000100
00000000
00001000
00000000
00000000
00000000
,
00010000
00000000
00001000
00000010
00000100
00000000
00000010
00000000
00000001
00000000
00000100
00000000
00001000
00000000
00000000
00000000
,
00010000
00001000
00100000
00000000
01000000
00100000
00010000
00000000
10000000
00000000
00100000
00000000
00010000
00000000
00000000
00000000
,
00001000
00000000
00100000
01000000
10000000
00000000
00100000
00000000
00010000
00000000
00000000
00000000
00000000
00000000
00000000
00000000
,
00001000
00000000
00010000
00100000
01000000
00000000
00100000
00000000
10000000
00000000
01000000
00000000
00010000
00000000
00000000
00000000
,
00001000
00010000
00000010
00000000
00001000
00000010
00000100
00000000
00000001
00000000
00000010
00000000
00001000
00000000
00000000
00000000
,
00010000
00001000
00010000
00000000
00100000
01000000
00100000
00000000
10000000
00000000
01000000
00000000
00010000
00000000
00001000
00010000
,
00000010
00000000
00000100
00000010
00001000
00000000
00000001
00000000
00000010
00000000
00001000
00000000
00010000
00000000
00000000
00000000
,
00001000
00010000
00001000
00000000
00000010
00000100
00000010
00000000
00000001
00000000
00000100
00000000
00001000
00000000
00010000
00001000
,
00100000
00000000
01000000
00100000
00010000
00000000
10000000
00000000
00100000
00000000
00010000
00000000
00001000
00000000
00000000
00000000
,
00010000
00001000
00010000
00000000
00100000
01000000
00100000
00000000
10000000
00000000
01000000
00000000
00010000
00000000
00001000
00010000
,
00000010
00000000
00000100
00000010
00001000
00000000
00000001
00000000
00000010
00000000
00001000
00000000
00010000
00000000
00000000
00000000
,
00001000
00000010
00000100
00000000
00001000
00000010
00000100
00000000
00000001
00000000
00000100
00000000
00001000
00000000
00010000
00001000
,
00010000
00000000
00100000
01000000
00100000
00000000
10000000
00000000
01000000
00000000
00010000
00000000
00001000
00000000
00000010
00000000
,
00000022
00000000
00000033
00000000
,
00000000
00000000
00000000
00000000
00000000
00000001
00000100
00000010
,
00020000
00000000
00000000
00030000
;
