#TITLE:DROPS (feat. Such);
#SUBTITLE:;
#ARTIST:Zekk, poplavor;
#TITLETRANSLIT:;
#SUBTITLETRANSLIT:;
#ARTISTTRANSLIT:;
#GENRE:J-MUSIC;
#CREDIT:MUINELIM;
#BANNER:DROPS (feat. Such).png;
#BACKGROUND:DROPS (feat. Such)-bg.png;
#LYRICSPATH:;
#CDTITLE:;
#MUSIC:DROPS (feat. Such).ogg;
#OFFSET:-0.062000;
#SAMPLESTART:66.320000;
#SAMPLELENGTH:15.500000;
#SELECTABLE:YES;
#DISPLAYBPM:120.000000;
#BPMS:0.000000=120.000000
;
#STOPS:
;
#BGCHANGES:;
#KEYSOUNDS:;
#ATTACKS:;

//---------------dance-single - ----------------
#NOTES:
     dance-single:
     :
     Beginner:
     3:
     0.111746,0.148622,0.000000,0.000000,0.000000,90.000000,90.000000,0.000000,0.000000,0.000000,0.000000,0.111746,0.148622,0.000000,0.000000,0.000000,90.000000,90.000000,0.000000,0.000000,0.000000,0.000000:
// measure 0
0000
0000
0000
0000
,  // measure 1
0000
0000
0000
0000
,  // measure 2
0000
0000
0000
0000
,  // measure 3
0000
0000
0000
0000
,  // measure 4
0000
0000
0000
0000
,  // measure 5
0000
0000
1000
0000
,  // measure 6
1000
0000
0001
0000
,  // measure 7
0001
0000
1000
0000
,  // measure 8
0001
0000
1000
1000
,  // measure 9
1000
0000
0010
0000
,  // measure 10
0000
0000
0100
0000
,  // measure 11
0000
0000
0010
0000
,  // measure 12
0000
0000
0100
0000
,  // measure 13
0000
0000
0001
0000
,  // measure 14
0000
0000
1000
0000
,  // measure 15
0000
0000
0001
0000
,  // measure 16
0000
0000
1000
0000
,  // measure 17
0000
0000
0001
0000
,  // measure 18
0001
0000
0100
0000
,  // measure 19
0100
0000
0010
0000
,  // measure 20
0010
0000
1000
0000
,  // measure 21
1000
0000
0001
0000
,  // measure 22
0001
0000
0010
0000
,  // measure 23
0010
0000
0100
0000
,  // measure 24
0100
0000
1000
0000
,  // measure 25
0000
0000
1000
0000
,  // measure 26
0000
0000
0010
0000
,  // measure 27
0000
0000
0100
0000
,  // measure 28
0000
0000
0001
0000
,  // measure 29
0000
0000
1000
0000
,  // measure 30
0100
0000
0010
0000
,  // measure 31
0001
0000
0100
0000
,  // measure 32
0100
0100
0100
0000
,  // measure 33
0000
0000
0001
0000
,  // measure 34
1000
0000
0001
0000
,  // measure 35
1000
0000
0100
0000
,  // measure 36
0010
0000
0100
0000
,  // measure 37
0010
0000
0001
0000
,  // measure 38
0100
0000
0001
0000
,  // measure 39
0100
0000
0010
0000
,  // measure 40
1000
0000
0010
0000
,  // measure 41
1000
0000
0100
0000
,  // measure 42
0010
0000
0001
0000
,  // measure 43
1000
0000
0100
0000
,  // measure 44
0010
0000
0001
0000
,  // measure 45
0100
0000
0010
0000
,  // measure 46
1000
0000
0001
0000
,  // measure 47
0100
0000
0010
0000
,  // measure 48
1000
0000
0001
0001
,  // measure 49
0001
0000
0100
0000
,  // measure 50
0000
0000
0010
0000
,  // measure 51
0000
0000
1000
0000
,  // measure 52
0000
0000
0001
0000
,  // measure 53
0000
0000
0010
0000
,  // measure 54
0100
0000
1000
0000
,  // measure 55
0001
0000
0010
0000
,  // measure 56
0100
0000
0010
0010
,  // measure 57
0010
0000
0000
0000
;

//---------------dance-single - ----------------
#NOTES:
     dance-single:
     :
     Challenge:
     13:
     0.526447,0.544947,0.434567,0.347654,0.382419,424.000000,374.000000,50.000000,40.000000,0.000000,0.000000,0.526447,0.544947,0.434567,0.347654,0.382419,424.000000,374.000000,50.000000,40.000000,0.000000,0.000000:
// measure 0
0000
0000
0000
0000
,  // measure 1
0000
0000
0000
0000
,  // measure 2
0000
0000
0000
0000
,  // measure 3
0000
0000
0000
0000
,  // measure 4
0000
0000
0000
0000
,  // measure 5
0000
0000
0000
0000
1001
0000
0001
1000
,  // measure 6
0001
0100
0000
0010
0000
1000
0000
0010
0000
0000
1000
0100
0000
0010
0000
0001
,  // measure 7
0000
0000
0010
0000
0100
0010
0100
0000
2000
0000
0000
0000
3002
0000
0000
0000
,  // measure 8
1003
0100
0000
0010
0000
0001
0200
0000
0000
0000
0010
0000
0010
0000
0010
0000
,  // measure 9
0310
0000
0010
1000
0002
0000
0000
0000
0203
0000
0000
0000
0310
0000
1000
0000
,  // measure 10
0100
0000
0000
0000
0011
0000
0000
0000
0101
0000
0000
0110
0000
0000
2020
0000
,  // measure 11
0030
0000
0000
0000
3001
0000
0010
0000
0100
0000
0000
0000
1100
0000
1000
0010
,  // measure 12
0000
0100
0001
1000
0100
0010
0001
0200
,  // measure 13
0000
0000
0000
0000
0310
1000
0010
0000
2000
0000
0000
0000
3100
0000
0010
0000
,  // measure 14
0001
0000
0000
0000
0101
0000
0000
0000
0110
0000
0000
1010
0000
0000
0101
0000
,  // measure 15
0000
0000
0001
0000
1000
0000
0100
0000
0010
0000
0001
0000
0100
0000
0010
1000
,  // measure 16
0000
0000
0001
0000
0010
0000
0100
0000
1100
0000
0000
1010
0000
0000
0022
0000
,  // measure 17
0000
0000
0030
0000
0000
0000
1003
0000
1100
0000
0100
0000
1000
0000
0100
0010
,  // measure 18
0000
0000
0100
0000
1000
0000
0010
0000
0100
0000
0001
0000
1000
0000
0100
0010
,  // measure 19
0000
0000
0100
0000
1000
0000
0010
0000
0100
0000
0001
0010
0000
0001
0100
0000
,  // measure 20
0010
0000
1000
0100
0000
1000
0010
0000
0110
0000
0001
0000
0101
0000
1000
0000
,  // measure 21
1010
0000
0000
0000
0110
0000
0100
0000
0001
0000
0010
0000
0100
0000
1000
0010
,  // measure 22
0000
0000
0100
0000
0001
0000
1000
0000
0100
0000
0010
0000
0001
0000
0100
0010
,  // measure 23
0000
0000
1000
0000
0001
0000
0010
0000
0100
0000
1000
0010
0000
1000
0100
0000
,  // measure 24
0010
0000
0001
0100
0000
0001
0010
0000
0200
0000
1000
0000
0000
0000
0001
0000
,  // measure 25
0000
0000
1300
0000
1010
0000
0010
0000
0200
0000
0000
0000
0000
0000
0301
0010
,  // measure 26
0001
0000
0100
0000
1000
0000
0100
0000
0002
0000
0000
0000
0013
0000
0100
0010
,  // measure 27
0000
0210
0000
1300
0020
0000
0130
0002
,  // measure 28
0000
0023
0000
2030
0000
0000
0000
3020
,  // measure 29
0000
0000
0031
0000
0100
0000
1000
0000
0100
0000
0001
0000
0010
0000
0100
0010
,  // measure 30
0000
0000
0220
0000
0330
0000
1000
0000
0010
0000
0001
0000
0010
0000
0100
0010
,  // measure 31
0000
0000
1010
1000
0100
0100
0001
0010
,  // measure 32
0010
1000
0100
0010
2002
0000
0000
3003
,  // measure 33
0000
0000
1000
0010
1000
0010
0100
0000
0001
0010
0000
0001
0000
0000
0101
0000
,  // measure 34
1000
0100
0000
1000
0000
0000
1010
0000
0001
0000
0010
0001
0000
0000
0010
0000
,  // measure 35
0100
1000
2002
3003
0001
0010
1000
0010
,  // measure 36
0011
0000
1000
0100
0001
0100
1100
0010
,  // measure 37
0100
0001
0100
0000
0110
0000
0000
0000
1001
0000
0000
1000
0010
0000
0100
0010
,  // measure 38
1000
0000
0000
0001
0100
0000
0010
0100
0001
0000
1000
0001
0000
0000
0010
0000
,  // measure 39
1000
0000
0001
0000
0100
0000
0000
0000
1100
0000
0000
1010
0000
0000
0011
0000
,  // measure 40
0000
0101
0000
0000
1001
0000
0001
0000
0100
0000
0010
0000
1000
0000
0200
0000
,  // measure 41
0000
0000
0310
0100
0010
0000
0001
0000
1000
0000
0000
0010
0110
0000
0100
0001
,  // measure 42
1000
0000
0001
0100
0000
0000
0110
0000
0001
0000
1000
0010
0000
0000
0110
0000
,  // measure 43
0100
0001
2002
3003
1000
0010
0001
0010
,  // measure 44
1010
0000
0001
0100
1000
0100
0101
1000
,  // measure 45
0100
0010
0100
0000
0110
0000
0010
0001
0200
0000
0000
0000
0000
0000
0310
0000
,  // measure 46
1010
0000
0000
0011
0000
0000
1100
0000
0101
0000
0001
0010
0000
0000
0010
1000
,  // measure 47
0000
0000
1000
0200
0000
0000
0000
0000
0320
0000
0000
0000
0032
0000
0000
0000
,  // measure 48
1003
0000
0010
0100
0000
0010
0200
0000
0000
0000
1000
0000
1000
0000
0001
0000
,  // measure 49
0301
0000
0000
0000
0001
1000
0010
0000
0110
0000
1000
0000
0001
0000
0100
0000
,  // measure 50
0010
0100
0000
1000
0000
0100
0010
0000
0000
0000
0100
0001
0000
0010
0000
0001
,  // measure 51
0000
0000
0100
0000
0010
1000
0100
0000
0020
0000
0000
0000
0230
0000
0000
0000
,  // measure 52
1300
0010
0000
0101
0000
0000
0011
0000
0001
1000
0000
0100
0010
0000
0001
0100
,  // measure 53
0000
0000
0010
1000
0010
1000
0100
0010
0002
0000
0000
0000
1003
0000
0010
0000
,  // measure 54
0001
0010
0000
1000
0000
0100
0000
0001
0000
0000
0100
1000
0000
0010
0000
0001
,  // measure 55
0000
0000
0010
0000
0100
0010
0100
0000
0002
0000
0000
0000
2003
0000
0000
0000
,  // measure 56
3010
0001
0000
0010
0100
0000
0120
0000
0000
0000
0001
0000
0001
0000
1000
0000
,  // measure 57
1030
0000
0000
0000
;

//---------------dance-single - ----------------
#NOTES:
     dance-single:
     :
     Hard:
     11:
     0.439534,0.445866,0.286814,0.243358,0.225975,354.000000,321.000000,33.000000,28.000000,0.000000,0.000000,0.439534,0.445866,0.286814,0.243358,0.225975,354.000000,321.000000,33.000000,28.000000,0.000000,0.000000:
// measure 0
0000
0000
0000
0000
,  // measure 1
0000
0000
0000
0000
,  // measure 2
0000
0000
0000
0000
,  // measure 3
0000
0000
0000
0000
,  // measure 4
0000
0000
0000
0000
,  // measure 5
0000
0000
0000
0000
1001
0000
0001
1000
,  // measure 6
0010
0000
0000
0100
0000
0010
0000
0100
0000
0000
0001
1000
0000
0001
0000
0100
,  // measure 7
0000
0010
0100
0010
1010
0000
0101
0000
,  // measure 8
0001
0000
0000
1000
0000
0000
0020
0000
0000
0000
0130
0000
0010
0000
1000
0000
,  // measure 9
1200
0000
0320
0000
0031
0000
0001
0100
,  // measure 10
0010
0000
0000
0000
0100
0000
0000
0000
0010
0000
0000
1000
0000
0000
0200
0000
,  // measure 11
0000
0000
0000
0000
0310
0000
0100
0000
1000
0000
0000
0000
0010
0000
0100
0001
,  // measure 12
0000
0010
0001
0010
0100
1000
0010
0200
,  // measure 13
0000
0000
0301
1000
1001
0000
1000
0100
,  // measure 14
0010
0000
0000
0000
0100
0000
0000
0000
0010
0000
0000
0001
0000
0000
0200
0000
,  // measure 15
0000
0000
0310
0000
1000
0000
0010
0000
0100
0000
0001
0000
0010
0000
0100
0010
,  // measure 16
0000
0000
0100
0000
1000
0000
0001
0000
0010
0000
0000
0100
0000
0000
0220
0000
,  // measure 17
0000
0000
0330
0000
1001
0000
0000
0000
0001
0000
0100
0000
0010
0000
1000
0100
,  // measure 18
0000
0000
1000
0000
0010
0000
0100
0000
0001
0000
0010
0000
0100
0000
1000
0010
,  // measure 19
0000
0000
0210
0000
0000
0000
0301
0000
0010
0000
0000
0001
0000
0000
1000
0000
,  // measure 20
0100
0000
0000
1000
0000
0000
0001
0000
0100
0000
0010
0000
1000
0000
0100
0000
,  // measure 21
0010
0000
0000
0000
1001
0000
0000
0000
1000
0000
0100
0000
0010
0000
0001
0100
,  // measure 22
0000
0000
0001
0000
0010
0000
0100
0000
1000
0000
0001
0000
0100
0000
0010
0100
,  // measure 23
0000
0000
0001
0000
1000
0000
0010
0000
0100
0000
0000
0001
0000
0000
0100
0000
,  // measure 24
0010
0000
0000
1000
0000
0000
0010
0000
0200
0000
0001
0000
0000
0000
1000
0000
,  // measure 25
0000
0001
0301
0000
2001
0000
0000
3010
,  // measure 26
0010
0100
0001
1000
0200
0000
0310
0001
,  // measure 27
0100
0101
0000
0001
2000
0000
3001
0200
,  // measure 28
0000
0320
0000
2030
0000
0000
0000
3100
,  // measure 29
0000
0100
0010
0001
0101
0000
1000
0000
,  // measure 30
1100
0001
0011
1000
,  // measure 31
1010
0000
0001
0000
0010
0100
1000
0001
,  // measure 32
0010
0100
1000
0001
2002
0000
0000
3003
,  // measure 33
0000
0000
1000
0000
0010
0000
0100
0000
0001
0000
0000
0010
0000
0000
0010
0000
,  // measure 34
1000
0000
0000
0010
0000
0000
0010
0000
0001
0000
0100
0010
0000
0000
1000
0000
,  // measure 35
1100
0100
0020
0000
0031
0100
1000
0100
,  // measure 36
0001
0000
1000
0010
0001
0010
1000
0100
,  // measure 37
0020
0000
0000
0000
0230
0000
0000
0000
1300
0000
0000
0010
0000
0000
0010
0000
,  // measure 38
0001
0000
0000
0010
0000
0000
0010
0000
1000
0000
0100
0010
0000
0000
0100
0000
,  // measure 39
1000
0000
0001
0000
0020
0000
0000
0000
0130
0000
0000
1100
0000
0000
0010
0000
,  // measure 40
0000
0011
0000
0000
0100
0000
1000
0000
0010
0000
0100
0000
0001
0000
1001
0000
,  // measure 41
0000
0000
0100
0000
0010
0000
0100
0000
0100
0000
0000
0110
0000
0000
0010
0000
,  // measure 42
1000
0000
0100
0010
0000
0000
0100
0000
1000
0000
0010
0100
0000
0000
0010
0000
,  // measure 43
1000
0100
0012
0000
0103
1000
0100
0001
,  // measure 44
0100
0000
0010
0001
0010
1000
0010
0100
,  // measure 45
0002
0000
0000
0000
1003
0000
1000
0010
2000
0000
0000
0000
0000
0000
3001
0000
,  // measure 46
0010
0000
0000
1000
0000
0000
0010
0000
0001
0000
0100
0010
0000
0000
0010
1000
,  // measure 47
0000
0000
1000
0001
0000
0000
0000
0000
0101
0000
0000
0000
1010
0000
0000
0000
,  // measure 48
1001
0000
0001
0100
0000
0010
2000
0000
0000
0000
0001
0000
0001
0000
0001
0000
,  // measure 49
3001
0000
0110
0000
1001
0000
1000
0010
,  // measure 50
0100
0000
0000
0001
0000
0010
0200
0000
0000
0000
1300
0000
0000
0010
0000
0100
,  // measure 51
0000
0001
1000
0100
0010
0000
0110
0000
,  // measure 52
0001
0100
0000
0010
0000
0000
1000
0000
0001
0000
0010
0000
0100
0000
0001
0000
,  // measure 53
0100
1000
0100
0010
1001
0000
1000
0001
,  // measure 54
1000
0000
0000
0100
0000
0010
0000
0100
0000
0000
1000
0001
0000
1000
0000
0100
,  // measure 55
0000
0010
0100
0010
0011
0000
1100
0000
,  // measure 56
1000
0010
0000
0100
0000
0000
0102
0000
0000
0000
0013
0000
0100
0000
1000
0000
,  // measure 57
1010
0000
0000
0000
;

//---------------dance-single - ----------------
#NOTES:
     dance-single:
     :
     Medium:
     8:
     0.333996,0.371555,0.165136,0.199901,0.073876,269.000000,250.000000,19.000000,23.000000,0.000000,0.000000,0.333996,0.371555,0.165136,0.199901,0.073876,269.000000,250.000000,19.000000,23.000000,0.000000,0.000000:
// measure 0
0000
0000
0000
0000
,  // measure 1
0000
0000
0000
0000
,  // measure 2
0000
0000
0000
0000
,  // measure 3
0000
0000
0000
0000
,  // measure 4
0000
0000
0000
0000
,  // measure 5
0000
0000
1001
1000
,  // measure 6
0001
1000
0010
0100
,  // measure 7
0010
1000
0002
0103
,  // measure 8
2000
0000
3010
0010
0000
0010
0100
0010
,  // measure 9
1000
1001
0001
0100
,  // measure 10
0010
1000
0200
0010
,  // measure 11
0310
0001
0100
0010
,  // measure 12
1000
0000
0001
0000
0010
0000
0100
0010
,  // measure 13
0000
0100
0010
0000
0100
0000
1000
0000
,  // measure 14
0010
0100
0002
1000
,  // measure 15
1003
0100
0010
0001
,  // measure 16
0100
0000
0000
0000
0010
0000
0000
0000
1000
0000
0000
0001
0000
0000
1000
0000
,  // measure 17
0000
0000
1001
0000
0001
0100
0001
0000
,  // measure 18
0010
0000
0100
0000
1000
0010
1000
0000
,  // measure 19
0100
0000
0000
0000
0010
0000
0000
0000
0001
0000
0000
0001
0000
0000
0001
0000
,  // measure 20
1000
0000
0000
1000
0000
0000
1000
0000
0010
0000
0000
0000
0100
0000
0000
0000
,  // measure 21
0220
0330
0010
1000
,  // measure 22
0100
1000
0001
0010
,  // measure 23
0001
0000
0000
0000
0100
0000
0000
0000
0010
0000
0000
0010
0000
0000
0010
0000
,  // measure 24
0100
0000
0000
0100
0000
0000
0100
0000
0002
0000
0000
0000
2003
0000
0000
0000
,  // measure 25
3010
0000
0110
0000
0200
0000
0000
0301
,  // measure 26
0001
0000
0010
0000
0001
0000
0100
0010
,  // measure 27
0100
0000
0000
0010
0020
0000
1030
2000
,  // measure 28
0000
3002
0000
0203
0000
0000
0000
0310
,  // measure 29
0000
0010
1000
0010
0100
0000
0101
0000
,  // measure 30
0001
0011
0100
1100
,  // measure 31
1000
0000
1010
0000
0010
0100
0001
0000
,  // measure 32
0100
0010
1000
0000
2002
0000
0000
0000
,  // measure 33
3003
0000
0000
0000
0001
0000
0010
0000
0100
0000
0000
0100
0000
0000
0100
0000
,  // measure 34
1000
0000
0000
1000
0000
0000
1000
0000
0010
0000
0000
0010
0000
0000
0010
0000
,  // measure 35
0100
0001
0100
0000
0010
1000
0010
1000
,  // measure 36
0001
0000
0010
0001
0010
0001
2000
0000
,  // measure 37
3020
0000
0000
0000
0130
0000
0000
0000
0100
0000
0000
0100
0000
0000
0100
0000
,  // measure 38
0001
0000
0000
0001
0000
0000
0001
0000
0010
0000
0000
0010
0000
0000
0010
0000
,  // measure 39
0100
0000
1000
0000
0001
0000
0000
0000
0010
0000
0000
0001
0000
0000
0100
0000
,  // measure 40
0000
0010
0000
0000
1000
0000
0001
0000
0020
0000
0000
0000
0000
0000
0230
0000
,  // measure 41
0000
1300
0010
0110
,  // measure 42
0100
0000
0000
0001
0000
0000
0100
0000
0010
0000
0000
1000
0000
0000
0010
0000
,  // measure 43
0100
0001
1001
0000
1000
0100
1000
0100
,  // measure 44
0010
0000
0001
0010
0001
0010
0200
0000
,  // measure 45
2300
0000
3001
0001
0200
0000
0000
0310
,  // measure 46
0010
0000
0000
1001
0000
0000
1000
0000
0100
0000
0010
0000
0001
0000
0000
0000
,  // measure 47
0100
0010
1000
0000
0001
0000
0010
0000
,  // measure 48
0100
0000
0000
1100
0000
0000
1002
0000
0000
0000
0103
0000
0010
0000
0100
0000
,  // measure 49
0110
1001
0001
0100
,  // measure 50
1000
0100
0001
0010
,  // measure 51
0001
0100
1000
0100
,  // measure 52
0001
0000
0010
0000
0100
1000
0010
0000
,  // measure 53
0010
0100
0001
0000
1001
0000
1000
0000
,  // measure 54
0010
0001
0010
1000
,  // measure 55
0100
0000
0001
0000
0100
1000
0001
0000
,  // measure 56
0001
0010
0100
0000
0100
1000
0100
0010
,  // measure 57
1001
0000
0000
0000
;

//---------------dance-single - ----------------
#NOTES:
     dance-single:
     :
     Easy:
     5:
     0.196176,0.247703,0.043457,0.086913,0.000000,158.000000,153.000000,5.000000,10.000000,0.000000,0.000000,0.196176,0.247703,0.043457,0.086913,0.000000,158.000000,153.000000,5.000000,10.000000,0.000000,0.000000:
// measure 0
0000
0000
0000
0000
,  // measure 1
0000
0000
0000
0000
,  // measure 2
0000
0000
0000
0000
,  // measure 3
0000
0000
0000
0000
,  // measure 4
0000
0000
0000
0000
,  // measure 5
0000
0000
1000
0001
,  // measure 6
1000
0000
0001
1000
,  // measure 7
0001
0000
0100
0010
,  // measure 8
0100
0000
0020
0000
,  // measure 9
0030
0110
0100
0000
,  // measure 10
0001
0000
0100
0000
,  // measure 11
0001
0000
1000
0000
,  // measure 12
0010
0000
1000
0000
,  // measure 13
0010
0000
1000
0000
,  // measure 14
0100
0000
0010
0000
,  // measure 15
0001
0000
0010
0000
,  // measure 16
0100
0000
1000
0000
,  // measure 17
0000
0001
0001
0010
,  // measure 18
0001
0100
0010
0100
,  // measure 19
0010
0000
1000
0100
,  // measure 20
1000
0010
0100
0010
,  // measure 21
0100
0000
0001
1000
,  // measure 22
0001
0100
0010
1000
,  // measure 23
0001
0000
1000
0001
,  // measure 24
1000
0010
0200
0000
,  // measure 25
0300
0110
0010
0000
,  // measure 26
1000
0000
0010
0000
,  // measure 27
1000
0000
0001
0000
,  // measure 28
0100
0000
0001
0000
,  // measure 29
0100
0000
0010
1000
,  // measure 30
0100
0000
0100
0010
,  // measure 31
0001
0000
1000
0100
,  // measure 32
0010
0001
0200
0000
,  // measure 33
0300
0000
0010
1000
,  // measure 34
0001
0100
0010
1000
,  // measure 35
0001
1001
0100
0100
,  // measure 36
0100
0010
0010
0010
,  // measure 37
0010
0000
1000
0100
,  // measure 38
0010
0001
1000
0100
,  // measure 39
0010
1001
0001
0100
,  // measure 40
0010
1000
0002
0003
,  // measure 41
2000
3000
0000
0110
,  // measure 42
0010
1000
0010
0100
,  // measure 43
0001
0100
0010
1000
,  // measure 44
0100
0010
0001
0100
,  // measure 45
0020
0030
0200
0300
,  // measure 46
0001
1000
0001
0010
,  // measure 47
0100
1000
0020
0030
,  // measure 48
0200
0300
0010
0010
,  // measure 49
0010
0000
1000
0010
,  // measure 50
1000
0000
0001
0100
,  // measure 51
0001
0000
1000
0100
,  // measure 52
1000
0000
0001
0010
,  // measure 53
0001
0000
1000
0100
,  // measure 54
0010
0001
0010
0100
,  // measure 55
1000
0010
0100
0001
,  // measure 56
1000
0100
0020
0000
,  // measure 57
0030
0000
0000
0000
;
