#VERSION:0.83;
#TITLE:DISCO NIGHT;
#SUBTITLE:;
#ARTIST:ANK feat.kumako;
#TITLETRANSLIT:;
#SUBTITLETRANSLIT:;
#ARTISTTRANSLIT:;
#GENRE:;
#CREDIT:;
#MUSIC:DISCO NIGHT.mp3;
#BANNER:BR2024-bn.png;
#BACKGROUND:BR2024-bg.png;
#CDTITLE:;
#SAMPLESTART:17.000;
#SAMPLELENGTH:20.000;
#SELECTABLE:YES;
#OFFSET:-1.101;
#BPMS:0.000=120.000;
#STOPS:;
#SPEEDS:0.000=1.000=0.000=0;
#SCROLLS:0.000=1.000;
#TICKCOUNTS:0.000=4;
#TIMESIGNATURES:0.000=4=4;
#LABELS:0.000=Song Start;
#COMBOS:0.000=1;
#ORIGIN:;
#PREVIEWVID:;
#JACKET:BR2024-jacket.png;
#CDIMAGE:;
#DISCIMAGE:;
#BGCHANGES:;
#FGCHANGES:;

//--------------- dance-single - ----------------
#NOTEDATA:;
#STEPSTYPE:dance-single;
#DESCRIPTION:;
#DIFFICULTY:Beginner;
#METER:1;
#RADARVALUES:0.084221,0.119881,0.041517,0.016607,0,71,66,5,2,0,0,0,0,0,0.084221,0.119881,0.041517,0.016607,0,71,66,5,2,0,0,0,0,0;
#CHARTNAME:;
#CHARTSTYLE:;
#CREDIT:ZSL;
#NOTES:
0000
0000
0000
0000
,
0000
0000
0000
0000
,
0000
0000
0000
0000
,
0000
0000
0000
0000
,
1000
0000
0000
0000
,
0001
0000
0000
0000
,
0010
0000
0000
0000
,
0100
0000
0000
0000
,
1000
0000
0001
0000
,
0100
0000
0000
0000
,
0010
0000
1000
0000
,
0001
0000
0000
0000
,
0010
0000
0100
0000
,
1000
0000
0000
0000
,
0001
0000
0100
0000
,
0010
0000
0000
0000
,
1001
0000
0000
0000
,
1000
0000
0000
0000
,
0010
0000
0000
0000
,
0100
0000
0000
0000
,
0001
0000
0000
0000
,
1000
0000
0000
0000
,
0100
0000
0000
0000
,
0010
0000
0000
0000
,
0110
0000
0000
0000
,
0000
0000
0000
0000
,
1000
0000
0000
0000
,
0010
0000
0000
0000
,
0000
0100
0000
0000
,
0000
0000
0000
0000
,
0001
0000
0000
0000
,
1000
0000
0000
0000
,
1001
0000
0000
0000
,
0001
0000
0000
0000
,
0100
0000
0000
0000
,
0010
0000
0000
0000
,
1000
0000
0001
0000
,
1000
0000
0001
0000
,
0010
0000
0100
0000
,
0010
0000
0000
0000
,
0110
0000
0100
0000
,
1000
0000
0000
0000
,
0100
0000
1000
0000
,
0010
0000
0000
0000
,
0100
0000
0001
0000
,
1000
0000
0000
0000
,
0010
0000
0001
0000
,
0100
0000
0000
0000
,
0010
0000
0010
0000
,
1000
0000
0000
0000
,
0001
0000
0001
0000
,
0010
0000
0000
0000
,
0100
0000
0100
0000
,
1000
0000
0000
0000
,
0001
0000
0001
0000
,
1000
0000
0000
0000
,
2002
0000
0000
0000
,
0000
0000
0000
3003
;

//--------------- dance-single - ----------------
#NOTEDATA:;
#STEPSTYPE:dance-single;
#DESCRIPTION:;
#DIFFICULTY:Easy;
#METER:4;
#RADARVALUES:0.185048,0.215786,0.033214,0.016607,0,156,152,4,2,0,0,0,0,0,0.185048,0.215786,0.033214,0.016607,0,156,152,4,2,0,0,0,0,0;
#CHARTNAME:;
#CHARTSTYLE:;
#CREDIT:ZSL;
#NOTES:
0000
0000
0000
0000
,
0000
0000
0000
0000
,
0000
0000
0000
0000
,
0000
0000
0000
0000
,
1000
0000
0001
0000
,
0010
0000
0100
0000
,
1000
0000
0001
0000
,
0100
0000
0010
0000
,
1000
0001
1000
0010
,
0100
0001
1000
0000
,
0100
0010
0001
0000
,
1000
0010
0100
0000
,
0001
1000
0100
0010
,
0001
1000
0010
0000
,
0100
0001
1000
0000
,
0100
0010
0100
1000
,
0001
0000
0000
1000
0000
0000
0001
0000
,
1000
0010
0100
0001
,
1000
0000
0000
0001
0000
0000
1000
0000
,
0100
0010
0001
1000
,
0010
0000
0000
0100
0000
0000
0010
0000
,
1000
0100
0010
0000
,
0110
0000
1000
0001
,
0100
0000
0000
0000
,
0101
0000
0000
0000
,
0001
0000
0000
0000
,
1001
0000
0000
0000
,
1000
0000
0100
0000
,
0010
0001
0000
0000
,
1000
0000
0000
0010
,
0100
0000
0000
0001
,
1000
0000
0001
0100
,
0010
1000
0001
0000
,
0010
0001
1000
0000
,
0010
0100
0001
0000
,
0010
0100
1000
0000
,
0001
0001
1000
0000
,
1000
1000
0010
0000
,
0100
0001
0010
0100
,
1000
0010
0100
0000
,
0001
1000
0100
1000
,
0100
1000
0001
0000
,
0100
0010
1000
0010
,
1000
0001
0010
0000
,
0100
1000
0100
1000
,
0001
0100
0010
0000
,
0010
1000
0001
0010
,
0001
0010
0100
1000
,
0001
0000
1000
0000
,
0010
0100
0001
1000
,
0100
0000
1000
0000
,
0100
1000
0010
0100
,
0001
0001
1000
0000
,
0001
0100
0010
1000
,
0100
0000
0100
0010
,
0001
0000
1000
0000
,
2002
0000
0000
0000
,
0000
0000
0000
3003
;

//--------------- dance-single - ----------------
#NOTEDATA:;
#STEPSTYPE:dance-single;
#DESCRIPTION:;
#DIFFICULTY:Medium;
#METER:7;
#RADARVALUES:0.291807,0.31169,0.02491,0.016607,0,246,243,3,2,0,0,0,0,0,0.291807,0.31169,0.02491,0.016607,0,246,243,3,2,0,0,0,0,0;
#CHARTNAME:;
#CHARTSTYLE:;
#CREDIT:ZSL;
#NOTES:
0000
0000
0000
0000
,
0000
0000
0000
0000
,
0000
0000
0000
0000
,
0000
0000
0000
0000
,
1000
0001
0100
0010
,
1000
0100
0010
0100
,
1000
0000
0001
0000
0100
0000
0010
1000
,
0000
0001
0000
1000
0000
0001
0000
0000
,
0010
0100
1000
0000
0001
0000
0100
0000
,
0010
0100
0001
0000
1000
0000
0000
0000
,
0001
0100
0010
1000
0001
0000
0000
0010
,
0100
1000
0001
0000
0010
0000
0001
0000
,
0100
0010
1000
0000
0001
0000
0010
0000
,
0100
1000
0100
0010
0001
0000
0000
0100
,
0001
1000
0100
0000
0010
0000
0000
0100
,
1000
0001
0100
0000
0001
0000
0010
0000
,
0100
0000
0010
0001
0000
0001
1000
0010
,
0100
0001
1000
0100
,
0010
0000
0100
1000
0000
1000
0001
0100
,
0010
1000
0001
0010
,
0100
0000
1000
0010
0000
0010
0100
0001
,
1000
0000
0100
0000
0010
0000
0000
0100
,
0010
0001
0000
0010
0100
1000
0001
0100
,
0000
0000
0000
0000
,
0110
0000
0010
0000
0000
1000
0000
0001
,
0000
1000
0000
0000
0000
0001
0000
0010
,
0000
0100
0000
0000
0000
0010
0000
0001
,
0000
1000
0010
0100
,
0001
0000
1000
0000
0000
0100
0000
0010
,
0000
0001
0000
0000
0000
1000
0010
0100
,
0000
0000
0000
0000
0000
0001
1000
0100
,
0010
0001
1000
0010
,
0100
0000
0001
0100
0001
0000
0000
0000
,
1000
0000
0100
1000
0100
0000
0000
0000
,
0010
0000
0001
0010
0001
0000
0000
0000
,
1000
0000
0010
0100
0010
0000
0000
0000
,
0001
1000
0100
0000
0010
0000
0001
0000
,
1000
0001
0100
0000
0010
0000
1000
0000
,
0010
1000
0100
0000
0010
0000
0001
0000
,
0010
0001
0100
0000
0010
0000
0000
0000
,
1000
0001
1000
0010
,
0100
0001
0010
0100
0010
0000
0001
0000
,
0100
0010
1000
0000
0010
0100
0001
0000
,
1000
0100
0010
0001
,
1000
0000
0010
0100
0010
0100
0001
0000
,
1000
0000
0100
0010
0000
0010
0001
0000
,
0100
0000
0010
1000
0001
0000
0010
0000
,
0100
1000
0010
0000
0100
0000
0001
1000
,
0100
0000
1000
0100
0000
0010
0000
0001
,
0100
0110
1000
0001
,
1000
0100
0010
0001
,
1000
0010
0100
0001
0000
0001
1000
0000
,
0100
0010
0001
1000
,
0010
0100
0010
1000
0100
0000
0010
0000
,
0001
0000
1000
0000
0010
0000
0100
0001
,
0000
1000
0000
0001
0000
1000
0001
0000
,
2002
0000
0000
0000
,
0000
0000
0000
3003
;

//--------------- dance-single - ----------------
#NOTEDATA:;
#STEPSTYPE:dance-single;
#DESCRIPTION:;
#DIFFICULTY:Hard;
#METER:11;
#RADARVALUES:0.418731,0.5035,0.107945,0.016607,0.178524,353,340,13,2,0,0,0,0,0,0.418731,0.5035,0.107945,0.016607,0.178524,353,340,13,2,0,0,0,0,0;
#CHARTNAME:;
#CHARTSTYLE:;
#CREDIT:ZSL;
#NOTES:
0000
0000
0000
0000
,
0000
0000
0000
0000
,
0000
0000
0000
0000
,
0000
0000
0000
0000
,
1000
0000
0001
0000
0010
0000
0100
1000
,
0001
0000
0100
0000
0010
1000
0001
0000
,
0010
0000
0100
0000
1000
0001
0100
0010
,
0000
1000
0000
0001
0000
1000
0001
0000
,
1001
0001
0010
0000
0100
0000
1000
0000
,
0001
0000
0100
0000
0010
0000
0001
0000
0010
1000
0000
1000
0001
0000
0000
0000
,
0100
0010
1000
0100
0010
0000
0100
1000
,
0010
0100
0001
0010
1000
0010
0001
0010
,
0100
1000
0001
0000
0100
0000
0010
0000
,
1000
0000
0100
0000
0010
0000
1000
0000
0010
0001
0000
0001
1000
0000
0001
0000
,
0100
0010
0100
0001
1000
0000
0001
0010
,
0100
1000
0010
0100
1000
0100
0010
1000
,
1100
0000
0100
0110
0000
0010
0001
0100
,
0010
0000
0000
1000
0001
0000
0010
0000
0100
1000
0000
1000
0010
0000
0000
0000
,
1000
0000
0001
1001
0000
1000
0010
0100
,
0001
0000
0010
0100
1000
0010
1000
0100
,
0011
0000
1000
0110
0000
0001
1000
0100
,
0001
0000
0000
0100
1000
0000
0010
0000
0100
0001
0000
0001
1000
0000
0100
0000
,
1000
0010
0000
0100
1000
0100
0001
0010
,
0100
0000
0000
0000
,
0110
0000
1000
0000
0000
0001
0000
0100
,
0000
0010
0000
0000
0000
1000
0000
0001
,
0000
0010
0000
0000
0000
0100
0000
1000
,
0000
0010
0100
0001
0010
0000
0100
0000
,
1000
0000
0001
0000
0000
0100
0000
0010
,
0000
1000
0000
0000
0000
0001
0010
0100
,
1000
0000
0000
0000
0000
0001
0100
0010
,
1000
0010
1000
0100
,
1100
0000
0000
1000
0100
0000
1000
0000
0001
0000
0000
0100
0001
0000
1000
0000
,
0100
0000
0000
0010
0001
0000
1000
0000
0010
0100
0000
0100
0001
0000
1000
0000
,
0100
0000
0000
1000
0010
0000
0100
0000
0001
0000
0000
0010
0100
0000
1000
0000
,
0010
0000
0000
0100
0001
0000
0010
0000
0100
0000
1000
0000
0001
1000
0001
0000
,
0010
1000
0010
0001
0100
1000
0100
0001
,
0010
0100
0001
0100
1000
0010
0001
0010
,
0100
0100
0001
0001
0010
0010
1000
1000
,
0010
0100
0010
0100
0010
0100
0010
0100
0010
0000
0000
0000
0000
0000
0000
0000
,
1001
0000
0001
1000
0010
0000
0100
0001
,
0010
0000
0100
0000
1000
0100
0010
0001
0000
1000
0010
0000
0100
0000
0000
0000
,
0001
0000
0100
0001
0100
0000
0010
0000
1000
0000
0100
0000
0010
0000
0001
0000
,
1000
0000
0001
0100
0010
0000
1000
0000
0001
0000
0000
0000
0010
0000
0000
0000
,
1100
0000
0000
0000
1000
0001
0100
0010
0000
0100
0010
1000
0001
0000
0000
0000
,
0010
0000
0001
0000
1000
0000
0010
1000
0000
0100
1000
0000
0001
0000
0000
0000
,
0100
0000
0010
0000
1000
0000
0100
0010
0000
0000
0100
0000
1000
0000
0010
0000
,
1000
0001
0010
0100
1000
0000
0001
0000
0100
0000
0000
0000
0010
0000
1000
0000
,
0001
0000
0010
0100
0000
0100
1000
0001
,
0100
0010
0000
0000
0100
1000
0000
0000
0100
0010
0000
0000
1001
0000
0000
0000
,
0001
0000
1000
0100
0010
0000
0001
0000
,
0100
0000
1000
0000
0100
0000
0010
0000
1000
0001
0000
0000
0011
0000
0000
0000
,
0100
0000
1000
0000
0001
0000
0100
0010
,
1000
0000
0001
0010
0100
0000
1000
0010
0100
0000
0001
0000
1000
0000
0000
0000
,
0010
0000
0100
0000
0001
0010
0100
1000
,
0000
0010
0000
0100
0000
0001
1000
0000
,
2002
0000
0000
0000
,
0000
0000
0000
3003
;
