#TITLE:Crash;
#SUBTITLE:;
#ARTIST:Methods of Mayhem;
#TITLETRANSLIT:;
#SUBTITLETRANSLIT:;
#ARTISTTRANSLIT:;
#GENRE:;
#CREDIT:;
#BANNER:Crash.png;
#BACKGROUND:Crash-bg.png;
#LYRICSPATH:;
#CDTITLE:;
#MUSIC:Crash.ogg;
#OFFSET:-0.286000;
#SAMPLESTART:49.337093;
#SAMPLELENGTH:14.014599;
#SELECTABLE:YES;
#BPMS:0.000000=137.000000
;
#STOPS:36.000000=1.314000,
66.750000=0.438000,
209.500000=0.438000
;
#BGCHANGES:;
#KEYSOUNDS:;
#ATTACKS:;

//---------------dance-single - tech attempt----------------
#NOTES:
     dance-single:
     :
     Edit:
     17:
     0.831938,0.873051,0.457619,0.022143,0.952142,789.000000,727.000000,62.000000,3.000000,25.000000,0.000000,0.831938,0.873051,0.457619,0.022143,0.952142,789.000000,727.000000,62.000000,3.000000,25.000000,0.000000:
0000
0000
0000
0000
,
0000
0000
0000
0000
,
0000
0000
0000
0000
,
0000
0000
0000
0000
,
0000
0000
0000
0000
,
0000
0000
0000
0000
,
1000
0100
0010
0000
0010
0001
0100
0010
,
0000
0100
0000
0010
0100
0001
1000
0000
,
0100
1000
0100
0000
0010
0000
0010
0001
0000
1000
0010
0000
0010
0000
1000
0001
,
0MM0
0000
1100
0001
1100
0001
1100
0001
,
1100
0000
0001
0000
1100
0000
0001
0000
1100
0000
0001
0000
1000
0010
0100
0000
,
0010
0000
0010
1000
0001
0000
0010
0000
0100
0000
0000
0000
0100
0000
1000
0000
,
0010
0100
0000
0010
0000
0100
0010
1000
,
0001
0000
1000
0001
1010
0001
1100
0001
,
0010
0000
0101
0000
0010
0001
1000
0000
0011
0000
1000
0000
0001
1000
0100
0000
,
1010
0000
0001
1000
0001
0000
0100
0000
0010
0000
0000
0000
0010
0000
1000
0000
,
0100
0000
0010
0000
0000
0000
0100
0000
0000
0000
0100
M00M
0000
0000
0000
0000
,
1000
0000
0001
0000
0010
0000
0001
0000
1000
0000
0010
0000
1000
0000
0001
0000
0010
0000
0001
0000
0100
00M0
0100
0000
1000
0000
0010
0000
1000
0000
0100
0000
,
0010
0001
0100
0001
1000
0010
0100
0010
1000
0001
0010
0100
M000
0100
0001
0010
,
0001
0000
1000
0000
0010
0000
1000
0000
0001
0000
0010
0000
0001
0000
1000
0000
0010
0000
1000
0000
0100
00M0
0100
0000
0001
0000
0010
0000
0001
0000
0100
0000
,
0010
1000
0100
1000
0001
0010
0100
0010
0001
1000
0010
0100
000M
0100
1000
0010
,
1100
0001
1100
0001
1100
0001
1100
0001
,
1100
0000
0001
0000
1100
0000
0001
0000
1000
0010
0100
0000
0010
0000
0010
1000
,
0001
0010
0100
0000
0100
1000
0010
0100
,
0000
0010
0000
0100
0010
1000
0100
0100
,
0010
0001
1010
0001
1100
0001
0010
0101
,
0010
0001
1000
0000
0011
0000
1000
0000
0001
1000
0100
0000
1010
0000
0001
1000
,
0001
0010
0001
1000
0010
0100
0001
0010
0100
1000
0010
0100
0010
0100
0010
1000
,
0100
0010
0001
0100
0010
1000
0100
0010
0100
0010
0100
1000
0010
0100
0001
1000
,
0100
0010
0100
1000
0010
0100
0010
1000
0100
0010
0001
1000
0010
0100
0001
0010
,
0100
1000
0100
0010
0001
0100
0010
0100
0001
0010
0100
1000
0001
0010
0100
0010
,
0001
0100
0001
1000
0100
0010
0001
0100
0010
1000
0100
0010
0100
0010
0100
1000
,
0010
0100
0001
0010
0100
1000
0010
0100
0010
0100
0010
1000
0100
0010
0001
1000
,
0010
1000
0001
0010
0100
1000
0010
1000
0100
0010
0001
0100
0001
0010
0100
1000
,
0001
0100
0010
0100
0001
1000
0100
0010
0001
0100
0010
0100
0001
0000
0001
0000
,
2000
0000
0000
0000
3000
0000
0000
0000
1000
0000
1000
0100
0010
0001
0100
0000
,
0011
0000
1000
0000
0101
0000
1000
0000
0010
0100
0001
1000
0101
0000
0000
0000
,
0002
0000
0000
0000
1003
0000
0000
0000
0001
0000
0001
0100
0010
1000
0100
0000
,
0000
0000
0020
0000
0000
0000
0031
0000
0100
0010
1000
0001
1100
0000
0000
0000
,
0011
0000
1000
0000
0101
0000
1000
0000
0011
0000
1000
0100
0010
0001
0100
0000
,
0011
0000
1000
0000
0101
0000
1000
0000
0011
0100
0001
0010
0101
0000
0000
0000
,
1010
0000
0001
0000
1100
0000
0001
0000
1010
0000
0001
0100
0010
1000
0001
0000
,
0010
0001
0010
0000
0010
0000
0100
0000
0100
1000
0000
0100
1000
0000
1000
0000
,
0011
0000
1000
0000
0101
0000
1010
0000
0001
0010
0100
1000
0011
0000
1000
0000
,
0101
0000
1010
0000
0001
0000
1000
0000
0001
0100
0010
1000
0101
0000
0000
0000
,
1010
0000
0001
0000
1100
0000
0011
0000
1000
0100
0010
0001
1010
0000
0001
0000
,
1100
0011
1000
0000
MMMM
0000
MMMM
0000
,
1100
0001
0010
0000
1100
0001
1100
0001
,
1100
0000
0001
0000
1100
0000
0001
0000
1000
0010
0100
0000
0010
0000
0010
1000
,
0001
0010
0100
0000
0100
1000
0010
0100
,
0000
0010
0000
0100
0010
1000
0001
0000
,
1000
0001
1010
0001
1100
0001
0010
0101
,
0010
0001
1000
0000
0011
0000
MMMM
0000
0000
0000
0000
0000
1000
0000
0100
0000
,
1010
0001
0100
1000
0100
0001
1010
0001
,
0100
1000
0100
0001
0010
0100
0000
1000
,
0011
1000
0100
0001
0100
1000
0011
1000
,
0100
0000
0001
0000
0100
0000
1000
0000
0010
0000
0100
0000
0001
0010
0001
1000
,
0010
0100
0001
0010
0100
1000
0010
0100
0010
0100
0010
1000
0100
0010
0001
0100
,
0010
1000
0100
0010
0100
0010
0100
1000
0010
0100
0001
1000
0100
0010
0100
1000
,
0010
0100
0010
1000
0100
0010
0001
1000
0010
0100
0001
0010
0100
1000
0100
0010
,
0001
0100
0010
0100
0001
0010
0100
1000
0001
0010
0100
0010
0001
0100
0001
1000
,
0100
0010
0001
0100
0010
1000
0100
0010
0100
0010
0100
1000
0010
0100
0001
0010
,
0100
1000
0010
0100
0010
0100
0010
1000
0100
0010
0001
1000
0010
1000
0001
0010
,
0100
1000
0010
1000
0100
0010
0001
0100
0001
0010
0100
1000
0001
0100
0010
0100
,
0001
1000
0100
0010
0001
0100
0010
0100
0000
0000
0000
0000
0001
1000
0010
1000
,
0001
0010
0001
1000
0010
0100
0010
1000
0100
0010
0001
0100
0010
1000
0100
1000
,
0001
0010
0100
0010
0001
0100
0010
1000
0001
0010
0100
1000
0001
1000
0010
1000
,
0001
0000
0010
0000
0001
0000
1000
0000
0010
0000
1000
0000
0100
M000
0100
0000
0001
0000
0010
0000
0001
0000
0100
0000
0010
0000
1000
0000
0100
0000
1000
0000
,
0001
0010
0100
0010
0001
1000
0010
0100
00M0
0100
1000
0010
1000
0001
0010
0001
,
1000
0000
0010
0000
1000
0000
0001
0000
0010
0000
0001
0000
0100
000M
0100
0000
1000
0000
0010
0000
1000
0000
0100
0000
0010
0000
0001
0000
0100
0000
0001
0000
,
1000
0010
0100
0010
1000
0001
0010
0100
00M0
0100
0001
0010
0001
1000
0010
1000
,
0001
0000
0010
0000
0001
0000
1000
0000
0010
0000
1000
0000
0100
M000
0100
0000
0001
0000
0010
0000
0001
0000
1000
0000
0000
0000
0000
0000
0000
0000
0000
0000
;

//---------------dance-single - ----------------
#NOTES:
     dance-single:
     :
     Challenge:
     16:
     0.664285,0.793682,0.236190,0.118095,0.524047,630.000000,598.000000,32.000000,16.000000,14.000000,0.000000,0.664285,0.793682,0.236190,0.118095,0.524047,630.000000,598.000000,32.000000,16.000000,14.000000,0.000000:
0000
0000
0000
0000
,
0000
0000
0000
0000
,
0000
0000
0000
0000
,
0000
0000
0000
0000
,
0000
0000
0000
0000
,
0000
0000
0000
0000
,
1000
0100
0001
0000
0100
1000
0010
0001
,
0000
1000
0000
1000
0100
0001
1000
0000
,
0100
1000
0100
0000
0010
0000
0010
0001
0000
1000
0010
0000
0010
0000
1000
0001
,
0MM0
1000
1000
1000
,
1000
0000
0000
0000
1000
0000
0000
0000
1000
0000
0000
0000
1000
0010
0100
0000
,
1000
0000
0100
0010
1000
0000
0100
0000
0001
0000
0000
0000
0100
0000
1000
0000
,
0010
0001
0000
1000
0000
1000
0100
0001
,
1000
0000
0001
0100
0210
1300
0120
1000
,
0130
0000
1100
0000
0100
0010
1000
0000
0210
0000
1000
0000
0310
0100
1000
0000
,
0120
0000
0130
0010
1000
0000
0100
0000
0001
0000
0000
0000
0100
0000
1000
0000
,
0010
0000
0001
0000
0000
0000
1000
0000
0000
0000
1000
0MM0
0000
0000
0000
0000
,
1000
0100
0010
0001
0100
0010
0100
0001
0010
0100
1000
0010
0000
0010
1000
0100
,
0010
0000
0001
0100
0010
0100
0001
0000
0001
0000
0010
0100
0000
1000
0001
0100
,
0001
0010
0100
1000
0010
0100
1000
0000
1000
0000
0100
0010
0000
1000
0001
0010
,
0100
0000
1000
0010
0100
0010
1000
0000
1000
0000
0100
0010
0000
0001
0100
0001
,
1000
1000
1000
1000
,
1000
0000
0000
0000
1000
0000
0000
0000
1000
0010
0100
0000
1000
0000
0100
0010
,
1000
0100
0001
0000
0100
1000
0010
0001
,
0000
1000
0000
1000
0100
0001
0010
0100
,
1000
0010
0120
0031
0210
0001
0310
0011
,
0010
0100
0001
0000
0120
0000
0001
0000
0130
0010
0001
0000
0210
0000
0310
0100
,
0001
0000
1000
0000
0100
0010
1000
0000
0001
0000
1000
0010
0100
0000
1000
0000
,
0010
0100
1000
0000
0001
0000
1000
0100
0010
0000
1000
0000
0100
0000
0100
0000
,
1000
0100
0010
0000
0001
0100
0010
0000
0001
0000
0001
0000
0010
0000
0001
0010
,
0100
0000
0001
0010
0100
0000
1000
0000
0100
0010
0001
0100
0010
0000
0010
0000
,
1000
0000
0001
0000
0100
0010
0001
0000
1000
0000
0001
0010
0100
0000
0001
0000
,
0010
0100
0001
0000
1000
0000
0001
0100
0010
0000
0001
0000
0100
0000
0100
0000
,
0001
0000
0010
0000
0100
0000
1000
0010
0100
0000
1000
0000
0100
0010
1000
0000
,
0100
0010
0001
1000
0001
1000
1000
1000
,
2000
0000
0000
0000
3000
0000
0000
0000
1000
0000
1000
0100
0010
0001
0100
0000
,
0000
0000
2000
0000
0000
3000
1000
0000
0100
0010
1000
0100
0010
0000
0000
0000
,
0002
0000
0000
0000
1003
0000
0000
0000
0001
0000
0001
0100
0010
1000
0100
0000
,
0000
0000
0002
0000
0000
0003
0001
0000
0100
0010
0001
0100
0010
0000
0000
0000
,
0110
0000
1000
0000
1010
0000
0001
0000
1001
0000
1000
0100
0010
0001
1000
0000
,
1001
0000
0010
0000
1010
0000
0100
0000
0010
0100
0001
0010
0100
0000
0000
0000
,
0110
0000
1000
0000
1100
0000
0001
0000
1001
0000
0001
0100
0010
1000
0001
0000
,
0010
0001
0010
0000
0010
0000
0100
0000
0100
1000
0000
0100
1000
0000
1000
0000
,
0001
0000
0100
0000
0010
0000
0001
0000
0010
0100
0010
1000
0010
0000
1000
0000
,
1010
0000
0001
0000
1001
0000
0010
0000
0001
0010
0100
1000
0001
0000
0000
0000
,
1000
0000
0100
0000
0010
0000
1000
0000
0010
0100
0010
0001
0010
0000
0001
0000
,
0011
1000
1001
0000
MMMM
0000
MMMM
0000
,
1000
0100
0011
0000
1000
0100
0011
0100
,
1000
0000
0100
0000
0001
0000
0100
0000
1000
0010
0100
0000
1000
0000
0100
0010
,
1000
0100
0001
0000
0100
1000
0010
0001
,
0000
1000
0000
1000
0100
0001
1000
0000
,
0001
0100
0210
1300
0120
1000
0130
1100
,
0100
0010
1000
0000
0220
0000
M33M
0000
0000
0000
0000
0000
1000
0000
0100
0000
,
0101
1000
0010
0100
0001
0010
1010
0001
,
0100
0010
1000
0001
0010
0100
1000
0010
,
0011
1000
0100
0010
0001
0100
1100
0001
,
0100
0010
1000
0001
0010
0100
1000
0001
,
0100
0010
0001
0000
1000
0000
0001
0010
0100
0000
0001
0000
0010
0100
0001
0000
,
1000
0000
0001
0100
0010
0000
0001
0000
0100
0000
0100
0000
0001
0100
0010
0000
,
1000
0100
0010
0000
1000
0000
1000
0000
0010
0000
1000
0010
0100
0000
1000
0010
,
0100
0000
0001
0000
0100
0010
1000
0100
0010
0000
0010
0000
0001
0000
1000
0000
,
0100
0010
1000
0000
0001
0000
1000
0010
0100
0000
1000
0000
0010
0100
1000
0000
,
0001
0000
1000
0100
0010
0000
1000
0000
0100
0000
0100
0000
1000
0000
0010
0000
,
0100
0000
0001
0010
0100
0000
0001
0000
0100
0010
0001
0000
0100
0000
0010
0000
,
1000
0000
0001
0000
0010
0000
0100
1000
0000
0000
0000
0000
1000
0100
1000
0100
,
0010
0001
1000
0000
0001
0010
0001
0010
0100
1000
0001
0000
1000
0010
1000
0010
,
0100
0001
1000
0000
0001
0100
0001
0100
0010
1000
0001
0000
1000
0100
0010
0001
,
0100
0010
0100
0001
0010
0100
1000
0010
0000
0010
1000
0100
0010
0000
0001
0100
,
0010
0100
0001
0000
0001
0000
0010
0100
0000
1000
0001
0100
0001
0010
0100
1000
,
0010
0100
1000
0000
1000
0000
0100
0010
0000
1000
0001
0010
0100
0000
1000
0010
,
0100
0010
1000
0000
1000
0000
0100
0010
0000
0001
0100
0001
1000
0100
0010
0001
,
0100
0010
0100
0001
0010
0100
1000
0010
0000
0010
1000
0001
0000
0000
0000
0000
;

//---------------dance-single - ----------------
#NOTES:
     dance-single:
     :
     Hard:
     12:
     0.511394,0.555578,0.184524,0.014762,0.088571,485.000000,460.000000,25.000000,2.000000,4.000000,0.000000,0.511394,0.555578,0.184524,0.014762,0.088571,485.000000,460.000000,25.000000,2.000000,4.000000,0.000000:
0000
0000
0000
0000
,
0000
0000
0000
0000
,
0000
0000
0000
0000
,
0000
0000
0000
0000
,
0000
0000
0000
0000
,
0000
0000
0000
0000
,
1000
0100
0010
0000
0100
0010
0001
0100
,
0000
1000
0000
0100
0010
1000
0001
0000
,
1000
0000
0100
0000
0001
0000
0000
0001
0000
0000
0100
0000
1000
0000
0000
0000
,
1MM1
0001
0001
0001
,
0001
0000
0001
0000
0001
0000
0001
1000
,
0001
0001
1000
0100
0010
0000
0100
0010
,
0001
0100
0000
1000
0000
0100
0010
1000
,
0001
0000
1000
0100
0110
0000
1001
0001
,
0100
0110
0010
1000
1001
0001
1000
0100
,
0110
0010
0001
0100
0010
0000
0100
0010
,
1000
0000
0100
0000
0000
0000
0001
0000
0000
0000
0001
M0M0
0000
0000
0000
0000
,
0001
0000
0100
0000
0010
0000
1000
0000
0001
0000
0010
0100
0000
0100
1000
0000
,
0001
0000
0100
0000
1000
0000
1000
0000
0100
0000
0001
1000
0000
1000
0001
0000
,
1000
0000
0100
0000
0010
0000
0001
0000
1000
0000
0010
0100
0000
0100
0001
0000
,
1000
0000
0100
0000
0001
0000
0001
0000
0100
0000
1000
0001
0000
0001
1000
0000
,
0001
0001
0001
0001
,
0001
0000
0001
0000
0001
1000
0001
0001
,
1000
0100
0010
0000
0100
0010
0001
0100
,
0000
1000
0000
0100
0010
1000
0100
0010
,
0001
0100
0110
0000
1001
1000
0100
0110
,
0010
0001
1001
1000
0001
0100
0110
0010
,
1000
0100
0001
1000
0010
0001
1000
0100
,
0001
1000
0010
0001
1000
0100
0001
0001
,
1000
0010
0001
0100
1000
0001
0010
1000
,
0001
0010
1000
0001
0100
1000
0001
0001
,
1000
0010
0001
1000
0100
0001
1000
0010
,
0001
1000
0100
0001
1000
0010
0001
0001
,
1000
0100
0001
0010
1000
0001
0100
1000
,
0001
0100
1000
0001
0010
1000
0001
0001
,
2000
0000
3000
0000
1000
0001
0100
0010
,
0000
0001
0000
0001
0010
0010
1000
0000
,
0002
0000
1003
0000
0001
1000
0100
0010
,
0000
1000
0000
1000
0010
0010
0001
0000
,
0011
0000
1001
0000
0001
0100
0101
0000
,
0110
0000
0110
0000
0010
0100
1001
0000
,
1010
0000
1001
0000
1000
0100
1100
0000
,
1000
0000
0100
0000
0100
0000
0010
0000
0001
0010
0000
0001
0010
0000
0010
0000
,
0001
1000
0010
0001
0000
0001
0010
1000
,
0100
0001
0000
0001
0100
1000
1001
0000
,
1000
0001
0100
1000
0000
1000
0100
0001
,
0010
0100
0000
0000
0000
0000
0000
0000
,
1000
0100
0010
0000
1000
0010
0100
0010
,
0100
0010
0100
0010
0100
0001
1000
1000
,
0001
0010
0100
0000
0010
0100
1000
0010
,
0000
0001
0000
0010
0100
0001
1000
0000
,
0001
0010
0110
0000
1001
1000
0010
0110
,
0100
0001
1001
1000
0000
0000
1000
0100
,
0010
0001
0100
0001
0000
0001
0010
0001
,
0100
0001
0000
0100
0001
0010
0000
0010
,
0100
1000
0010
1000
0000
1000
0100
1000
,
0010
1000
0000
0100
1000
0010
1000
0100
,
0001
1000
0010
0001
1000
0100
0001
1000
,
0010
0001
1000
0100
0001
0001
1000
0010
,
0001
0100
1000
0001
0010
1000
0001
0010
,
1000
0001
0100
1000
0001
0001
1000
0010
,
0001
1000
0100
0001
1000
0010
0001
1000
,
0100
0001
1000
0010
0001
0001
1000
0100
,
0001
0010
1000
0001
0100
1000
0001
0100
,
1000
0000
0001
0000
0010
0000
1000
0001
0000
0000
0000
0000
1000
0000
0100
0000
,
0010
0001
0100
0010
0001
0010
0100
0001
,
0010
0100
1000
0010
0100
0010
1000
0100
,
0010
0000
0001
0000
1000
0000
0010
0100
0000
0100
0001
0000
1000
0000
0100
0000
,
0001
0000
0001
0000
0100
0000
1000
0001
0000
0001
1000
0000
0001
0000
0100
0000
,
0010
0000
1000
0000
0001
0000
0010
0100
0000
0100
1000
0000
0001
0000
0100
0000
,
1000
0000
1000
0000
0100
0000
0001
1000
0000
1000
0001
0000
1000
0000
0100
0000
,
0010
0000
0001
0000
1000
0000
0010
0100
0000
0100
0001
1000
0000
0000
0000
0000
;

//---------------dance-single - ----------------
#NOTES:
     dance-single:
     :
     Medium:
     10:
     0.347959,0.396495,0.169762,0.140238,0.033214,330.000000,307.000000,23.000000,19.000000,0.000000,0.000000,0.347959,0.396495,0.169762,0.140238,0.033214,330.000000,307.000000,23.000000,19.000000,0.000000,0.000000:
0000
0000
0000
0000
,
0000
0000
0000
0000
,
0000
0000
0000
0000
,
0000
0000
0000
0000
,
0000
0000
0000
0000
,
0000
0000
0000
0000
,
2000
3100
2000
3010
,
1000
0000
0100
0000
0010
0100
0010
0000
,
0001
0010
0001
0000
1000
0001
1000
0000
,
1001
1000
1000
1000
,
1000
0000
1000
0000
1000
0000
1000
0001
,
1000
0002
0103
0002
,
0013
0000
0001
0000
0100
0000
0010
0100
,
0010
0100
0110
0110
,
0000
1001
0000
1000
0100
0000
0010
0000
,
1001
2000
3010
2000
,
3100
1000
0010
0000
,
1000
0000
0100
0000
1000
0000
0000
0000
0100
0000
0000
0010
0000
0000
0001
0000
,
1000
0000
0000
0000
1000
0000
0000
0000
0001
0000
0000
0001
0000
0000
1000
0000
,
0001
0000
0100
0000
0001
0000
0000
0000
0100
0000
0000
0010
0000
0000
1000
0000
,
0001
0000
0000
0000
0001
0000
0000
0000
1000
0000
0000
1000
0000
0000
0001
0000
,
1000
1000
1000
1000
,
1000
0000
1000
0000
1000
0001
1000
0000
,
0002
0103
0002
0013
,
0001
0000
0100
0000
0010
0100
0010
0000
,
0100
0000
0110
0000
0110
0000
0000
1001
,
0000
1000
0100
0000
0010
0000
1001
0000
,
0001
0100
0010
0000
0100
0001
0000
0010
,
0100
0000
1000
0001
0000
1000
0001
0000
,
1000
0000
0001
0000
1000
0010
0000
0100
,
0000
0100
0001
0000
1000
0000
1001
0000
,
1000
0100
0010
0000
0100
1000
0000
0010
,
0100
0000
0001
1000
0000
0001
1000
0000
,
0001
0000
1000
0000
0100
0000
0100
0010
,
0000
0010
0001
1000
0001
0001
1000
0001
,
2000
0000
3000
0000
1000
0000
0100
0010
,
0000
0002
0000
0003
1000
0001
1000
0000
,
0002
0000
1003
0000
0001
0000
0100
0010
,
0000
2000
0000
3000
0001
1000
0001
0000
,
0010
0011
0010
0110
,
0100
0000
1100
0000
1000
0001
1000
0000
,
1010
0010
0110
0100
,
0001
0100
0001
0000
1000
0000
1000
0000
,
0001
0000
0010
0100
0000
0000
1000
0000
,
0010
0100
0000
0100
0001
0000
1001
0000
,
1000
0000
0010
0100
0000
0000
0001
0000
,
0010
0100
0000
0000
0000
0000
0000
0000
,
2000
3010
1000
1000
,
1000
0000
1000
0000
1000
0001
1000
0000
,
0002
0103
0002
0013
,
0001
0000
0100
0000
0010
0100
0010
0000
,
0100
0000
0110
0000
0110
0000
0000
1001
,
0000
1000
0100
0000
0000
0000
1000
0000
,
0200
0000
0000
0001
0000
0000
2300
0000
,
0000
3001
0000
0001
1000
0000
0001
0000
,
0200
0000
0000
1000
0000
0000
0302
0000
,
0000
1003
0000
1000
0001
0000
1000
0100
,
0010
0000
0100
1000
0000
0010
0100
0000
,
0001
1000
0000
0001
1000
0000
0001
0000
,
1000
0000
0001
0010
0000
0100
0000
0100
,
1000
0000
0001
0000
1001
0000
0001
0100
,
0010
0000
0100
0001
0000
0010
0100
0000
,
1000
0001
0000
1000
0001
0000
1000
0000
,
0001
0000
0100
0000
0100
0010
0000
0010
,
1000
0001
1000
1000
0001
0000
0100
0000
,
0101
0000
0001
1000
0001
0000
1001
0000
,
1001
0000
1000
0010
1000
0000
1000
0100
,
1000
0000
0000
0000
0100
0000
0000
0010
0000
0000
0001
0000
1000
0000
0000
0000
,
1000
0000
0000
0000
0001
0000
0000
0001
0000
0000
1000
0000
0001
0000
0100
0000
,
0001
0000
0000
0000
0100
0000
0000
0010
0000
0000
1000
0000
0001
0000
0000
0000
,
0001
0000
0000
0000
1000
0000
0000
1000
0000
0000
0001
0000
1000
0000
0100
0000
,
1000
0000
0000
0000
0100
0000
0000
0010
0000
0000
0001
0000
0000
0000
0000
0000
;

//---------------dance-single - ----------------
#NOTES:
     dance-single:
     :
     Easy:
     7:
     0.229864,0.316643,0.029524,0.103333,0.000000,218.000000,214.000000,4.000000,14.000000,0.000000,0.000000,0.229864,0.316643,0.029524,0.103333,0.000000,218.000000,214.000000,4.000000,14.000000,0.000000,0.000000:
0000
0000
0000
0000
,
0000
0000
0000
0000
,
0000
0000
0000
0000
,
0000
0000
0000
0000
,
0000
0000
0000
0000
,
0000
0000
0000
0000
,
1000
1000
0000
0001
,
0000
0001
1000
0001
,
1000
0100
0010
0001
,
1000
0001
0001
0001
,
0001
0001
0001
0100
,
0010
1000
1000
0000
,
0001
0000
0001
1000
,
0001
0000
0010
0010
,
0000
0010
0000
0000
0010
0000
0000
0000
,
0010
0001
0001
0000
,
1000
0000
1000
0000
,
0001
0100
1000
1000
,
0000
1000
0100
0001
,
1000
0100
0001
0001
,
0000
0001
0100
1000
,
0001
0001
0001
0001
,
0001
0001
0100
0010
,
1000
1000
0000
0001
,
0000
0001
1000
0001
,
1000
0000
0100
0000
0100
0000
0000
0100
,
0000
0100
0000
0100
,
0100
0000
2000
0000
0000
3010
0000
0000
,
2000
0000
0000
3100
0000
0000
1000
0000
,
0010
0000
0100
0000
0001
0000
0000
0001
,
0000
1000
1000
0010
,
0100
0000
0002
0000
0000
0013
0000
0000
,
0002
0000
0000
0103
0000
0000
0001
0000
,
0010
0000
0100
0000
0100
0000
0000
1000
,
0000
0100
1000
1000
,
0002
0003
0001
0001
,
0000
1000
0000
0000
0001
0000
0001
0000
,
2000
3000
1000
1000
,
0000
0001
0000
0000
1000
0000
1000
0000
,
0001
0001
0010
0010
,
1000
1000
0100
0100
,
0001
0001
0010
0010
,
0100
1000
0001
0001
,
2000
0000
0000
3010
0000
0000
0002
0000
,
0000
0013
0000
0000
1000
0000
0001
0000
,
2000
0000
0000
3010
0000
0000
0002
0000
,
0000
0013
0000
0000
0000
0000
0000
0000
,
0001
0110
0001
0001
,
0001
0001
0100
0010
,
1000
1000
0000
0001
,
0000
0001
1000
0001
,
0000
0000
0010
0000
0010
0000
0000
0010
,
0000
0010
0000
0001
,
1000
0000
0000
1000
0000
0000
0010
0000
,
0000
0010
0000
0000
0100
0000
0100
0000
,
0010
0000
0000
0010
0000
0000
0100
0000
,
0000
0100
0000
0000
0001
0000
0100
0000
,
0002
0000
0000
0013
0000
0000
0002
0000
,
0000
0103
0000
0000
0001
0000
0010
0000
,
0100
0000
1000
0000
0000
1000
0000
0000
,
0001
0001
0010
0100
,
2000
0000
0000
3010
0000
0000
2000
0000
,
0000
3100
0000
0000
1000
0000
0010
0000
,
0100
0000
0100
0000
0000
0001
0000
0000
,
1000
0001
0001
0100
,
1001
0100
1001
0100
,
0100
0100
1001
0001
,
0100
1000
1000
0000
,
1000
0100
0001
1000
,
0100
0001
0001
0000
,
0001
0100
1000
0001
,
0100
1000
1000
0000
;

//---------------dance-single - ----------------
#NOTES:
     dance-single:
     :
     Beginner:
     4:
     0.145510,0.263869,0.118095,0.199286,0.000000,138.000000,122.000000,16.000000,27.000000,0.000000,0.000000,0.145510,0.263869,0.118095,0.199286,0.000000,138.000000,122.000000,16.000000,27.000000,0.000000,0.000000:
// measure 0
0000
0000
0000
0000
,  // measure 1
0000
0000
0000
0000
,  // measure 2
0000
0000
0000
0000
,  // measure 3
0000
0000
0000
0000
,  // measure 4
0000
0000
0000
0000
,  // measure 5
0000
0000
0000
0000
,  // measure 6
1000
0000
1000
0000
,  // measure 7
0001
0000
0001
0000
,  // measure 8
1000
0000
0010
0000
,  // measure 9
0100
0000
0001
0000
,  // measure 10
0001
0000
0001
0000
,  // measure 11
0001
0001
0000
0001
,  // measure 12
0000
1000
0000
1000
,  // measure 13
0000
0000
0100
0100
,  // measure 14
0000
0000
0010
0000
,  // measure 15
0001
0001
0000
0001
,  // measure 16
0000
1000
0000
0000
,  // measure 17
0000
1001
0000
0110
,  // measure 18
0000
0100
0000
0100
,  // measure 19
0000
0110
0000
1001
,  // measure 20
0000
1000
0000
1000
,  // measure 21
0000
0001
0000
0001
,  // measure 22
0000
0001
0000
0001
,  // measure 23
0001
0000
0001
0000
,  // measure 24
1000
0000
1000
0000
,  // measure 25
0000
0010
0010
0000
,  // measure 26
0000
0100
0000
0001
,  // measure 27
0001
0000
0002
0000
0000
0003
0000
0000
,  // measure 28
0002
0000
0000
0003
0000
0000
0000
0000
,  // measure 29
0010
0000
0020
0000
0000
0030
0000
0000
,  // measure 30
0200
0000
0000
0300
0000
0000
1000
0000
,  // measure 31
1000
0000
2000
0000
0000
3000
0000
0000
,  // measure 32
2000
0000
0000
3000
0000
0000
0000
0000
,  // measure 33
0010
0000
0020
0000
0000
0030
0000
0000
,  // measure 34
0200
0000
0000
0300
0000
0000
0001
0000
,  // measure 35
0002
0003
0000
1000
,  // measure 36
0000
0010
0000
1000
,  // measure 37
2000
3000
1000
0000
,  // measure 38
0000
0000
0010
0000
,  // measure 39
0110
0000
0110
0000
,  // measure 40
1001
0000
1001
0000
,  // measure 41
0110
0000
0110
0000
,  // measure 42
0010
0000
0000
0000
,  // measure 43
2000
0000
0000
3000
0000
0000
0002
0000
,  // measure 44
0000
0003
0000
0000
0100
0000
0100
0000
,  // measure 45
0200
0000
0000
0300
0000
0000
0020
0000
,  // measure 46
0000
0030
0000
0000
0000
0000
0000
0000
,  // measure 47
0200
0300
0001
0000
,  // measure 48
0001
0000
0001
0001
,  // measure 49
0001
0000
0001
0000
,  // measure 50
1000
0000
1000
0000
,  // measure 51
0000
0100
0100
0000
,  // measure 52
0000
0010
0000
0000
,  // measure 53
0002
0000
0000
0003
0000
0000
0002
0000
,  // measure 54
0000
0003
0000
0000
1000
0000
1000
0000
,  // measure 55
2000
0000
0000
3000
0000
0000
2000
0000
,  // measure 56
0000
3000
0000
0000
1000
0000
1000
0000
,  // measure 57
2000
0000
0000
3000
0000
0000
2000
0000
,  // measure 58
0000
3000
0000
0000
0000
0000
0100
0000
,  // measure 59
0200
0000
0000
0300
0000
0000
0020
0000
,  // measure 60
0000
0030
0000
0000
0001
0000
0001
0000
,  // measure 61
0002
0000
0000
0003
0000
0000
0002
0000
,  // measure 62
0000
0003
0000
0000
0000
0000
0100
0000
,  // measure 63
0200
0000
0000
0300
0000
0000
0020
0000
,  // measure 64
0000
0030
0000
0000
0000
0000
0000
0000
,  // measure 65
1000
0000
1000
0000
,  // measure 66
0001
0000
0001
0000
,  // measure 67
1001
0000
0110
0000
,  // measure 68
0100
0000
0100
0000
,  // measure 69
0110
0000
1001
0000
,  // measure 70
1000
0000
1000
0000
,  // measure 71
1001
0000
0110
0000
;

//---------------dance-double - ----------------
#NOTES:
     dance-double:
     :
     Challenge:
     16:
     0.630544,0.714314,0.324762,0.140238,0.417023,598.000000,554.000000,44.000000,19.000000,14.000000,0.000000,0.630544,0.714314,0.324762,0.140238,0.417023,598.000000,554.000000,44.000000,19.000000,14.000000,0.000000:
00000000
00000000
00000000
00000000
,
00000000
00000000
00000000
00000000
,
00000000
00000000
00000000
00000000
,
00000000
00000000
00000000
00000000
,
00000000
00000000
00000000
00000000
,
00000000
00000000
00000000
00000000
,
00000001
00000100
00001000
00000000
00010000
00100000
10000000
00010000
,
00000000
00100000
00000000
10000000
00100000
00010000
10000000
00000000
,
01000000
10000000
01000000
00000000
00100000
00000000
00001000
00010000
00000000
00000100
00001000
00000000
00001000
00000000
00000001
00001000
,
00000MM0
00000001
00000001
00000001
,
00000001
00000000
00000000
00000000
00000001
00000000
00000000
00000000
00000001
00000000
00000000
00000000
00000001
00000100
00000010
00000000
,
00000001
00000000
00000010
00000100
00000001
00000000
00000010
00000000
00001000
00000000
00000000
00000000
00010000
00000000
01000000
00000000
,
10000000
00010000
00000000
01000000
00000000
10000000
01000000
00010000
,
10000000
00000000
00010000
01000000
01200000
00310000
02100000
00010000
,
03100000
00000000
00120000
00000000
00031000
00010000
00100000
00000000
01200000
00000000
00010000
00000000
01300000
00100000
00010000
00000000
,
00210000
00000000
01300000
00100000
10000000
00000000
01000000
00000000
00010000
00000000
00000000
00000000
00001000
00000000
00000010
00000000
,
00000001
00000000
00001000
00000000
00000000
00000000
00000010
00000000
00000000
00000000
00000001
0000MM00
00000000
00000000
00000000
00000000
,
00000001
00000010
00000100
00001000
00000010
00000100
00001000
00000000
00010000
00001000
00010000
00100000
00000000
00010000
00100000
01000000
,
00010000
00000000
00010000
00100000
01000000
10000000
00100000
00000000
00100000
00000000
01000000
10000000
00000000
10000000
01000000
00100000
,
10000000
01000000
00100000
00010000
01000000
00100000
00010000
00000000
00010000
00000000
00001000
00000100
00000000
00001000
00000100
00000010
,
00001000
00000000
00001000
00000100
00000010
00000001
00000100
00000000
00000100
00000000
00000010
00000001
00000000
00000001
00000010
00000100
,
00000001
00000001
00000001
00000001
,
00000001
00000000
00000000
00000000
00000001
00000000
00000000
00000000
00000001
00000010
00000100
00000000
00000001
00000000
00000100
00000010
,
00000001
00000100
00001000
00000000
00010000
00100000
10000000
00010000
,
00000000
00100000
00000000
10000000
00100000
00010000
10000000
10000000
,
00010000
00100000
02100000
03010000
01200000
00010000
01300000
01020000
,
00031000
00010000
01000000
00000000
02100000
00000000
00010000
00000000
03100000
01000000
00010000
00000000
02010000
00000000
03100000
01000000
,
10000000
00000000
00100000
00000000
00010000
00001000
00000100
00000000
00001000
00000000
00000100
00001000
00010000
00000000
00010000
00000000
,
00001000
00010000
01000000
00000000
00010000
00000000
01000000
00010000
00001000
00000000
00010000
00000000
00001000
00000000
00001000
00000000
,
00010000
00000000
00100000
00010000
00001000
00000000
00010000
00001000
00000100
00000000
00001000
00000000
00010000
00000000
00001000
00000000
,
00001000
00000000
00000010
00001000
00010000
00000000
00001000
00010000
01000000
00000000
00010000
00000000
00001000
00000000
00000010
00000000
,
00000001
00000000
00000100
00000000
00001000
00010000
00100000
00000000
00010000
00000000
00100000
00010000
00001000
00000000
00001000
00000000
,
00010000
00001000
00000010
00000000
00001000
00000000
00000010
00001000
00010000
00000000
00001000
00000000
00010000
00000000
00010000
00000000
,
00001000
00000010
00000001
00000100
00001000
00010000
00000100
00001000
,
00010000
01000000
00001000
00010000
00100000
10000000
00010000
00010000
,
20000000
00000000
00000000
00000000
30000000
00000000
00000000
00000000
10000000
00000000
10000000
01000000
00100000
00010000
01000000
00000000
,
00000000
00000000
00200000
00000000
00000000
00000000
00310000
00000000
00001000
00010000
00000100
00001000
00000001
00000000
00000000
00000000
,
00000002
00000000
00000000
00000000
00001003
00000000
00000000
00000000
00000001
00000000
00000001
00000100
00000010
00001000
00000001
00000000
,
00000000
00000000
00000020
00000000
00000000
00000000
00001030
00000000
00010000
00001000
01000000
00010000
10000000
00000000
00000000
00000000
,
10010000
00000000
00011000
00000000
00001001
00000100
00001001
00000000
,
00000110
00000000
00000110
00000000
00000110
00000001
00001001
00000000
,
00001001
00000000
00011000
00000000
10010000
01000000
10010000
00000000
,
10000000
01000000
10000000
00000000
10000000
00000000
00100000
00000000
00010000
00001000
00000000
00010000
00001000
00000000
00001000
00000000
,
00010000
00001000
00000100
00000010
00000110
00001010
00011000
00001000
,
00100000
01000000
01100000
00000000
01100000
00110000
00011000
00000000
,
00001000
00010000
01000000
00100000
01100000
00110000
00011000
00010000
,
00000010
00000100
00000110
00000000
0000MMMM
00000000
0000MMMM
00000000
,
00000001
00000010
00001100
00000000
00000001
00000010
00010000
00000010
,
00000001
00000000
00000010
00000000
00001000
00000000
00000010
00000000
00000001
00000100
00000010
00000000
00000001
00000000
00000010
00000100
,
00000001
00000010
00001000
00000000
00010000
01000000
10000000
00010000
,
00000000
01000000
00000000
10000000
01000000
00010000
10000000
00000000
,
00010000
01000000
01200000
00310000
02100000
00010000
03100000
00120000
,
00031000
00010000
00100000
00000000
02200000
00000000
M33M0000
00000000
00000000
00000000
00000000
00000000
10000000
00000000
01000000
00000000
,
01100000
00010000
00001000
00000010
00000001
00000100
00000110
00001000
,
00010000
00100000
00000000
00100000
00010000
00001000
00000010
00000010
,
00000110
00001000
00010000
00100000
10000000
01000000
01100000
00010000
,
00001000
00000010
00000000
00000010
00000100
00001000
00000001
00000100
,
00001000
00010000
00100000
00000000
00010000
00000000
00100000
00010000
00001000
00000000
00001000
00000000
00010000
00001000
00000010
00000000
,
00001000
00000000
00000010
00001000
00010000
00000000
00001000
00000000
00010000
00000000
00010000
00000000
00001000
00000000
00000100
00001000
,
00010000
00000000
00001000
00010000
00100000
00000000
00010000
00000000
00001000
00000000
00010000
00000000
00010000
00000000
01000000
00010000
,
00001000
00000000
00010000
00001000
00000010
00000000
00001000
00000000
00010000
00000000
01000000
00000000
10000000
00000000
00100000
00000000
,
00010000
00001000
00000100
00000000
00001000
00000000
00000100
00001000
00010000
00000000
00010000
00000000
00001000
00010000
01000000
00000000
,
00010000
00000000
01000000
00010000
00001000
00000000
00010000
00000000
00001000
00000000
00001000
00000000
00010000
00000000
01000000
00000000
,
10000000
00100000
00010000
00001000
00100000
00010000
00001000
00000010
,
00010000
00000000
00001000
00000000
00000100
00000000
00000001
00001000
00000000
00000000
00000000
00000000
00000001
00000010
00000001
00000010
,
00000100
00000000
00000000
00000000
00001000
00000100
00001000
00000100
00010000
00000000
00000000
00000000
00011000
00000000
00000000
00000000
,
00011000
00000000
00000000
00000000
00010000
00001000
00010000
00001000
00100000
00000000
00010000
00000000
10000000
01000000
00100000
00010000
,
01000000
00100000
00010000
00000000
00001000
00010000
00001000
00000100
00000000
00001000
00000100
00000010
00001000
00000000
00001000
00000100
,
00000010
00000001
00000100
00000000
00000100
00000000
00000010
00000001
00000000
00000001
00000010
00000100
00000001
00000010
00000100
00001000
,
00000010
00000100
00001000
00000000
00001000
00000000
00010000
00100000
00000000
00010000
00100000
01000000
00010000
00000000
00010000
00100000
,
01000000
10000000
00100000
00000000
00100000
00000000
01000000
10000000
00000000
10000000
01000000
00100000
10000000
01000000
00100000
00010000
,
01000000
00100000
00010000
00000000
00001000
00010000
00001000
00000100
00000000
00001000
00000100
00000001
00000000
00000000
00000000
00000000
;
