#TITLE:Colourful Mane;
#SUBTITLE:;
#ARTIST:Ice Angel, Jalmaan & loophoof;
#MUSIC:Colourful Mane.ogg;
#BANNER:;
#BACKGROUND:;
#LYRICSPATH:;
#CDTITLE:;
#SAMPLESTART:45.005;
#SAMPLELENGTH:15.000;
#OFFSET:-0.001;
#BPMS:0.000=128.000;
#STOPS:;
#TIMESIGNATURES:;
#BGCHANGES:;
#FGCHANGES:;
#ATTACKS:;

//---------------dance-single - ---------------
#NOTES:
     dance-single:
     :
     Beginner:
     2:
     0,0,0,0,0:
// measure 0
0000
0000
0000
0000
,  // measure 1
0000
0000
0000
0000
,  // measure 2
0000
0000
0000
0000
,  // measure 3
0000
0000
0000
0000
,  // measure 4
1000
0000
0000
0000
,  // measure 5
1000
0000
0000
0000
,  // measure 6
0001
0000
0000
0000
,  // measure 7
0001
0000
0000
0000
,  // measure 8
2002
0000
0000
0000
,  // measure 9
0000
0000
0000
3003
,  // measure 10
0220
0000
0000
0000
,  // measure 11
0000
0000
0000
0330
,  // measure 12
2002
0000
0000
0000
,  // measure 13
0000
0000
0000
3003
,  // measure 14
0220
0000
0000
0330
,  // measure 15
0001
0000
0000
0000
,  // measure 16
1000
0000
0000
0000
,  // measure 17
0100
0000
0000
0000
,  // measure 18
0010
0000
0000
0000
,  // measure 19
0001
0000
0000
0000
,  // measure 20
1000
0000
1000
0000
,  // measure 21
0001
0000
0001
0000
,  // measure 22
0200
0000
0000
0000
,  // measure 23
0300
0000
0000
0000
,  // measure 24
0110
0000
0000
0000
,  // measure 25
1001
0000
0000
0000
,  // measure 26
0110
0000
0000
0000
,  // measure 27
0001
0000
0010
0000
,  // measure 28
0110
0000
0000
0000
,  // measure 29
1001
0000
0000
0000
,  // measure 30
0110
0000
0000
0000
,  // measure 31
1000
0000
0000
0000
,  // measure 32
1001
0000
0000
0000
,  // measure 33
0110
0000
0000
0000
,  // measure 34
1001
0000
0000
0000
,  // measure 35
0100
0000
0001
0000
,  // measure 36
1001
0000
0000
0000
,  // measure 37
0110
0000
0000
0000
,  // measure 38
1001
0000
0000
0000
,  // measure 39
0010
0000
0000
0000
,  // measure 40
0100
0000
0000
0000
,  // measure 41
0100
0000
0000
0000
,  // measure 42
0010
0000
0000
0000
,  // measure 43
0010
0000
0000
0000
,  // measure 44
1000
0000
1000
0000
,  // measure 45
0001
0000
0001
0000
,  // measure 46
0020
0000
0000
0000
,  // measure 47
0030
0000
0000
0000
,  // measure 48
1001
0000
0000
0001
,  // measure 49
0000
1000
0000
0000
,  // measure 50
0010
0000
0000
0100
,  // measure 51
0000
0001
0000
0000
,  // measure 52
1000
0000
0000
1001
,  // measure 53
0000
1000
0000
0000
,  // measure 54
0100
0000
0000
0010
,  // measure 55
0000
0001
0000
0000
,  // measure 56
0000
0000
0000
0000
,  // measure 57
1001
0000
0010
0000
,  // measure 58
1001
0000
0010
0000
,  // measure 59
1001
0000
0010
0000
,  // measure 60
1001
0000
0100
0000
,  // measure 61
1001
0000
0100
0000
,  // measure 62
1001
0000
0100
0000
,  // measure 63
0010
0000
0000
0000
,  // measure 64
1000
0000
0000
0000
,  // measure 65
0010
0000
0000
0000
,  // measure 66
0100
0000
0000
0000
,  // measure 67
0010
0000
0000
0000
,  // measure 68
1000
0000
0000
0000
,  // measure 69
0001
0000
0000
0000
,  // measure 70
0010
0000
0000
0000
,  // measure 71
0200
0000
0000
0000
,  // measure 72
0300
0000
0000
0000
;

//---------------dance-single - ---------------
#NOTES:
     dance-single:
     :
     Easy:
     6:
     0,0,0,0,0:
// measure 0
0000
0000
0000
0000
,  // measure 1
0000
0000
0000
0000
,  // measure 2
0000
0000
0000
0000
,  // measure 3
0000
0000
0000
0000
,  // measure 4
1000
0100
1000
0000
,  // measure 5
0001
0100
0001
0000
,  // measure 6
1000
0010
1000
0000
,  // measure 7
0001
0010
0001
0000
,  // measure 8
2000
0000
0000
0000
3000
0000
0000
0020
0000
0000
0000
0000
0030
0000
0000
0000
,  // measure 9
0200
0000
0000
0000
0300
0000
0000
0002
0000
0000
0000
0000
0003
0000
0000
0000
,  // measure 10
0020
0000
0000
0000
0030
0000
0000
0200
0000
0000
0000
0000
0300
0000
0000
0000
,  // measure 11
0002
0000
0000
0000
0003
0000
0000
0200
0000
0000
0000
0000
0300
0000
0000
0000
,  // measure 12
0020
0000
0000
0000
0030
0000
0000
0002
0000
0000
0000
0000
0003
0000
0000
0000
,  // measure 13
2000
0000
0000
0000
3000
0000
0000
0020
0000
0000
0000
0000
0030
0000
0000
0000
,  // measure 14
0200
0000
0000
0000
0300
0000
0000
2000
0000
0000
0000
0000
3000
0000
0000
0000
,  // measure 15
0100
0010
1000
0001
,  // measure 16
0010
0200
0300
2000
,  // measure 17
3000
0002
0003
0200
,  // measure 18
0300
0020
0030
2000
,  // measure 19
3000
0002
0003
0010
,  // measure 20
0001
0000
1000
0000
,  // measure 21
0010
0000
0100
0000
,  // measure 22
0001
0001
0001
0001
,  // measure 23
0010
0000
0000
0000
,  // measure 24
1001
0000
1000
0010
,  // measure 25
0100
0000
0010
1000
,  // measure 26
0001
0000
0010
0001
,  // measure 27
1000
0000
0100
0000
,  // measure 28
0110
0000
0010
0001
,  // measure 29
1000
0000
0100
1000
,  // measure 30
0010
0000
0100
0001
,  // measure 31
1000
0000
0000
0000
,  // measure 32
1001
0000
0001
0100
,  // measure 33
0010
0000
0100
0001
,  // measure 34
1000
0000
0100
1000
,  // measure 35
0001
0000
0010
0000
,  // measure 36
0110
0000
0010
0001
,  // measure 37
1000
0000
0100
1000
,  // measure 38
0010
0000
0100
0001
,  // measure 39
1000
0000
0000
0000
,  // measure 40
0010
0200
0300
0002
,  // measure 41
0003
2000
3000
0200
,  // measure 42
0300
0020
0030
0002
,  // measure 43
0003
0200
0300
0010
,  // measure 44
1000
0000
0100
0000
,  // measure 45
0010
0000
0001
0000
,  // measure 46
1000
1000
1000
1000
,  // measure 47
0010
0000
0000
0000
,  // measure 48
0110
0000
0001
0001
,  // measure 49
0000
0010
0010
0000
,  // measure 50
0100
0000
1000
1001
,  // measure 51
0000
0001
0001
0000
,  // measure 52
0100
0010
0100
0110
,  // measure 53
0000
1000
1000
0000
,  // measure 54
0100
0000
0010
0110
,  // measure 55
0000
0001
0001
0000
,  // measure 56
0200
0000
0000
0300
,  // measure 57
0110
0110
0110
0000
,  // measure 58
1001
1001
1001
0000
,  // measure 59
0110
0110
0100
0000
,  // measure 60
1000
1001
1001
0000
,  // measure 61
0110
0110
0110
0000
,  // measure 62
1001
1001
1001
0000
,  // measure 63
1000
0000
0000
0000
,  // measure 64
0001
0010
0100
0000
,  // measure 65
1000
0001
0100
0000
,  // measure 66
0010
1000
0100
0000
,  // measure 67
1000
0001
0100
0000
,  // measure 68
0001
0010
0100
0000
,  // measure 69
0010
0100
1000
0000
,  // measure 70
0010
1000
0001
0000
,  // measure 71
0100
0000
0001
0000
0010
0000
0100
1000
;

//---------------dance-single - FS XO SS----------------
#NOTES:
     dance-single:
     FS XO SS-:
     Medium:
     9:
     0,0,0,0,0:
// measure 0
0000
0000
0000
0000
,  // measure 1
0000
0000
0000
0000
,  // measure 2
0000
0000
0000
0000
,  // measure 3
0000
0000
0000
0000
,  // measure 4
0001
0100
0001
0000
0010
0000
0100
0000
,  // measure 5
1000
0010
1000
0000
0001
0000
0100
0000
,  // measure 6
0010
0100
0010
0000
1000
0000
0001
0000
,  // measure 7
0010
0100
0010
0000
0001
0000
0100
0000
,  // measure 8
2020
0000
0000
0000
3030
0000
0000
2002
0000
0000
0000
0000
3003
0000
0000
0000
,  // measure 9
0022
0000
0000
0000
0033
0000
0000
0220
0000
0000
0000
0000
0330
0000
0000
0000
,  // measure 10
2200
0000
0000
0000
3300
0000
0000
2002
0000
0000
0000
0000
3003
0000
0000
0000
,  // measure 11
0202
0000
0000
0000
0303
0000
0000
0220
0000
0000
0000
0000
0330
0000
0000
0000
,  // measure 12
2002
0000
0000
0000
3003
0000
0000
2200
0000
0000
0000
0000
3300
0000
0000
0000
,  // measure 13
2020
0000
0000
0000
3030
0000
0000
0220
0000
0000
0000
0000
0330
0000
0000
0000
,  // measure 14
0202
0000
0000
0000
0303
0000
0000
0022
0000
0000
0000
0000
0033
0000
0000
0000
,  // measure 15
1000
0001
0100
0100
,  // measure 16
0010
2000
3000
0200
,  // measure 17
0300
0020
0030
2000
,  // measure 18
3000
0002
0003
0200
,  // measure 19
0300
0020
0030
0001
,  // measure 20
1000
1000
0010
0010
,  // measure 21
0100
0100
0001
0001
,  // measure 22
1000
0001
1000
0001
1000
0001
1000
0001
,  // measure 23
1000
0000
0100
0110
,  // measure 24
2002
0000
0000
0000
3003
0000
0000
0000
0001
0000
0000
0000
0100
00M0
0100
0000
,  // measure 25
1000
0000
0000
0000
0010
0000
0000
0000
1000
0000
0000
0000
0100
00M0
0100
0000
,  // measure 26
0001
0000
0000
0000
1000
0000
0000
0000
0001
0000
0000
0000
0010
0M00
0010
0000
,  // measure 27
2000
0000
0200
3300
,  // measure 28
0220
0000
0000
0000
0330
0000
0000
0000
1000
0000
0000
0000
0100
00M0
0100
0000
,  // measure 29
0001
0000
0000
0000
0010
0000
0000
0000
0001
0000
0000
0000
0100
00M0
0100
0000
,  // measure 30
1000
0000
0000
0000
0001
0000
0000
0000
1000
0000
0000
0000
0010
0M00
0010
0000
,  // measure 31
0001
0100
0010
1000
,  // measure 32
2002
0000
0000
0000
3003
0000
0000
0000
1000
0000
0000
0000
0010
0M00
0010
0000
,  // measure 33
0001
0000
0000
0000
0100
0000
0000
0000
0001
0000
0000
0000
0010
0M00
0010
0000
,  // measure 34
1000
0000
0000
0000
0001
0000
0000
0000
1000
0000
0000
0000
0100
00M0
0100
0000
,  // measure 35
0002
0000
0020
0033
,  // measure 36
0220
0000
0000
0000
0330
0000
0000
0000
0001
0000
0000
0000
0010
0M00
0010
0000
,  // measure 37
1000
0000
0000
0000
0100
0000
0000
0000
1000
0000
0000
0000
0010
0M00
0010
0000
,  // measure 38
0001
0000
0000
0000
1000
0000
0000
0000
0001
0000
0000
0000
0100
00M0
0100
0000
,  // measure 39
1000
0010
0100
0001
,  // measure 40
0010
0200
0300
2000
,  // measure 41
3000
0020
0030
0200
,  // measure 42
0300
0002
0003
0020
,  // measure 43
0030
2000
3000
0010
,  // measure 44
0100
0100
1000
1000
,  // measure 45
0010
0010
0100
0100
,  // measure 46
0001
1000
0001
1000
0001
1000
0001
1000
,  // measure 47
0001
0000
0100
0110
,  // measure 48
2002
3003
1000
0100
,  // measure 49
0001
0100
1000
0010
,  // measure 50
0100
0000
0000
0000
0001
1000
0001
0000
,  // measure 51
0010
1000
0010
0001
,  // measure 52
0100
0000
0010
0100
0001
1000
0100
0000
,  // measure 53
0001
0100
1000
0010
,  // measure 54
0100
0000
0000
0000
0001
1000
0001
0000
,  // measure 55
0010
1000
0010
0001
,  // measure 56
2000
0000
0000
0000
0000
0000
3010
0100
,  // measure 57
0110
0000
1010
0000
0110
0000
0001
1000
,  // measure 58
1001
0000
1100
0000
1001
0000
0010
0001
,  // measure 59
0011
0000
0101
0000
0100
0000
0010
1000
,  // measure 60
0100
0000
1100
0000
0101
0000
0001
0010
,  // measure 61
0011
0000
1010
0000
0011
0000
1000
0010
,  // measure 62
1010
0000
0011
0000
1010
0000
1000
0001
,  // measure 63
1000
0100
0010
0001
,  // measure 64
0100
00M0
0100
0000
1000
0000
0000
0000
0010
0000
0000
0000
0100
0000
0000
0000
,  // measure 65
0010
0M00
0010
0000
0001
0000
0000
0000
1000
0000
0000
0000
0100
0000
0000
0000
,  // measure 66
0010
000M
0010
0000
1000
0000
0000
0000
0001
0000
0000
0000
0010
0000
0000
0000
,  // measure 67
0100
M000
0100
0000
0001
0000
0000
0000
0100
0000
0000
0000
0010
0000
0000
0000
,  // measure 68
0100
000M
0100
0000
1000
0000
0000
0000
0010
0000
0000
0000
1000
0000
0000
0000
,  // measure 69
0100
00M0
0100
0000
0001
0000
0000
0000
0010
0000
0000
0000
0001
0000
0000
0000
,  // measure 70
0010
0M00
0010
0000
1000
0000
0000
0000
0001
0000
0000
0000
1000
0000
0000
0000
,  // measure 71
0010
0M00
0010
0000
0001
0000
0000
0000
0100
0000
0000
0000
1000
00M0
1000
0000
;

//---------------dance-single - FS+ XO SS RH----------------
#NOTES:
     dance-single:
     FS+ XO SS RH-:
     Hard:
     13:
     0,0,0,0,0:
// measure 0
0000
0000
0000
0000
,  // measure 1
0000
0000
0000
0000
,  // measure 2
0000
0000
0000
0000
,  // measure 3
0000
0000
0000
0000
,  // measure 4
1000
0000
0100
0000
1000
0000
0010
0100
0000
0001
0000
0100
0010
0000
1000
0000
,  // measure 5
0001
0000
0010
0100
0000
1000
0000
0010
0000
0100
0000
0010
1000
0000
0001
0000
,  // measure 6
0010
0000
0100
0000
0010
0000
0001
1000
0000
0010
0000
1000
0001
0000
0010
0000
,  // measure 7
0100
0000
1000
0010
0000
0100
0000
0001
0000
1000
0000
0100
0010
0000
0001
0000
,  // measure 8
2001
0000
0000
0000
3010
0000
0000
0102
0000
0000
0000
0000
0013
0000
0100
0000
,  // measure 9
2100
0000
0000
0000
3010
0000
0000
0210
0000
0000
0000
0000
0301
0000
0010
0000
,  // measure 10
0012
0000
0000
0000
1003
0000
0000
2010
0000
0000
0000
0000
3100
0000
0010
0000
,  // measure 11
0210
0000
0000
0000
1300
0000
0000
2001
0000
0000
0000
0000
3001
1000
0001
1000
,  // measure 12
0020
0000
0000
0000
0130
0000
0000
0201
0000
0000
0000
0000
0310
0000
1000
0000
,  // measure 13
1002
0000
0000
0000
0013
0000
0000
0120
0000
0000
0000
0000
0031
0000
1000
0000
,  // measure 14
1200
0000
0000
0000
0310
0000
0000
0120
0000
0000
0000
0000
0031
0000
1000
0000
,  // measure 15
1020
0000
0000
0000
0230
0000
0000
0000
0301
0100
0000
0001
0100
0000
0001
0000
,  // measure 16
0010
0200
1300
0200
,  // measure 17
0310
0200
1300
0200
,  // measure 18
0310
0020
0031
0020
,  // measure 19
0130
0000
0020
0000
0031
0000
1000
0010
,  // measure 20
0100
0000
0010
1000
0001
0000
0010
0100
,  // measure 21
1000
0000
0001
0100
0010
0000
0100
0010
,  // measure 22
1000
0001
1000
0001
0000
0010
0001
0010
0000
0001
0100
0001
0000
1000
0100
1000
,  // measure 23
0100
0000
0000
0000
1000
0010
0100
0000
,  // measure 24
1002
0000
0000
0000
0013
0000
1000
0000
0010
0000
0100
000M
0100
000M
0100
0000
,  // measure 25
1000
0010
0000
0100
0010
0000
0001
0000
0010
0000
0100
M000
0100
M000
0100
0000
,  // measure 26
0002
0000
0000
0000
0103
0000
1000
0000
0100
0000
0010
000M
0010
000M
0010
0000
,  // measure 27
2000
0100
3002
0013
,  // measure 28
2001
0000
0000
0000
3010
0000
0001
0000
0010
0000
0100
M000
0100
M000
0100
0000
,  // measure 29
0001
0010
0000
0100
0010
0000
1000
0000
0010
0000
0100
000M
0100
000M
0100
0000
,  // measure 30
2000
0000
0000
0000
3100
0000
0001
0000
0100
0000
0010
M000
0010
M000
0010
0000
,  // measure 31
0001
0000
1000
0000
0010
0000
0100
0001
0000
1000
0000
0100
0010
0000
0001
0000
,  // measure 32
1002
0000
0000
0000
0103
0000
1000
0000
0100
0000
0010
000M
0010
000M
0010
0000
,  // measure 33
1000
0100
0000
0010
0100
0000
0001
0000
0100
0000
0010
M000
0010
M000
0010
0000
,  // measure 34
0002
0000
0000
0000
0013
0000
1000
0000
0010
0000
0100
000M
0100
000M
0100
0000
,  // measure 35
2000
0010
3002
0103
,  // measure 36
2001
0000
0000
0000
3100
0000
0001
0000
0100
0000
0010
M000
0010
M000
0010
0000
,  // measure 37
0001
0100
0000
0010
0100
0000
1000
0000
0100
0000
0010
000M
0010
000M
0010
0000
,  // measure 38
2000
0000
0000
0000
3010
0000
0001
0000
0010
0000
0100
M000
0100
M000
0100
0000
,  // measure 39
0001
0000
0010
0000
0100
0000
1000
0010
0000
0100
0000
0010
1000
0000
0001
0000
,  // measure 40
0010
0110
0100
1100
,  // measure 41
1000
1010
0010
0110
,  // measure 42
0100
0101
0001
0011
,  // measure 43
0010
0000
0110
0000
0100
0000
1000
0010
,  // measure 44
0100
0000
0010
0100
0001
0000
1000
0100
,  // measure 45
0010
0000
0100
1000
0010
0000
0100
0001
,  // measure 46
0010
0100
0010
0100
0000
1000
0100
1000
0000
0010
1000
0010
0000
0100
0001
0100
,  // measure 47
0001
0000
0000
0000
1000
0100
0010
0000
,  // measure 48
1002
0000
0000
0000
0103
0000
1000
0000
0100
0000
0010
000M
0010
0000
0100
0000
,  // measure 49
0001
0100
1000
0010
0001
0010
1000
0100
,  // measure 50
0010
0000
0000
0000
0000
0001
0000
0000
0000
0000
1000
0000
0000
0000
0000
0001
0000
0000
0000
0000
1000
0000
0000
0000
0010
0000
0000
0000
0000
0000
0100
0000
0000
0000
0000
0000
0001
0000
0000
0000
0000
0000
0010
0000
0000
0000
0000
0000
,  // measure 51
1000
0010
0001
0100
1000
0100
0001
0010
,  // measure 52
1000
0000
0010
0000
0100
0000
1000
0000
0000
0001
0000
0000
0100
0000
0000
0010
0000
0000
0001
0000
0000
0010
0000
0000
,  // measure 53
1000
0001
0010
1000
0010
0001
1000
0010
,  // measure 54
0001
0000
0000
0000
0000
0010
0000
0000
0000
0000
0100
0000
0000
0000
0000
0010
0000
0000
0000
0000
0100
0000
0000
0000
0001
0000
0000
0000
0000
0000
1000
0000
0000
0000
0000
0000
0100
0000
0000
0000
0000
0000
0001
0000
0000
0000
0000
0000
,  // measure 55
0100
1000
0001
0100
1000
0100
0001
1000
,  // measure 56
0200
0010
0000
0010
0000
0310
0001
1000
,  // measure 57
0100
0000
0001
M000
0001
0000
0010
0000
0100
M000
0100
0000
0001
0000
0000
0000
,  // measure 58
0100
0000
1000
000M
1000
0000
0010
0000
0100
000M
0100
0000
1000
0000
0000
0000
,  // measure 59
0010
0000
0001
M000
0001
0000
0100
0000
0010
0000
0000
0000
1000
0000
0000
0000
,  // measure 60
1002
0000
0000
0000
0013
0000
1000
000M
1000
0000
0100
0000
0010
000M
0010
0000
,  // measure 61
0100
0000
1000
000M
1000
0000
0010
0000
0100
000M
0100
0000
1000
0000
0000
0000
,  // measure 62
0100
0000
0001
M000
0001
0000
0010
0000
1000
000M
1000
0000
0100
0000
0000
0000
,  // measure 63
0010
0000
0001
0000
1000
0000
0010
0100
0000
0001
0000
0010
0100
0000
0010
0000
,  // measure 64
0001
0000
0100
0000
0010
0000
1000
0100
00M0
0100
0000
0001
0010
0000
0100
0000
,  // measure 65
1000
0000
0010
0100
0000
1000
000M
1000
0000
0010
0000
0100
0001
0000
0010
0000
,  // measure 66
0100
0000
1000
0000
0001
0000
0100
0010
M000
0010
0000
0001
1000
0000
0100
0000
,  // measure 67
0010
0000
0001
0010
0000
1000
000M
1000
0000
0100
0000
0010
0001
0010
0001
0000
,  // measure 68
0100
0000
0001
0000
1000
0000
0010
0100
000M
0100
0000
1000
0001
0000
0010
0000
,  // measure 69
0100
0000
1000
0010
0000
0001
M000
0001
0000
0100
0000
0010
1000
0000
0100
0000
,  // measure 70
0010
0000
0001
0000
1000
0000
0010
0100
000M
0100
0000
1000
0010
0000
0100
0000
,  // measure 71
0001
0000
0010
0100
0000
0001
M000
0001
0000
0010
0M00
0010
1000
0000
0100
0000
;

//---------------dance-single - FS+ XO SS RH----------------
#NOTES:
     dance-single:
     FS+ XO SS RH-:
     Challenge:
     17:
     0,0,0,0,0:
// measure 0
0000
0000
0000
0000
,  // measure 1
0000
0000
0000
0000
,  // measure 2
0000
0000
0000
0000
,  // measure 3
0000
0000
0000
0000
,  // measure 4
1000
0000
0010
0000
0100
0000
0001
0010
M000
0010
0000
1000
0100
0010
0001
0000
,  // measure 5
0100
0000
0001
0010
M000
0010
0000
0100
000M
0100
0000
1000
0010
0000
1000
0000
,  // measure 6
0001
0000
0010
0000
0001
0000
1000
0100
000M
0100
0000
0001
0010
0100
1000
0000
,  // measure 7
0010
0000
1000
0100
000M
0100
0000
0010
M000
0010
0000
0001
1000
0000
0010
0000
,  // measure 8
0210
0000
0000
0000
0301
1000
0100
0020
0000
0000
0000
0000
0031
1000
0010
1000
,  // measure 9
0002
0000
0000
0000
0013
0100
1000
0020
0000
0000
0000
0000
0130
0010
0001
0000
,  // measure 10
0020
0000
0000
0000
1030
0001
0010
0200
0000
0000
0000
0000
0310
0001
0100
0010
,  // measure 11
2000
0000
0000
0000
3100
1000
0001
0200
0000
0000
0000
0000
1300
0100
0010
0100
,  // measure 12
0002
0000
0000
0000
1003
0100
1000
0020
0000
0000
0000
0000
0130
0001
1000
0100
,  // measure 13
0020
0000
0000
0000
0130
1000
0010
0200
0000
0000
0000
0000
0310
0100
1000
0000
,  // measure 14
0200
0000
0000
0000
0301
0010
0100
2000
0000
0000
0000
0000
3010
0100
0001
1000
,  // measure 15
0200
0000
0300
0000
0200
0000
0300
1000
0010
0100
000M
0100
1000
0000
0001
0000
,  // measure 16
0010
0002
0103
0002
,  // measure 17
1003
0002
0013
0002
,  // measure 18
1003
2000
3100
2000
,  // measure 19
3010
0000
0000
0000
2000
0000
0000
0000
3001
0000
0000
0010
0001
0100
0010
1000
,  // measure 20
0100
0100
1000
1000
0010
0010
0100
0100
,  // measure 21
0001
0001
0010
0010
0001
0001
1000
1000
,  // measure 22
0100
1000
0010
0100
0010
1000
0100
0010
0001
0100
0010
0100
0001
0010
0100
0010
,  // measure 23
1000
0000
0000
0000
0000
0000
0010
0000
0001
0000
0100
M000
0100
0000
0000
0000
,  // measure 24
2001
0000
0000
0000
3010
0000
0001
0000
0010
0100
0100
0100
0001
0100
0100
0100
,  // measure 25
0010
1000
0000
0001
0010
0000
1000
0000
0010
0100
0100
0100
1000
0100
0100
0100
,  // measure 26
0020
0000
0030
000M
0010
0100
1000
0000
0100
0010
0010
0010
1000
0010
0010
0010
,  // measure 27
0100
0000
0001
0000
0010
0100
1000
0100
0010
000M
0010
0100
0001
1000
0100
0000
,  // measure 28
1002
0000
0000
0000
0013
0000
1000
0000
0010
0100
0100
0100
1000
0100
0100
0100
,  // measure 29
0010
0001
0000
1000
0010
0000
0001
0000
0010
0100
0100
0100
0001
0100
0100
0100
,  // measure 30
0020
0000
0030
M000
0010
0100
0001
0000
0100
0010
0010
0010
0001
0010
0010
0010
,  // measure 31
0100
1000
0010
0000
0100
0000
0001
0010
000M
0010
0000
1000
0001
0010
0100
1000
,  // measure 32
0020
0000
0000
0000
0130
0000
1000
0000
0100
0010
0010
0010
1000
0010
0010
0010
,  // measure 33
0100
0001
0000
1000
0100
0000
0001
0000
0100
0010
0010
0010
0001
0010
0010
0010
,  // measure 34
0200
0000
0300
M000
0100
0010
0001
0000
0010
0100
0100
0100
0001
0100
0100
0100
,  // measure 35
0010
0000
1000
0000
0001
0010
0100
1000
0010
000M
0010
0001
0100
0010
1000
0000
,  // measure 36
2001
0000
0000
0000
3100
0000
0001
0000
0100
0010
0010
0010
0001
0010
0010
0010
,  // measure 37
0100
1000
0000
0001
0100
0000
1000
0000
0100
0010
0010
0010
1000
0010
0010
0010
,  // measure 38
0200
0000
0300
000M
0100
0010
1000
0000
0010
0100
0100
0100
1000
0100
0100
0100
,  // measure 39
0010
0001
1000
0000
0010
0000
1000
0100
000M
0100
0000
0001
0010
0100
1000
0010
,  // measure 40
0100
0101
0001
1001
,  // measure 41
1000
1100
0100
0110
,  // measure 42
0010
0011
0001
1001
,  // measure 43
1000
0000
0000
0000
1100
0000
0000
0000
0100
0000
0000
0010
0001
1000
0010
0100
,  // measure 44
0001
0001
0010
0010
0100
0100
1000
1000
,  // measure 45
0001
0001
0100
0100
0010
0010
1000
1000
,  // measure 46
0100
1000
0010
0100
1000
0100
0010
1000
0100
0010
0001
0100
0010
0001
0010
0100
,  // measure 47
1000
0000
0000
0000
0000
0000
0100
0000
0001
0000
0010
0M00
0010
0000
0000
0000
,  // measure 48
2001
0000
0000
0000
3010
0000
0001
0000
0010
0100
0100
0100
0001
1000
0100
0010
,  // measure 49
0100
1000
0010
0100
0001
0010
0100
0010
0001
0100
0010
1000
0100
0010
0001
1000
,  // measure 50
0010
0000
0000
0000
0000
0000
0000
0000
0000
0000
0100
0000
0000
0000
0000
000M
0000
0000
0000
0000
0100
0000
0000
0000
0000
000M
0000
0000
0000
0000
0100
0000
0000
0000
0000
000M
0000
0000
0000
0000
0100
0000
0000
0000
0000
0000
0000
0000
1000
0000
0000
0000
0000
0000
0000
0000
0000
0000
0000
0000
0010
0000
0000
0000
0000
0000
0000
0000
0000
0000
0000
0000
1000
0000
0000
0000
0000
0000
0001
0000
0000
0000
0000
0000
0010
0000
0000
0000
0000
0000
0001
0000
0000
0000
0000
0000
,  // measure 51
0100
0010
1000
0100
1000
0010
0100
0010
1000
0001
0010
0100
1000
0010
0100
0001
,  // measure 52
1000
0000
0000
0000
0100
0000
00M0
0000
0100
0000
0000
0000
0001
0000
0000
0000
0000
0000
0010
0000
0000
0M00
0000
0000
0010
0000
0000
0000
0000
0000
1000
0000
0000
0000
0000
0000
0100
0000
0000
0010
0000
0000
0100
0000
0000
1000
0000
0000
,  // measure 53
0010
0100
0001
0010
0001
1000
0010
0100
0001
1000
0100
0010
0100
1000
0010
0100
,  // measure 54
0001
0000
0000
0000
0000
0000
0000
0000
0000
0000
0010
0000
0000
0000
0000
0M00
0000
0000
0000
0000
0010
0000
0000
0000
0000
0M00
0000
0000
0000
0000
0010
0000
0000
0000
0000
0M00
0000
0000
0000
0000
0010
0000
0000
0000
0000
0000
0000
0000
1000
0000
0000
0000
0000
0000
0000
0000
0000
0000
0000
0000
0100
0000
0000
0000
0000
0000
0000
0000
0000
0000
0000
0000
0010
0000
0000
0000
0000
0000
0001
0000
0000
0000
0000
0000
1000
0000
0000
0000
0000
0000
0010
0000
0000
0000
0000
0000
,  // measure 55
0100
0010
1000
0100
0010
0001
0100
0001
0010
0100
0010
0001
0100
0010
1000
0100
,  // measure 56
0010
0000
0100
0000
1000
0000
0100
0000
0010
0000
0001
0000
0100
00M0
0100
0000
,  // measure 57
0010
0100
0001
M000
0001
0010
0100
M000
0100
0010
1000
0000
0100
0000
1000
0000
,  // measure 58
0010
0100
1000
000M
1000
0010
0100
000M
0100
0010
0001
0000
1000
0000
0010
1000
,  // measure 59
0100
0010
1000
000M
1000
0100
0010
000M
0010
0000
0100
0001
1000
0100
0010
0000
,  // measure 60
2001
0000
0000
0000
3010
0100
1000
000M
1000
0010
0001
M000
0001
0100
0010
1000
,  // measure 61
0100
0010
1000
000M
1000
0100
0001
M000
0001
0010
0100
0000
1000
0000
0010
0000
,  // measure 62
0001
0010
1000
0M00
1000
0100
0001
00M0
0001
0010
1000
0000
0001
0000
0010
0100
,  // measure 63
1000
0010
0100
0000
0001
0000
0100
0010
000M
0010
0000
0100
1000
0010
1000
0001
,  // measure 64
0010
0100
1000
0000
0010
0000
1000
0100
00M0
0100
0000
0001
0010
0100
1000
0010
,  // measure 65
0100
0000
0010
0001
M000
0001
0000
0100
000M
0100
0000
1000
0010
0000
0100
0000
,  // measure 66
0001
1000
0100
0000
0010
0000
0001
0100
00M0
0100
0000
0010
0001
0010
0100
1000
,  // measure 67
0010
0000
0100
1000
000M
1000
0000
0010
M000
0010
0000
0001
0100
0100
1000
0000
,  // measure 68
0100
0010
0001
0000
0100
0000
0001
0010
0M00
0010
0000
1000
0010
0100
0001
0010
,  // measure 69
0100
0000
0010
1000
000M
1000
0000
0100
00M0
0100
0000
0001
0010
0000
0100
0000
,  // measure 70
1000
0001
0100
0000
0010
0000
1000
0100
000M
0100
0000
0010
1000
0100
0010
0001
,  // measure 71
0100
0000
0010
0001
M000
0001
0000
0100
00M0
0100
0000
1000
0010
0000
0001
0000
;
