#TITLE:Chicken Wing;
#SUBTITLE:;
#ARTIST:Banya;
#TITLETRANSLIT:;
#SUBTITLETRANSLIT:;
#ARTISTTRANSLIT:;
#GENRE:;
#CREDIT:;
#MUSIC:Chicken Wing.ogg;
#BANNER:Chicken Wing-bn.png;
#BACKGROUND:Chicken Wing-bg.png;
#CDTITLE:;
#SAMPLESTART:4.974;
#SAMPLELENGTH:14.400;
#SELECTABLE:YES;
#OFFSET:-0.181;
#BPMS:0.000=200.000;
#STOPS:;
#BGCHANGES:;
#FGCHANGES:;

//--------------- dance-single - Peter ----------------
#NOTES:
     dance-single:
     Peter:
     Beginner:
     6:
     0,0,0,0,0:
0000
0000
0000
0000
,
0000
0000
0000
0000
,
0000
0000
0000
0000
,
0000
0000
0000
0000
,
1001
0000
1000
0000
,
0100
0000
0010
0000
,
1001
0000
0001
0000
,
0010
0000
0100
0000
,
1000
0000
0000
0000
,
0010
0000
0000
0000
,
0001
0000
0000
0000
,
0010
0000
0000
0000
,
1001
0000
0001
0000
,
0100
0000
0010
0000
,
1001
0000
1000
0000
,
0010
0000
0100
0000
,
0001
0000
0010
0000
,
1000
0000
0010
0000
,
0001
0000
1000
0000
,
0002
0000
0000
0000
,
1003
0000
0100
0000
,
0001
0000
0100
0000
,
1000
0000
0001
0000
,
0100
0000
0001
0000
,
1000
0000
0010
0000
,
0001
0000
0010
0000
,
1000
1000
1000
1000
,
1000
1000
1000
1000
,
1001
0000
0001
0000
,
0010
0000
0100
0000
,
1001
0000
1000
0000
,
0010
0000
0100
0000
,
0001
0000
0010
0000
,
1000
0000
0000
0000
,
0001
0000
0100
0000
,
2000
0000
0000
3000
,
2002
3003
0000
0000
,
2002
3003
0000
0000
,
1000
0000
0001
0000
,
2002
0000
0000
3003
,
1000
0000
0000
0000
,
0100
0000
0000
0000
,
0010
0000
0000
0000
,
0001
0000
0000
0000
,
0100
0000
1000
0000
,
0100
0000
0001
0000
,
0010
0000
0100
0000
,
1000
0000
0000
0000
,
0001
0000
0000
0000
,
0100
0010
0000
0000
,
1000
0000
0000
0100
,
0010
0000
0000
0000
,
0001
1000
0010
0100
,
0010
0000
0000
1000
,
0001
0010
0100
0010
,
0001
0000
0000
0000
,
1000
0010
1000
0010
,
1000
0001
0010
0000
,
0001
0100
0010
1000
,
0001
0010
0100
0000
,
1000
0010
0100
0000
,
0001
0010
0100
0000
,
1000
0010
0100
0001
,
0010
0000
0000
0000
,
1001
0000
1000
0000
,
0100
0000
0010
0000
,
1001
0000
0001
0000
,
0100
0000
0010
0000
,
1000
0000
0100
0000
,
0001
0000
1000
0000
,
0010
0000
0001
0000
,
0100
0000
0010
0000
,
1000
0000
0010
0000
,
0001
0000
0010
0000
,
1000
0001
1000
0001
,
1000
0001
1000
0001
,
2002
3003
0000
0000
,
2002
3003
0000
0000
,
2002
0000
0000
0000
,
3003
0000
0000
0000
;

//--------------- dance-single - Peter ----------------
#NOTES:
     dance-single:
     Peter:
     Easy:
     9:
     0,0,0,0,0:
0000
0000
0000
0000
,
0000
0000
0000
0000
,
0000
0000
0000
0000
,
0000
0000
0000
0000
,
2002
3003
1000
0000
0100
0000
0000
0001
,
0000
0100
0000
0000
1100
0000
0001
0000
,
2002
3003
0001
0000
0100
0000
0000
1000
,
0000
0100
0000
0000
0101
0000
1000
0000
,
0001
0000
0010
0000
,
1000
0000
0000
0010
0000
0000
0000
0000
,
0001
0000
0100
0000
,
1000
0000
0000
0100
0000
0000
0000
0000
,
2002
3003
0001
0000
0010
0000
0000
1000
,
0000
0010
0000
0000
0011
0000
1000
0000
,
2002
3003
1000
0000
0010
0000
0000
0001
,
0000
0010
0000
0000
1010
0000
0001
0000
,
1000
0100
0010
0001
,
1000
0001
0010
0100
,
1000
0001
0100
0010
,
2000
0000
0000
0000
,
3001
0000
0010
0000
1000
0000
0000
0010
,
0000
0200
0000
0300
,
1000
0000
0010
0000
0100
0000
0000
0001
,
0000
1000
1001
0000
,
0001
0000
0100
0000
1000
0000
0000
0100
,
0000
0020
0000
0030
,
1000
1000
0100
0100
,
0010
0010
0001
0001
,
2002
3003
1000
0000
0010
0000
0000
0001
,
0000
0010
0000
0000
1010
0000
0001
0000
,
2002
3003
0001
0000
0010
0000
0000
1000
,
0000
0010
0000
0000
0011
0000
1000
0000
,
0001
1000
0010
0100
,
0001
1000
0100
0010
,
0001
1000
0010
0100
,
0001
0001
0001
0001
,
2002
3003
0000
0000
2002
3003
0000
0000
,
2002
3003
2002
3003
2002
3003
2002
3003
,
1000
0100
0010
0001
,
2002
0000
0000
3003
,
1000
0000
0000
0000
,
0001
0000
0000
0000
,
0100
0000
0000
0000
,
0010
0000
0000
0000
,
1000
0100
1000
0100
,
0010
0001
1000
0001
,
1000
0010
1000
0010
,
0100
0001
1000
0001
,
1000
0000
0100
0000
1000
0000
0100
0010
,
0001
1000
0100
1000
,
0010
1000
0010
0100
,
0001
0100
0001
0100
,
0001
0010
0100
0000
1000
0010
0100
0000
,
0001
1000
0100
0010
,
0001
0000
0100
0000
0010
0100
0001
0000
,
2000
0000
0000
0000
3000
0000
0100
0010
,
0001
0100
1000
0100
,
0001
1000
0010
0100
,
0001
0010
0100
0000
0010
0100
1000
0000
,
0001
0100
0010
0000
1000
0000
0001
0000
,
1000
0000
0100
0000
0010
0100
1000
0000
,
0001
0000
0100
0000
0010
0100
0001
0000
,
1000
0000
0100
0000
0010
0001
1000
0000
,
0001
0010
0001
0010
0001
0010
0001
0000
,
2002
3003
0001
0000
0100
0000
0000
1000
,
0000
0100
0000
0000
0101
0000
1000
0000
,
2002
3003
1000
0000
0100
0000
0000
0001
,
0000
0100
0000
0000
1100
0000
0001
0000
,
1000
0100
1000
0010
,
0001
0000
0010
1000
0000
0000
0000
0000
,
0001
0010
0001
0100
,
1000
0000
0100
0001
0000
0000
0000
0000
,
1000
0010
1000
0100
,
0001
0000
0100
1000
0000
0000
0000
0000
,
0001
0010
1000
0010
,
0001
0000
0100
0000
1000
0100
0001
0000
,
2002
3003
0000
0000
2002
3003
0000
0000
,
2002
3003
2002
3003
2002
3003
2002
3003
,
2002
3003
0100
0000
0010
0000
0100
0000
,
2002
0000
3003
0000
;

//--------------- dance-single - Peter ----------------
#NOTES:
     dance-single:
     Peter:
     Medium:
     13:
     0,0,0,0,0:
0000
0000
0000
0000
,
0000
0000
0000
0000
,
0000
0000
0000
0000
,
0000
0000
0000
0000
,
2002
3003
1000
0000
0100
0001
0000
0100
,
0000
0100
0000
0000
1100
0000
0110
0000
,
2002
3003
0001
0000
0100
1000
0000
0100
,
0000
0100
0000
0000
0101
0000
1001
0000
,
1000
0100
1000
0001
,
1000
0000
0010
0100
0000
0000
0000
0000
,
0001
0010
0001
1000
,
0001
0000
0010
0100
0000
0000
0000
0000
,
2002
3003
0001
0000
0010
1000
0000
0010
,
0000
0010
0000
0000
0011
0000
0110
0000
,
2002
3003
1000
0000
0010
0001
0000
0010
,
0000
0010
0000
0000
1010
0000
1001
0000
,
1000
0100
0010
0001
,
1000
0001
0010
0100
,
1000
0001
0100
0010
1000
0001
0100
0010
,
2000
0000
0000
0000
,
3001
0000
0010
0000
0001
0100
0000
0010
,
0000
0000
1000
0002
0000
0000
0003
0000
,
1000
0000
0100
0000
0010
1000
0000
0010
,
0000
0001
1000
0000
2002
0000
3003
0000
,
1000
0000
0100
0000
1000
0010
0000
0100
,
0000
0000
0001
2000
0000
0000
3000
0000
,
0200
0000
0320
0000
,
0032
0000
0000
0000
2003
0000
0000
3000
,
1001
0000
1000
0000
0010
0001
0000
0010
,
0000
0010
0000
0000
1010
0000
0110
0000
,
1001
0000
0001
0000
0010
1000
0000
0010
,
0000
0010
0000
0000
0011
0000
1001
0000
,
1000
0100
0000
0010
0000
0001
0000
1000
,
0001
1000
0000
0010
0000
0100
0000
0001
,
1000
0100
0000
0010
0000
0001
0000
1000
,
0001
1000
0000
0010
0000
0100
0000
0001
,
2002
3003
0000
0000
0220
0330
0000
0000
,
2002
3003
0220
0330
2002
3003
0220
0330
,
0000
1100
0000
0101
0000
0011
0000
1010
,
2002
0000
0000
3003
,
1000
0000
0100
0000
,
0001
0000
0100
0000
,
1000
0000
0010
0000
,
0001
0000
0010
0000
,
1000
1100
0000
0011
,
0000
1010
0000
0101
,
0000
0110
0000
1001
,
0002
0000
0000
0000
,
1003
0100
1000
0100
1000
0100
1000
0001
,
0010
0001
0100
0001
0100
0001
0100
0001
,
1000
0001
1000
0001
1000
0001
0010
0100
,
0010
0001
0010
0001
0010
0001
0010
0000
,
0001
0010
0100
0010
0001
0100
0010
1000
,
0010
0100
0010
1000
0100
0010
0001
1000
,
0001
0010
0001
1000
0010
0100
0010
0100
,
0020
0000
0000
0000
0030
0000
1000
0001
,
1000
0100
0001
0100
1000
0100
0001
0100
,
1000
0100
0001
1000
0010
0001
0020
0000
,
0031
0100
0010
0001
0010
1000
0001
0010
,
0100
1000
0001
0100
0010
0000
2000
0000
,
3001
1000
0100
0010
0100
0001
0100
0010
,
0001
1000
0010
1000
0100
0010
0001
1000
,
0010
0001
0010
1000
0001
1000
0010
0100
,
0001
0010
0001
0010
0001
0010
0002
0003
,
2002
3003
0001
0000
0100
1000
0000
0100
,
0000
0100
0000
0000
0101
0000
0110
0000
,
2002
3003
1000
0000
0100
0001
0000
0100
,
0000
0100
0000
0000
1100
0000
1001
0000
,
1000
0010
1000
0001
,
1000
0000
0100
0010
0000
0000
0000
0000
,
0001
0100
0001
1000
,
0001
0000
0100
0010
0000
0000
0000
0000
,
1000
0100
1000
0010
,
1000
0000
0100
0010
0000
0000
0000
0000
,
0000
0011
0000
0101
0000
1100
0000
1010
,
0000
0001
1000
0100
0010
0001
1000
0001
,
2002
3003
0000
0000
0220
0330
0000
0000
,
2002
3003
0220
0330
2002
3003
0220
0330
,
2002
0000
0000
3003
,
2002
0000
3003
0000
;

//--------------- dance-single - Peter ----------------
#NOTES:
     dance-single:
     Peter:
     Hard:
     16:
     0,0,0,0,0:
0000
0000
0000
0000
,
0000
0000
0000
0000
,
0000
0000
0000
0000
,
0000
0000
0000
0000
,
2002
3003
1000
0100
0001
0100
0000
0100
,
0000
1000
0000
0000
1001
0000
0110
0000
,
2002
3003
0001
0100
1000
0100
0000
0100
,
0000
0001
0000
0000
1001
0000
0110
0000
,
0000
0000
1100
1100
0000
0000
1100
0000
,
0000
0000
0101
0101
0000
0000
0101
0000
,
0000
0000
0110
0110
0000
0000
0110
0000
,
0000
0000
0000
0000
1001
0000
1001
0000
0000
0000
1000
0001
1000
0001
1000
0000
,
2002
3003
0001
0010
1000
0010
0000
0010
,
0000
0001
0000
0000
1001
0000
0110
0000
,
1001
0000
1000
0010
0001
0010
0000
0010
,
0000
1000
0000
0000
1001
0000
0110
0000
,
0000
0000
1010
1010
0000
0000
1010
0000
,
0000
0000
0011
0011
0000
0000
0011
0000
,
0000
0000
0110
0110
0000
0000
0110
0000
,
0000
0000
1000
0100
0010
0000
0001
0100
0010
0000
1000
0001
1000
0001
1000
0001
,
1000
0000
0100
1000
0001
0100
0000
0020
,
0000
0030
0100
0002
0000
0000
0003
0000
,
1000
0000
0100
0010
0001
0010
0000
2000
,
0000
3020
0032
0003
2002
0000
3003
0000
,
0001
0000
0100
0001
1000
0100
0000
0020
,
0000
0030
0100
2000
0000
0000
3000
0000
,
0010
0010
0010
0010
0010
0010
0010
0010
,
1000
1000
1000
1000
0001
0001
0001
0001
,
2002
3003
1000
0010
0001
0010
0000
0010
,
0000
1000
0000
0000
1001
0000
0110
0000
,
2002
3003
0001
0010
1000
0010
0000
0010
,
0000
0001
0000
0000
1001
0000
0110
0000
,
1000
1100
0100
0110
,
0010
0011
0001
1001
,
1000
1010
0010
0110
,
0100
0000
0000
0000
0101
0000
0000
0000
0001
0100
0001
0100
0010
1000
0001
0000
,
2002
3003
0000
0000
2002
3003
0000
0000
,
2002
3003
2002
3003
2002
3003
2002
3003
,
1000
0100
0001
0100
1000
0100
0001
0100
,
1100
1010
0011
0101
,
1000
0000
0000
0100
0000
0000
1000
0000
,
0001
0000
0000
0100
0000
0000
0010
0000
,
1000
0000
0000
0100
0000
0000
1000
0000
,
0001
0000
0000
0100
0000
0000
0010
0000
,
1000
1010
0010
0110
,
0100
0101
0001
1001
,
0100
0110
0001
1001
,
1000
0100
1000
0100
0010
0001
0010
0001
1000
0010
1000
0010
0100
0001
0100
0001
,
1000
0000
0100
0000
1000
0000
0100
0000
1000
0000
0100
0000
1000
0000
0100
0010
,
0001
0100
0001
0010
0001
0010
0001
0010
,
0100
0010
0100
0010
0100
0010
0100
1000
,
0001
1000
0001
1000
0001
1000
0002
0000
,
1003
0001
0000
0000
0001
0010
0100
1000
0001
0100
0010
0000
1000
0010
0100
0000
,
0002
0000
0000
0000
1003
0100
0010
0001
,
1000
0010
1000
0000
0001
0100
0001
0000
1000
0010
1000
0010
1000
0000
0000
0000
,
0002
0000
0000
0000
0000
0000
0000
0000
1003
0100
1000
0100
0010
0001
0010
0001
,
2000
3020
2030
3020
,
2030
0000
0000
0000
3002
0000
0000
0000
0023
0000
0130
0010
0002
0000
0000
0000
,
1003
0000
1000
0001
0010
0000
0010
0100
1000
0000
1000
0001
0100
0000
0100
0010
,
1000
0001
0010
0000
0010
0100
1000
0000
1000
0001
0100
0000
0200
0000
0000
0000
,
0301
0000
1000
0000
0010
0100
0001
0000
0010
0001
0010
0001
0010
0000
0000
0000
,
0001
0000
0000
0100
0000
0000
0010
0000
0000
0000
0000
0000
1000
0000
0000
0010
0000
0000
0100
0000
0000
0000
0000
0000
0001
0000
0000
0000
1000
0000
0000
0000
0001
0000
0000
0000
1000
0000
0000
0000
0000
0000
0000
0000
0000
0000
0000
0000
,
0001
0000
0001
1000
0010
0000
0010
0100
0001
0000
1000
0000
0001
1000
0100
0000
,
0010
0001
0010
0001
1000
0100
1000
0100
0010
0100
0010
0100
1000
0001
1000
0000
,
2002
3003
0001
0100
1000
0100
0000
0100
,
0000
0001
0000
0000
1001
0000
0110
0000
,
2002
3003
1000
0100
0001
0100
0000
0100
,
0000
1000
0000
0000
1001
0000
0110
0000
,
1000
1010
0010
0110
,
0100
0101
0001
1001
,
0001
0011
0010
0110
,
0100
1100
1000
1001
,
0100
0110
0001
1001
,
0010
0110
1000
1001
,
1000
0010
0001
0010
1000
0010
0001
0010
,
1000
0000
0000
0000
0001
0010
0001
0010
0100
1000
0100
1000
0001
0000
1000
0000
,
2002
3003
0000
0000
0220
0330
0000
0000
,
2002
3003
0220
0330
2002
3003
0220
0330
,
2002
0000
0000
3003
,
0220
0000
0330
0000
;

//--------------- dance-single - Peter ----------------
#NOTES:
     dance-single:
     Peter:
     Challenge:
     18:
     0,0,0,0,0:
0000
0000
0000
0000
,
0000
0000
0000
0000
,
0000
0000
0000
0000
,
0000
0000
0000
0000
,
2002
3003
1000
0100
0001
0100
0000
0110
,
0000
0011
0000
0001
1001
0000
0110
0000
,
2002
3003
0001
0100
1000
0100
0000
0110
,
0000
1010
0000
1000
1001
0000
0110
0000
,
1000
0000
0000
0010
1000
0000
0000
0001
,
1000
0100
0010
0001
0000
0000
0000
0000
,
0001
0000
0000
0100
0001
0000
0000
1000
,
0001
0000
0010
0000
0100
0000
1000
0000
0100
1000
0100
1000
0001
1000
0001
0000
,
2002
3003
1000
0010
0001
0010
0000
0110
,
0000
1010
0000
1000
1001
0000
0110
0000
,
2002
3003
0001
0010
1000
0010
0000
0110
,
0000
0011
0000
0001
1001
0000
0110
0000
,
1000
1000
0100
0100
0010
0010
0001
0001
,
1000
1000
0001
0001
0100
0100
0010
0010
,
1000
0001
0000
0010
0000
0100
0000
1000
,
0001
0010
0100
1000
0001
0010
0100
1000
0001
0010
0100
1000
0001
0010
0100
1000
,
0001
0000
1000
0010
0100
1000
0000
2200
,
3300
0000
0101
0002
0000
0000
0003
0000
,
1000
0000
0001
0100
0010
0001
0000
0022
,
0033
0010
1000
0000
2002
0000
3003
0000
,
1000
0000
0001
0010
0100
0001
0000
0202
,
0303
0000
1100
2000
0000
0000
3000
0000
,
0001
0010
0001
0010
0100
1000
0100
1000
0001
0100
0001
0100
0010
1000
0010
1000
,
0001
0010
0001
1000
0010
0100
0010
1000
0001
0100
0001
1000
0100
1000
0001
0000
,
2002
3003
1000
0010
0001
0010
0000
0110
,
0000
0101
0000
0001
1001
0000
0110
0000
,
2002
3003
0001
0010
1000
0010
0000
0110
,
0000
1100
0000
1000
1001
0000
0110
0000
,
1000
0000
0000
0010
1000
0000
0000
0001
,
1000
0100
0010
0001
0000
0000
0000
0000
,
0001
1000
0010
0100
0001
0010
0001
1000
,
0001
0010
0001
0010
0001
0010
0001
0010
0001
0010
0001
1000
,
2002
3003
0000
0000
0220
0330
0000
0000
,
2002
3003
0220
0330
2002
3003
0220
0330
,
1000
1100
0001
0101
1000
1010
0001
0011
,
2002
0000
0000
0000
0000
0000
0000
3003
,
1000
0001
1000
0010
0000
1000
0001
0010
,
0000
0001
1000
0100
0000
1000
0001
0000
,
0001
1000
0001
0010
0000
0001
1000
0010
,
0000
1000
0001
0100
0000
0001
1000
0000
,
1000
1100
0100
0110
,
0010
0011
0001
1001
,
0010
0110
1000
1001
,
0002
0000
0000
0000
,
1003
0100
1000
0100
1000
0100
1000
0100
1000
0100
1000
0100
1000
0100
0010
0001
,
0100
0010
0100
0001
1000
0100
1000
0100
1000
0100
1000
0100
1000
0100
1000
0100
,
0010
0001
0010
0001
0010
0001
0010
0001
0010
0001
0010
0001
0010
0100
0010
0100
,
1000
0001
1000
0001
1000
0001
1000
0001
1000
0001
1000
0000
0002
0000
0000
0000
,
1003
0010
0100
0010
1000
0001
0010
0100
1000
0100
0010
0100
1000
0001
0100
0001
,
1000
0100
1000
0100
1000
0100
0010
0100
1000
0100
0010
0001
0100
0001
1000
0001
,
0010
0001
0010
0000
0100
1000
0100
0000
1000
0010
0100
0010
1000
0010
0100
0010
,
2000
0000
0000
0000
3002
0000
0023
0230
,
1300
0010
1000
0010
0100
0010
0100
0010
1000
0010
1000
0010
0100
0010
0100
0010
,
1000
0010
1000
0010
0100
0001
0100
0001
0010
0001
0010
0001
0010
0001
0010
0001
,
1000
0001
0100
0001
1000
0100
0010
0100
1000
0001
0010
0001
1000
0010
0100
0010
,
1000
0000
0000
0100
0000
0000
0010
0000
0000
0001
0000
0000
1000
0000
0000
0010
0000
0000
0100
0000
0000
0001
0000
0000
1000
0000
0010
0000
0100
0000
0001
0000
0000
0000
0000
0000
2000
0000
0000
0000
0000
0000
0000
0000
0000
0000
0000
0000
,
3001
0010
0001
0100
0010
0100
0001
0100
0010
1000
0010
1000
0100
1000
0001
0100
,
0001
0000
0000
0010
0000
0000
0100
0000
0000
0010
0000
0000
0001
0000
0000
1000
0000
0000
0010
0000
0000
1000
0000
0000
0100
0000
0000
0000
1000
0000
0000
0000
0100
0000
0000
0000
1000
0000
0000
0100
0000
0000
1000
0000
0000
0000
0000
0000
,
0100
1000
0100
0010
0100
1000
0100
0010
0001
1000
0010
0100
0001
1000
0100
0010
,
0001
0010
0001
0010
0001
0010
0001
0010
0001
0010
0001
0010
0002
0000
0003
0000
,
2002
3003
0001
0010
1000
0010
0000
0110
,
0000
1100
0000
1000
1001
0000
0110
0000
,
2002
3003
1000
0010
0001
0010
0000
0110
,
0000
0101
0000
0001
1001
0000
0110
0000
,
1000
0000
0000
0100
1000
0000
0000
0001
,
1000
0010
0100
0001
0000
0000
0000
0000
,
0001
0000
0000
0010
0001
0000
0000
1000
,
0001
0100
0010
1000
0000
0000
0000
0000
,
1000
0000
0000
0010
1000
0000
0000
0001
,
1000
0100
0010
0001
0000
0000
0000
0000
,
1000
1100
0001
0101
1000
1010
0001
0011
,
1000
0100
1000
0100
0010
0001
0010
0001
1000
0010
1000
0010
0100
0001
1000
0000
,
2002
3003
0000
0000
0220
0330
0000
0000
,
2002
3003
0220
0330
2002
3003
0220
0330
,
2002
0000
3003
0000
0010
1000
0010
1000
0010
0100
0010
0100
0001
0100
0001
1000
,
2002
0000
3003
0000
;
