#VERSION:0.83;
#TITLE:サイバーパンクデッドボーイ;
#SUBTITLE:;
#ARTIST:マイキP;
#TITLETRANSLIT:CYBERPUNK DEAD BOY;
#SUBTITLETRANSLIT:;
#ARTISTTRANSLIT:Maiki P;
#GENRE:;
#CREDIT:chronon;
#MUSIC:CYBERPUNK DEAD BOY.ogg;
#BANNER:CYBERPUNK DEAD BOY.png;
#BACKGROUND:CYBERPUNK DEAD BOY-bg.png;
#CDTITLE:;
#SAMPLESTART:64.778;
#SAMPLELENGTH:25.414;
#SELECTABLE:YES;
#OFFSET:-0.001;
#BPMS:0.000=157.000;
#STOPS:;
#BGCHANGES:;
#FGCHANGES:;

//--------------- dance-single - chronon ----------------
#NOTEDATA:;
#STEPSTYPE:dance-single;
#DESCRIPTION:chronon;
#DIFFICULTY:Beginner;
#METER:4;
#RADARVALUES:0,0,0,0,0;
#NOTES:
0000
0000
0000
0000
,
0000
0000
0000
0000
,
0000
0000
0000
0000
,
0000
0000
0000
0000
,
0000
0000
0000
0000
,
0000
0000
0000
0000
,
0001
0001
0001
0000
,
1001
0000
1000
0000
,
0100
0000
0010
0000
,
1000
0000
0001
0000
,
0100
0000
0010
0000
,
1001
0000
1000
0000
,
0100
0000
0010
0000
,
1001
0000
0001
0000
,
0100
0000
0010
0000
,
1000
0000
0000
0000
,
0010
0000
0000
0000
,
0100
0000
0000
0000
,
0001
0000
2000
3000
,
0001
0000
0000
0000
,
0010
0000
0000
0000
,
0100
0000
0000
0000
,
1000
0000
0002
0003
,
1000
0000
0010
0000
,
0100
0000
0000
0000
,
0001
0000
0010
0000
,
0100
0000
0000
0000
,
1000
0000
0100
0000
,
0100
0000
0010
0000
,
0010
0000
0001
0000
,
1000
0000
0000
0000
,
0002
0000
0000
0000
,
0000
0000
0003
0000
,
0200
0000
0000
0000
,
0000
0000
0300
0000
,
0020
0000
0000
0000
,
0000
0000
0030
0000
,
1000
0000
0000
0000
,
0010
0000
0000
0000
,
1000
0000
0000
0000
,
0002
0000
2000
0000
,
3M03
0000
0000
00M0
0000
0000
0M00
0000
0000
00M0
0000
0000
0M00
0000
0000
0000
,
0000
0000
0000
0000
,
0001
0000
0010
0000
,
1000
0000
0010
0000
,
0001
0000
0100
0000
,
1000
0000
0100
0000
,
0001
0000
0001
0000
,
0001
0000
0000
0000
,
1000
0000
1000
0000
,
1000
0000
0000
0000
,
1000
0000
0100
0000
,
0001
0000
0100
0000
,
1000
0000
0010
0000
,
0001
0000
0010
0000
,
1000
0000
1000
0000
,
1000
0000
0000
0000
,
0001
0000
0001
0000
,
1000
1000
1000
0000
,
0001
0001
0001
0000
,
1001
0000
1000
0000
,
0100
0000
0010
0010
,
0001
0000
0001
0000
,
0100
0000
0010
0010
,
1000
0000
1000
0000
,
0100
0000
0010
0010
,
0001
0000
1000
0000
,
0001
0001
0001
0000
,
1001
0000
0001
0000
,
0100
0000
0010
0010
,
1000
0000
1000
0000
,
0100
0000
0010
0010
,
0001
0000
0001
0000
,
0100
0000
0010
0010
,
1000
0000
0001
0000
,
1000
1000
1000
0000
,
0001
0000
0000
0000
,
2002
0000
0000
3003
;

//--------------- dance-single - chronon ----------------
#NOTEDATA:;
#STEPSTYPE:dance-single;
#DESCRIPTION:chronon;
#DIFFICULTY:Easy;
#METER:8;
#RADARVALUES:0,0,0,0,0;
#NOTES:
0000
0000
0000
0000
,
0000
0000
0000
0000
,
0000
0000
0000
0000
,
0000
0000
0000
0000
,
0000
0000
0000
0000
,
0000
0000
0000
0000
,
1000
0200
0001
0310
,
1100
2000
0010
3002
,
0010
2003
0010
3001
,
0011
0002
0100
2003
,
0100
3001
1000
0001
,
0101
0002
0010
2003
,
0010
3002
0010
1003
,
1010
2000
0100
3002
,
0100
1003
0001
1000
,
0200
0310
0002
1003
,
0010
0100
1000
0100
,
0000
0010
0001
0010
,
0000
0000
0100
0000
0001
1000
0001
0000
,
0020
0130
2000
3001
,
0100
0010
0001
0010
,
0000
0100
1000
0100
,
0000
0000
0010
0000
1000
0001
1000
0000
,
0100
0010
0001
1000
,
0001
0100
0001
0000
,
0100
0010
1000
0001
,
1000
0100
0010
0001
,
1000
0010
0100
0000
,
0001
0010
0100
0000
,
1000
0001
1000
0010
,
0100
0001
1000
0001
,
1000
0000
0100
0000
,
0010
0010
0010
0000
,
0001
0000
0100
0000
,
0010
0010
1000
1000
,
0001
0000
0010
0000
,
0100
0100
0100
1000
,
0010
1000
0010
0000
,
0100
0001
0100
0000
,
0001
1000
0001
0010
,
0100
1000
0002
2000
,
3M03
0000
0000
00M0
0000
0000
0M00
0000
0000
00M0
0000
0000
0M00
0000
0000
0000
,
0001
0000
0000
1000
0000
0000
0001
0000
0000
0000
0000
0000
0000
0000
0000
0000
,
1001
1001
1000
0010
,
0100
0001
1000
0000
,
1001
1001
0001
0010
,
0100
1000
0001
0000
,
1000
0010
0100
0001
,
1000
0100
0010
0001
,
0010
0000
0100
0000
1000
0000
0001
1000
,
0000
0001
0100
0010
,
0110
0110
0100
0001
,
1000
0100
0010
0000
,
0110
0110
0100
1000
,
0001
0100
0010
0000
,
1000
0010
0100
0001
,
1000
0100
0010
0001
,
0010
0000
0100
0000
1000
0000
0001
1000
,
0000
0020
0001
0130
,
0001
0020
1000
0130
,
0011
0020
0100
0032
,
1000
0103
0010
1000
,
1010
0020
0100
2030
,
0001
0000
3100
0000
1000
0100
1000
0000
,
1100
0200
0010
2300
,
0001
3010
0100
0001
,
0101
0000
0100
0000
0010
0000
0000
2001
,
0000
3200
0001
0310
,
1100
2000
0001
3020
,
1000
0230
0010
0301
,
0101
0002
1000
0023
,
0001
0000
0130
0000
0010
0001
0010
0000
,
0011
0002
1000
0203
,
0001
0320
0100
1030
,
1010
0000
0010
0000
0100
0000
0000
1002
,
0000
0023
1000
0130
,
0010
0000
0000
0010
0000
0000
0001
0000
0000
1000
0000
0000
0001
0000
0000
2002
,
0000
0000
0000
3003
;

//--------------- dance-single - chronon ----------------
#NOTEDATA:;
#STEPSTYPE:dance-single;
#DESCRIPTION:chronon;
#DIFFICULTY:Medium;
#METER:12;
#RADARVALUES:0,0,0,0,0;
#NOTES:
0000
0000
0000
0000
,
0000
0000
0000
0000
,
0000
0000
0000
0000
,
0000
0000
0000
0000
,
0000
0000
0000
0000
,
0000
0000
0000
0000
,
0001
0100
0010
0200
1000
0000
0310
0000
,
0101
0000
0000
0000
0100
0000
0010
0000
1000
0000
0000
0010
0000
0000
M010
0000
,
0001
0000
0000
0010
0000
0000
001M
0000
2000
0000
0000
0010
0000
0000
3100
0000
,
1100
0000
0000
0000
0100
0000
0010
0000
0001
0000
0000
0010
0000
0000
001M
0000
,
1000
0000
0000
0010
0000
0000
M010
0000
0001
0000
0010
0000
0001
0000
0000
0000
,
0011
0000
0000
0000
0010
0000
0100
0000
1000
0000
0000
0100
0000
0000
M100
0000
,
0001
0000
0000
0100
0000
0000
010M
0000
2000
0000
0000
0100
0000
0000
3010
0000
,
1010
0000
0000
0000
0010
0000
0100
0000
0001
0000
0000
0100
0000
0000
010M
0000
,
1000
0000
0000
0100
0000
0000
M100
0000
0001
0000
0100
0000
0001
0000
0000
0000
,
0102
1003
2100
3001
,
1000
0000
0000
0001
0000
0000
0010
0000
101M
0000
0000
0000
1000
0000
0000
0000
,
0001
0000
0000
1000
0000
0000
0010
0000
M011
0000
0000
0000
0001
0000
0000
0000
,
1000
0000
0000
0001
0000
0000
0010
0000
0200
0000
0010
0000
0310
0000
0000
0000
,
0012
1003
2010
3001
,
1000
0000
0000
0001
0000
0000
0100
0000
110M
0000
0000
0000
1000
0000
0000
0000
,
0001
0000
0000
1000
0000
0000
0100
0000
M101
0000
0000
0000
0001
0000
0000
0000
,
1000
0000
0000
0001
0000
0000
0100
0000
0020
0000
0100
0000
0130
0000
0000
0000
,
0001
0000
0100
0001
0000
0000
1000
0000
0100
1000
0000
0000
0001
0000
0010
0001
,
0000
1000
0010
0010
0100
0000
0010
0000
,
1000
0000
0010
1000
0000
0000
0001
0000
0010
0001
0000
0000
1000
0000
0100
1000
,
0000
0100
0010
0001
0100
0010
1000
0000
,
0010
0000
1000
0010
0000
0000
0200
0000
0010
0000
0000
0000
0301
0000
0000
0000
,
0010
0000
0001
0010
0000
0000
0200
0000
0010
0000
0000
0000
1300
0000
0000
0000
,
0001
0010
0100
0000
1000
0010
0100
0000
,
0001
0100
0010
1000
0001
0000
1001
0000
,
1000
0000
0200
0000
1300
0100
0010
0000
,
0002
0010
1003
0000
,
0001
0000
0200
0000
0301
0100
0010
0000
,
2000
0010
3002
0010
,
1003
0000
0200
0000
1300
0100
0010
0000
,
0002
0010
1003
0001
,
0100
0000
0000
010M
0000
0000
1000
0000
0001
0000
0000
0000
1000
0000
0000
0000
,
0010
0000
0000
M010
0000
0000
0001
0000
1000
0000
0001
0000
0100
0000
0020
0000
,
0000
0130
0010
0100
0001
0000
0200
0001
,
0000
0010
0000
2300
0000
3100
0002
2000
,
3M03
0000
0000
00M0
0000
0000
0M00
0000
0000
00M0
0000
0000
0M00
0000
0000
0000
,
1001
0000
0000
1010
0000
0000
1100
0000
0000
0000
0000
0000
0000
0000
0000
0000
,
2000
0100
3002
0100
1003
0010
0100
0001
,
1000
0000
1001
0000
0001
1000
0001
0100
,
0002
0100
2003
0100
3001
0010
0100
1000
,
0001
0000
1001
0000
1000
0100
0001
0000
,
0110
0000
0011
0000
1001
0000
1000
0020
,
0000
0130
0001
2000
0000
3001
0010
0100
,
1000
0000
0100
1000
0000
0000
0001
0000
0100
0001
0000
0000
0101
0000
1001
0000
,
0000
1000
0100
0000
0010
0001
0010
0000
,
0200
0010
2300
0001
3010
1000
0010
0100
,
0001
0000
0101
0000
0001
0100
0010
1000
,
0020
0100
2030
0001
3100
1000
0100
0010
,
0001
0000
0011
0000
0001
0010
1000
0000
,
0110
0000
1100
0000
1001
0000
0001
0200
,
0000
0310
1000
0002
0000
0013
0100
1000
,
0001
0000
0010
0001
0000
0000
1000
0000
0010
1000
0000
0000
1010
0000
1002
0000
,
0000
0103
0010
0200
1000
0000
0310
0000
,
1000
0100
0010
0200
0001
0000
0310
0000
,
1100
0000
0000
0000
1000
0000
0001
0000
0010
0000
0000
001M
0000
1000
0001
0000
,
0010
0000
0000
001M
0000
1000
0001
0000
0200
0000
0000
0010
0000
0000
0301
0000
,
0101
0000
0000
0000
0001
0000
1000
0000
0010
0000
0000
M010
0000
0001
1000
0000
,
0010
0000
0000
M010
0000
0001
1000
0000
0001
0000
0010
0000
0100
0000
0010
0000
,
0011
0000
0000
0000
0001
0000
1000
0000
0100
0000
0000
M100
0000
0001
1000
0000
,
0100
0000
0000
M100
0000
0001
1000
0000
0020
0000
0000
0100
0000
0000
1030
0000
,
1010
0000
0000
0000
1000
0000
0002
0000
0010
0000
0000
1003
0000
0000
1002
0000
,
0000
0103
0010
0200
1000
0000
0310
0000
,
0101
0000
0000
0000
0001
0000
0100
0000
0010
0000
0000
0M10
0000
0001
0010
0000
,
0100
0000
0000
M100
0000
0001
0100
0000
0020
0000
0000
0100
0000
0000
1030
0000
,
1010
0000
0000
0000
1000
0000
0010
0000
0100
0000
0000
01M0
0000
1000
0100
0000
,
0010
0000
0000
0M10
0000
1000
0010
0000
1000
0000
0001
0000
0010
0000
0001
0000
,
0011
0000
0000
0000
0001
0000
0010
0000
0100
0000
0000
01M0
0000
0001
0100
0000
,
0010
0000
0000
M010
0000
0001
0010
0000
0200
0000
0000
0010
0000
0000
1300
0000
,
1100
0000
0000
0000
1000
0000
0002
0000
0100
0000
0000
1003
0000
0000
2001
0000
,
0000
3100
0010
0200
0001
0000
0310
0000
,
0100
0000
0000
1000
0000
0000
0010
0000
0000
0100
0000
0000
0010
0000
0000
2002
,
0000
0000
0000
3003
;

//--------------- dance-single - chronon ----------------
#NOTEDATA:;
#STEPSTYPE:dance-single;
#DESCRIPTION:chronon;
#DIFFICULTY:Hard;
#METER:15;
#RADARVALUES:0,0,0,0,0;
#NOTES:
0000
0000
0000
0000
,
0000
0000
0000
0000
,
0000
0000
0000
0000
,
0000
0000
0000
0000
,
0000
0000
0000
0000
,
0000
0000
0000
0000
,
1000
0010
0100
0020
0001
0000
0130
0000
,
0102
0000
0000
0000
1003
0000
0001
0000
1000
0100
0000
M100
0000
0001
1000
0000
,
0001
0100
0000
010M
0000
1000
0001
0000
2000
0001
0000
3010
0000
0000
1000
0000
,
2010
0000
0000
0000
3001
0000
1000
0000
0001
0010
0000
001M
0000
1000
0001
0000
,
1000
0010
0000
M010
0000
0001
1000
0000
0001
0010
0100
0000
0010
0001
0000
0000
,
0012
0000
0000
0000
1003
0000
0001
0000
1000
0010
0000
M010
0000
0001
1000
0000
,
0001
0100
0000
010M
0000
1000
0001
0000
2000
0001
0000
3100
0000
0000
1000
0000
,
2100
0000
0000
0000
3001
0000
1000
0000
0001
0100
0000
010M
0000
1000
0001
0000
,
1000
0010
0000
M010
0000
0001
1000
0000
0001
0010
0100
0000
1000
0000
0000
0000
,
1002
0000
0103
0000
1001
1000
0100
0000
,
1000
0000
0100
0010
0000
0001
0010
0000
102M
0000
0000
0000
1030
0000
0010
0100
,
0001
0000
0100
0010
0000
1000
0010
0000
M021
0000
0000
0000
0031
0000
0010
0100
,
1000
0000
0100
0010
0000
0001
0100
0000
0020
0000
0100
0000
0130
0000
0000
0000
,
2001
0000
0000
0000
3010
0000
0000
0000
1001
0000
0001
0000
0010
0000
0000
0010
,
0001
0000
0010
0100
0000
1000
0100
0000
M201
0000
0000
0000
0301
0000
0100
0010
,
1000
0000
0010
0100
0000
0001
0100
0000
120M
0000
0000
0000
1300
0000
0100
0010
,
0001
0000
0010
0100
0000
1000
0010
0000
0100
0000
0010
0000
1001
0000
0000
0000
,
0001
0000
1000
0010
0000
M010
0001
0000
1000
0100
0000
M100
0001
0000
1000
0010
,
0000
M010
0001
0000
2000
0000
0001
0000
3010
0000
0000
0000
0100
0010
1000
0001
,
1000
0000
0001
0010
0000
001M
1000
0000
0001
0100
0000
010M
1000
0000
0001
0010
,
0000
001M
1000
0000
0001
0010
0100
0010
0002
0000
0010
0000
2003
0000
0010
0000
,
3001
0000
0100
0010
0000
0M20
0001
0000
0130
0000
0000
0000
0010
0100
1000
0001
,
1000
0000
0100
0010
0000
0M20
1000
0000
0130
0000
0000
0000
0010
0100
0001
1000
,
0001
0100
010M
1000
0001
0010
001M
1000
,
0001
0000
0010
0000
0010
0000
0100
0010
0001
0000
1000
0000
1001
0000
0000
0000
,
0001
0000
0200
0000
0301
0100
0010
0000
,
2000
0010
3001
0000
,
1000
0000
0200
0000
1300
0100
0010
0000
,
0002
0010
2003
0010
,
3001
0000
0200
0000
0301
0100
0010
0000
,
2000
0000
0000
0000
0010
0000
0000
0000
3001
0000
1000
0100
1000
0000
0000
0000
,
1200
0000
0300
M100
0001
0000
0100
0000
0010
0000
0100
0000
0001
0000
0000
0000
,
0201
0000
0300
010M
1000
0000
0100
0000
0010
0000
0100
0000
1000
0000
0020
0000
,
0000
1030
0010
0100
0010
1000
0002
0100
,
2003
0100
3002
0010
1003
0002
2000
0000
,
3M03
0000
0000
00M0
0000
0000
0M00
0000
0000
00M0
0000
0000
0M00
0000
0000
0000
,
1001
0000
0000
0101
0000
0000
0011
0000
0000
0000
0000
0000
0000
0000
0000
0000
,
0011
0010
101M
1000
0001
0100
1000
0100
,
0010
0100
0010
0000
1000
0001
1000
0000
0100
0000
0010
0000
0100
0000
1000
0000
,
1100
0100
M101
0001
1000
0010
0001
0010
,
0100
0010
0100
0000
0001
1000
0001
0000
0010
0000
0100
0000
0001
0000
0000
0000
,
1100
1000
0001
0100
0101
0001
2000
0010
,
3001
2000
0100
3001
1000
0001
0010
0100
,
1000
0000
0100
0010
0000
0M10
1000
0000
0010
0100
0000
01M0
1000
0000
0110
0000
,
0000
0000
0010
0000
0001
0000
1000
0001
1000
0000
0010
0100
0000
0100
0001
0000
,
0101
0000
0100
0000
110M
0000
1000
0100
0010
0000
0100
0000
0001
0000
0100
0010
,
0001
0000
0010
0000
0001
1000
0000
0010
1000
0000
0010
0000
0100
0010
1000
0000
,
1010
0000
0010
0000
M011
0000
0001
0010
0100
0000
0010
0000
1000
0000
0010
0100
,
1000
0000
0100
0000
1000
0001
0000
0100
0001
0000
0100
0000
1000
0000
0000
0000
,
0101
0000
0001
0000
1000
0000
0100
0000
1100
0000
1000
0100
0020
0000
0100
0000
,
0031
0000
1000
0010
0200
0000
0010
0000
0301
0000
1000
0000
0010
0000
0100
0000
,
0001
0000
0100
0010
0000
0M10
0001
0000
0010
0100
0000
01M0
0001
0000
0110
0000
,
0000
0100
0010
0200
1000
0000
0310
0000
,
1000
0100
0010
0200
0001
0000
0310
0000
,
0012
0000
0000
0000
0013
0100
1000
0000
0100
0010
0000
0M10
0000
1000
0010
0000
,
0100
0010
0000
0M10
0000
0001
0010
0000
0200
0010
0000
1300
0000
0010
1000
0000
,
2010
0000
0000
0000
3010
0100
0001
0000
0100
0010
0000
0M10
0000
0001
0010
0000
,
0100
0010
0000
0M10
0000
1000
0010
0000
0100
0000
1000
0000
0100
0001
0100
0000
,
0102
0000
0000
0000
0103
0010
1000
0000
0010
0100
0000
01M0
0000
1000
0100
0000
,
0010
0100
0000
01M0
0000
0001
0100
0000
0020
0100
0000
1030
0000
0100
1000
0000
,
2100
0000
0000
0000
3100
0010
0002
0000
1000
0000
0000
0103
0000
0000
0101
0000
,
0000
0100
0010
0200
1000
0000
0310
0000
,
2010
0000
0000
0000
3010
0100
0001
0000
0100
0010
0000
0M10
0001
1000
0100
0000
,
0010
0100
0000
01M0
0001
1000
0010
0000
0200
0010
0000
0301
0000
0010
0001
0000
,
0012
0000
0000
0000
0013
0100
1000
0000
0100
0010
0000
0M10
1000
0001
0100
0000
,
0010
0100
0000
01M0
1000
0001
0010
0000
0100
0000
0001
0000
0100
1000
0100
0000
,
2100
0000
0000
0000
3100
0010
0001
0000
0010
0100
0000
01M0
0001
1000
0010
0000
,
0100
0010
0000
0M10
0001
1000
0100
0000
0020
0100
0000
0031
0000
0100
0001
0000
,
0102
0000
0000
0000
0103
0010
2000
0000
0001
0000
0000
3100
0000
0000
1100
0000
,
0000
0100
0010
0200
0001
0000
0310
0000
,
0001
0000
0010
0100
0000
1000
0010
0000
0000
0100
0000
0000
0010
0000
0000
2002
,
0000
0000
0000
3003
;
