#TITLE:CRAZY NOISY BIZARRE TOWN;
#SUBTITLE:;
#ARTIST:THE DU;
#TITLETRANSLIT:;
#SUBTITLETRANSLIT:;
#ARTISTTRANSLIT:;
#GENRE:;
#CREDIT:;
#MUSIC:cnbt.ogg;
#BANNER:;
#BACKGROUND:;
#CDTITLE:;
#SAMPLESTART:0.000;
#SAMPLELENGTH:0.000;
#SELECTABLE:YES;
#OFFSET:0.204;
#BPMS:0.000=136.000;
#STOPS:;
#BGCHANGES:;
#FGCHANGES:;

//--------------- dance-single - Evergreen ----------------
#NOTES:
     dance-single:
     Evergreen:
     Hard:
     13:
     0,0,0,0,0:
0000
0000
0000
0000
,
0000
0000
0000
0000
,
0000
0000
0000
0000
,
0000
0000
0000
0000
0000
0000
0000
0000
1000
0010
1000
0000
1000
0000
0001
0010
,
0001
0000
0001
0000
1000
0100
1000
0000
1000
0000
0001
0100
0001
0000
0100
0000
,
0010
0000
1000
0000
0010
1000
0010
0000
1000
0000
0100
0000
0010
0000
0000
0000
,
0001
0000
0100
0000
0010
0000
1000
0010
1000
0000
0000
0000
0001
0000
0000
0000
,
1000
0001
1000
0000
0001
1000
0001
0000
1000
0100
1000
0000
1000
0000
0001
0100
,
0001
0000
0001
0000
1000
0010
1000
0000
1000
0000
0001
0010
0001
0000
1000
0000
,
0010
1000
0100
1100
0000
0001
0100
0101
,
0000
1000
0001
1001
0000
0100
0010
0110
,
0100
0001
0100
0000
0001
0000
1000
0000
0100
0000
0010
0000
0001
0000
0010
0000
,
0000
0010
0001
1000
0010
0100
0010
1000
,
0000
0000
1000
0010
1000
0000
0001
0100
0001
0000
0100
0000
0010
0000
1000
0000
,
0000
1000
0100
0010
0001
0001
0000
0010
,
0001
0000
0010
0001
0010
0000
0001
0010
0001
0000
1000
0000
0010
0000
1000
0000
,
0001
0010
0001
1000
0100
1000
0001
0100
,
0001
0000
1000
0000
0010
1000
0010
0000
1000
0000
0010
0000
0100
0000
0001
0000
,
1000
0000
0100
0000
0010
0000
0001
0000
1000
0000
0100
0000
1000
0000
0001
0100
,
0001
0100
0001
0000
1000
0000
0010
1000
0010
0000
1000
0000
0100
0000
0010
0000
,
0001
0010
0001
0020
0000
0130
1000
0001
,
0100
0000
0010
0000
0100
0000
0001
0010
0001
0000
0100
0000
0010
0000
1000
0000
,
0001
0100
0001
0020
0000
0031
1000
0010
,
0100
0000
0001
0000
1000
0000
0100
0010
0100
0000
1000
0010
1000
0000
0001
0000
,
1000
0100
0010
0002
0000
0103
0001
1000
,
0100
0010
0001
0001
0100
0001
1000
1001
,
0000
1100
0000
0012
0010
0000
0010
0000
,
0010
0000
0013
0001
0000
0010
0010
0001
,
1000
0100
1000
0100
1000
0000
0001
0000
1000
0000
0010
0000
0010
0000
1000
0000
,
0010
0000
1000
0000
0001
1000
0000
0100
,
0010
0001
0010
0000
0001
0000
1000
0000
0001
0000
0010
0000
0010
0000
0001
0000
,
1000
0000
0010
0000
1000
0001
0000
0100
,
0010
1000
0010
0000
0100
0000
0001
0100
0001
0000
1000
0000
1000
0000
0001
0000
,
0001
0000
0010
0000
0100
0000
0010
0100
,
1000
0100
1000
0000
0001
0100
0001
0000
2000
0000
0000
0000
3020
0000
0000
0000
,
0230
0000
0000
0000
0302
0000
0000
0000
1003
0100
1000
0000
0001
0000
0100
0000
,
0001
0100
0001
0000
1000
0000
0200
0000
0000
0000
1300
0000
0100
0000
2200
3300
,
0000
0000
0001
0000
0010
0000
0022
0033
0000
0000
1000
0000
0010
0000
2020
3030
,
0000
0000
0001
0010
0001
0000
1000
0000
0010
1000
0010
1000
0000
0000
0100
1000
,
0100
1000
0000
0000
0001
0010
0001
0010
0000
0000
0001
0100
0001
0100
0000
0000
,
0000
0000
0001
1000
0010
1000
0001
0100
0000
0000
0101
0000
0000
0000
0000
0000
;

//--------------- dance-single - Evergreen ----------------
#NOTES:
     dance-single:
     Evergreen:
     Challenge:
     15:
     0,0,0,0,0:
0000
0000
0000
0000
,
1000
0100
1000
0100
0000
0000
0010
0001
0010
0001
0000
0000
1000
0001
0000
0000
,
1000
0010
1000
0010
0000
0000
0100
0001
0100
0001
0000
0000
1000
0001
0000
0000
,
1001
0000
1000
0010
0100
0001
0010
0000
0001
0010
0100
1000
0001
0000
1000
0010
,
0100
0001
1000
0000
0001
0010
0001
1000
0000
1000
0020
0000
0130
0000
0001
0100
,
0001
0000
1000
0100
1000
0010
0100
0002
0000
0000
0013
0000
0011
0000
0010
0001
,
0010
0000
0001
0000
1000
0000
0010
1000
0010
0000
0100
0000
0010
0000
1000
0000
,
0100
0000
1000
0010
0000
0100
0000
0010
1000
0100
0010
0001
1000
0000
0001
0100
,
0010
1000
0001
0000
1000
0010
1000
0001
0000
0001
0020
0000
0130
0000
1000
0000
,
0001
0100
0001
1000
0100
0000
2200
0000
3300
0000
0001
0100
0001
0000
0202
0000
,
0303
0000
1000
0010
1000
0000
2020
0000
3030
0000
0001
0000
0010
0000
0022
0033
,
0001
0010
0001
1000
0100
1000
0001
0100
0010
0000
1000
0100
0010
0000
0002
0000
,
1003
0000
0010
0000
0100
0000
0010
0000
1000
0000
0001
0010
0100
0000
2000
0000
,
3001
0000
1000
0100
0010
0001
0010
0100
1000
0000
0010
0000
0100
0000
0001
0010
,
0001
0000
1000
0010
1000
0000
0001
0000
0100
0000
0001
0000
1000
0000
1001
0000
,
0001
0000
1000
0010
1000
0001
0010
0000
0011
0000
0001
0000
1000
0000
1010
0000
,
0010
0000
1000
0000
0100
1000
0100
0000
1100
0000
1000
0000
0001
0000
0101
0000
,
0100
0000
0001
0000
0100
0001
1000
0100
0010
0000
0001
0000
1000
0000
0010
0000
,
0100
0001
1000
0100
0020
0031
2000
3010
,
0200
0000
0301
0000
2000
0000
3010
1000
0010
0000
0100
0001
0100
0000
0001
0010
,
0001
0000
1000
0000
0100
0000
0010
0001
1000
0000
0010
0000
0100
0000
0001
1000
,
0100
0000
0010
0000
0100
0000
1000
0100
1000
0000
0001
0100
0001
0000
1000
0010
,
1000
0000
0001
0010
0001
0000
2000
0000
0000
0000
3010
0000
0100
0000
0002
0000
,
0000
0000
0013
0000
0100
0000
1000
0100
1000
0000
0001
0100
0001
0000
1000
0010
,
1000
0000
0001
0010
0001
0000
0011
0000
0010
0000
0001
0000
0100
0000
0010
0000
,
1010
1000
1010
0010
0110
0100
0101
0011
,
0000
1001
0000
1010
0010
1000
0100
0010
,
0001
0000
0010
0001
0010
0000
0011
0000
0000
0000
1001
0000
1010
0000
0011
0000
,
1001
0000
1000
0001
0100
0010
1000
0100
0010
0000
0001
0010
0001
0000
1000
0000
,
0010
1000
0001
0100
0101
0001
1000
1100
,
0100
1000
0010
0100
0001
0010
0001
1000
0010
0000
1000
0000
0001
0000
0100
0000
,
0001
0000
1000
0000
0100
1000
0100
0000
1100
0000
1000
0000
0001
0000
0101
0000
,
0001
0100
0010
1000
0010
0100
0001
1000
0100
0000
1000
0000
0100
0000
0010
0000
,
0010
0000
0001
0010
0001
0000
0010
0000
0011
0000
0001
0000
1000
0000
1001
0000
,
0001
0000
1000
0010
1000
0000
0010
0000
1010
0000
1000
0000
1100
0000
0100
0000
,
0110
0000
0010
0000
0011
0000
0001
0000
1001
0000
1000
0001
1000
0000
0010
0000
,
1010
0000
1000
0000
0001
0000
0011
0000
0000
0000
0001
1000
0100
0000
2200
0000
,
3300
0000
0001
0100
0001
0000
0202
0000
0303
0000
1000
0010
1000
0000
2020
0000
,
3030
0000
0001
1000
0010
1000
0001
0100
0001
1000
0100
0010
0000
0000
0001
1000
,
0010
0100
0000
0000
0001
0010
0100
0010
0000
0000
0001
0100
0010
0100
0000
0000
,
0000
0000
0001
0100
0010
0100
0010
1000
0000
0000
1010
0000
0000
0000
0000
0000
;
