#TITLE:CODE1;
#SUBTITLE:[revision 0.9.8];
#ARTIST:HEXA;
#TITLETRANSLIT:;
#SUBTITLETRANSLIT:;
#ARTISTTRANSLIT:;
#GENRE:;
#CREDIT:;
#MUSIC:CODE1 [revision 0.9.8].ogg;
#BANNER:CODE1 [revision 0.9.8]-bn.png;
#BACKGROUND:CODE1 [revision 0.9.8]-bg.png;
#CDTITLE:;
#SAMPLESTART:20.930;
#SAMPLELENGTH:13.241;
#SELECTABLE:YES;
#OFFSET:-0.240;
#BPMS:0.000=145.000;
#STOPS:;
#BGCHANGES:;
#FGCHANGES:;

//--------------- dance-single - Peter ----------------
#NOTES:
     dance-single:
     Peter:
     Beginner:
     5:
     0,0,0,0,0:
0000
0000
0000
0000
,
0000
0000
0000
0000
,
0000
0000
0000
0000
,
0000
0000
0000
0000
,
0200
0000
0000
0300
0020
0000
0000
0030
1000
0000
0000
0000
0000
0000
0000
0000
,
0000
0000
0100
0000
,
0000
0000
0001
0000
,
0000
0000
0010
0000
,
0000
1000
0001
0000
,
0000
0000
0010
0000
,
0000
0000
0001
0000
,
0000
0000
0000
0000
,
0200
0000
0000
0300
0020
0000
0000
0030
1000
0000
0000
0000
0000
0000
0000
0000
,
0100
0000
0001
0000
,
0100
0000
1000
0000
,
0001
0000
0100
0000
,
0010
0000
1000
0000
,
0001
0000
0010
0000
,
0100
0000
0001
0000
,
0100
0000
2000
0000
,
0000
0000
3001
0000
,
0100
0010
0001
0000
,
0000
0010
1000
0000
,
0001
0010
0100
0000
,
1000
0001
1000
0000
,
0010
0100
1000
0000
,
0100
0001
1000
0000
,
0100
0000
0010
1000
,
0010
0001
2000
0000
,
0000
0000
0000
0000
,
0000
0000
3020
0000
,
0000
0000
0000
0000
,
0000
0000
0230
0000
,
0000
0000
0000
0000
,
0000
0000
0302
0000
,
0000
0000
0000
0000
,
0000
0000
0023
0000
,
0000
0000
0000
0000
,
0000
0000
0230
0000
,
0000
0000
0000
0000
,
0000
0000
2300
0000
,
0000
0000
0000
0000
,
0000
0000
3002
0000
,
0000
0000
0003
0000
,
0200
0000
0000
0300
0020
0000
0000
0030
1000
0000
0000
0000
0000
0000
0000
0000
,
0100
0001
0100
0000
,
0010
0001
1000
0000
,
0010
0100
1000
0000
,
0100
0001
1000
0000
,
0100
0010
1000
0000
,
0010
0100
0001
0000
,
0100
1000
0001
0100
,
0010
0000
1000
0100
,
0001
1000
0010
0001
,
0100
0010
1000
0010
,
0001
1000
0100
0001
,
1000
0000
0001
0010
,
1000
0001
0100
1000
,
0010
0100
0001
0100
,
1000
0001
0010
1000
,
0100
0010
0001
0000
,
0100
0000
0010
0000
,
1000
0000
0100
0000
,
0010
0000
0001
0000
,
1000
0000
0001
0000
,
0000
0000
0000
0000
,
0000
0000
0100
0000
,
0000
0000
0010
0001
,
0010
1000
0001
0000
;

//--------------- dance-single - Peter ----------------
#NOTES:
     dance-single:
     Peter:
     Easy:
     8:
     0,0,0,0,0:
0000
0000
0000
0000
,
0000
0000
0000
0000
,
0000
0000
0000
0000
,
0000
0000
0000
0000
,
0200
0000
0000
0300
0020
0000
0000
0030
1000
0000
0000
0000
0000
0000
0000
0000
,
0100
0000
1000
0000
,
0001
0000
0100
0000
,
0010
0000
1000
0000
,
0001
1000
0001
0000
,
0010
0000
0001
0000
,
1000
0000
0000
0000
,
0000
0000
0001
0001
,
0200
0000
0000
0300
0020
0000
0000
0030
1000
0000
0000
0000
0100
0000
0000
0000
,
1000
0001
0100
0010
,
0001
0010
1000
0001
,
0010
0100
1000
0100
,
0010
0010
0001
0100
,
0001
1000
0100
0010
,
1000
0010
0001
0100
,
0010
1000
0002
0000
,
0000
0000
1003
1000
1000
0000
0000
0100
,
0000
0000
0001
0000
0100
0000
0000
0010
,
0000
0000
1000
0000
0010
0000
0000
0001
,
0000
0000
0100
0000
1000
0000
0000
0100
,
0000
0000
0001
0000
1000
0000
0000
0010
,
0000
0000
0001
0000
0010
0000
0000
0100
,
0000
0000
1000
0000
0100
0000
0000
0001
,
0000
1000
0200
0302
,
0023
2030
0000
3002
2003
0000
0000
0000
,
0000
0000
3200
0000
,
0000
0000
0320
0000
,
0000
0000
0032
0000
,
0000
0000
0203
0000
,
0000
0000
0320
0000
,
0000
0000
2030
0000
,
0000
0000
3002
0000
,
0000
0000
1003
0000
,
0100
0000
0001
0000
,
0010
0000
1000
0000
,
0010
0000
0001
0000
,
0100
0000
1001
0000
,
0000
0000
0110
0000
,
0000
0000
1001
0000
,
0110
1001
0110
0000
,
0200
0000
0000
0300
0020
0000
0000
0030
1000
0000
0000
0000
0000
0000
0100
0000
,
0000
0000
0010
0001
1000
0000
0000
0010
,
0000
0000
0001
0000
0010
0000
0000
1000
,
0000
0000
0001
0010
0100
0000
0000
0001
,
0000
0000
0100
0000
1000
0000
0000
0010
,
0000
0000
0100
0001
1000
0000
0000
0100
,
0000
0000
0001
0000
0100
0000
0000
1000
,
0000
0000
0001
0100
0010
0000
0000
0000
,
0001
0000
0010
0000
0000
0000
0000
0000
1000
0000
0000
0010
0000
0000
0000
0001
,
0000
0000
0000
0000
0010
0000
1000
0000
0001
0000
0000
0010
0000
0000
0000
0100
,
0000
0000
0000
0000
0001
0000
0100
0000
1000
0000
0000
0100
0000
0000
0000
0001
,
0000
0000
0000
0000
0100
0000
1000
0000
0001
0000
0000
0100
0000
0000
0000
0010
,
0000
0000
0001
0000
0010
0000
1000
0000
0001
0000
0000
0010
0000
0000
0000
1000
,
0000
0000
0000
0000
0010
0000
0001
0000
1000
0000
0000
0000
0000
0010
0000
0100
,
0000
0000
0000
0000
1000
0000
0100
0000
0001
0000
0000
0100
0000
0000
0000
1000
,
0000
0000
0000
0000
0100
0000
0001
0000
1000
0000
0000
0000
0000
0100
0000
0010
,
0000
1000
0010
0001
1000
0000
0000
0000
,
0000
0000
0010
0000
,
0000
0000
0100
0000
,
0000
0000
0001
0000
,
0000
0000
0000
0000
,
0000
0000
0000
0000
,
0000
0000
0000
0000
,
0000
0000
0002
0203
,
2300
3020
0000
0032
1003
0000
0000
0000
;

//--------------- dance-single - Peter ----------------
#NOTES:
     dance-single:
     Peter:
     Medium:
     11:
     0,0,0,0,0:
0000
0000
0000
0000
,
0000
0000
0000
0000
,
0000
0000
0000
0000
,
0000
0000
0000
0000
,
0200
0000
0000
0300
0020
0000
0000
0030
1000
0000
0000
0000
0000
0000
0100
0000
,
0000
0000
0000
0000
0010
0000
0000
0100
,
0000
0000
1000
0000
0001
0000
0000
0100
,
0000
0000
0000
0000
0010
0000
0000
0100
,
0000
0000
0001
0000
1000
0000
0000
0100
,
0000
0000
0000
0000
0010
0000
0000
0001
,
0000
0100
0010
0000
,
1000
0000
0001
0000
,
0200
0000
0000
0300
0020
0000
0000
0030
1000
0000
0000
0000
0000
0000
0100
0000
,
0000
0000
0001
0000
1000
0000
0000
0010
,
0000
0000
0001
0010
1000
0000
0000
0001
,
0000
0000
0100
0000
1000
0000
0000
0010
,
0000
0000
0001
0010
1000
0000
0000
0010
,
0000
0000
0001
0000
1000
0000
0000
0100
,
0000
0000
0001
0100
1000
0000
0000
0001
,
0000
0010
2000
0000
,
0000
0000
0000
0000
3001
0000
1000
0000
0001
0000
0000
0010
0000
0000
0100
0000
,
0000
0001
0000
0000
0100
0000
0000
0000
1000
0000
0000
0010
0000
0000
0100
0000
,
0000
1000
0000
0000
0100
0000
0001
0000
1000
0000
0000
0100
0000
0000
0010
0000
,
0000
1000
0000
0000
0010
0000
0000
0000
0001
0000
0000
0100
0000
0000
0010
0000
,
0000
0001
0000
0000
0010
0000
1000
0000
0001
0000
0000
0010
0000
0000
1000
0000
,
0000
0010
0000
0000
0001
0000
0000
0000
1000
0000
0000
0010
0000
0000
0001
0000
,
0000
0010
0000
0000
1000
0000
0001
0000
0010
0000
0000
0010
0000
0000
0010
0000
,
0100
0000
0000
0100
0000
0000
0100
0000
2000
0000
0100
0000
3002
0000
0100
0000
,
0023
0030
0020
0000
0100
0000
0032
0000
2003
0000
0000
0000
0000
0000
0000
0000
,
0000
0100
3002
0000
,
0000
0100
2003
0000
,
0000
0100
3002
0000
,
0000
0010
2003
0000
,
0000
0010
3002
0000
,
0000
0010
2003
0000
,
0000
0010
3002
0000
,
0000
0000
0100
0000
2003
0000
0000
0100
,
0000
0000
0001
0000
3020
0000
0000
0001
,
0000
0000
1000
0000
0230
0000
0000
1000
,
0000
0000
0010
0000
0302
0000
0000
0010
,
0000
0000
1000
0000
0203
0000
0000
1000
,
0000
0000
0001
0000
0320
0000
0000
0001
,
0000
0000
0100
0000
2030
0000
0000
0100
,
0000
0001
3010
0000
,
0200
0000
0000
0300
0020
0000
0000
0030
1000
0000
0000
0100
0000
0000
0001
0000
,
0000
0100
0000
0000
0010
0000
0001
0000
1000
0000
0000
0010
0000
0000
0001
0000
,
0000
0010
0000
0000
1000
0000
0001
0000
0010
0000
0000
0100
0000
0000
0001
0000
,
0000
0100
0000
0000
0010
0000
0001
0000
1000
0000
0000
0010
0000
0000
0001
0000
,
0010
0000
0010
0000
1000
0000
1000
0000
0001
0000
0000
0100
0000
0000
1000
0000
,
0000
0100
0000
0000
0010
0000
1000
0000
0001
0000
0000
0010
0000
0000
1000
0000
,
0000
0010
0000
0000
0001
0000
1000
0000
0010
0000
0000
0100
0000
0000
1000
0000
,
0000
0100
0000
0000
0010
0000
1000
0000
1001
0000
0000
0000
0110
0000
0000
0000
,
1001
0000
0000
0000
0000
0000
0000
0000
1000
0000
0000
0100
0000
0010
0000
1000
,
0000
0010
0000
0000
0100
0000
0001
0000
0100
0000
0000
1000
0000
0010
0000
0001
,
0000
0010
0000
0000
1000
0000
0001
0000
1000
0000
0000
0010
0000
0100
0000
1000
,
0000
0100
0000
0000
0010
0000
0001
0000
0010
0000
0000
1000
0000
0100
0000
0001
,
0000
0000
0100
0000
1000
0000
0001
0000
0100
0000
0000
1000
0000
0100
0000
0010
,
0000
0001
0000
0000
0010
0000
0100
0000
0001
0000
0000
0010
0000
0100
0000
0001
,
0000
0100
0000
0000
0010
0000
1000
0000
0010
0000
0000
0001
0000
1000
0000
0010
,
0000
0001
0000
0000
0010
0000
1000
0000
0001
0000
0010
0000
1000
0000
0010
0000
,
0001
0100
1000
0100
0001
0000
0000
0000
,
0001
0001
1000
0000
,
1000
1000
0010
0000
,
0010
0010
0100
0000
,
0100
0100
0000
0000
,
0000
0000
0000
0000
,
0000
0000
0000
0000
,
0000
0000
0000
0000
0002
0010
2003
0010
,
3200
0300
0200
0000
0010
0000
2300
0000
3001
0000
0000
0000
0000
0000
0000
0000
;

//--------------- dance-single - Peter ----------------
#NOTES:
     dance-single:
     Peter:
     Hard:
     14:
     0,0,0,0,0:
0000
0000
0000
0000
,
0000
0000
0000
0000
,
0000
0000
0000
0000
,
0000
0000
0000
0000
,
0200
0000
0000
0300
0020
0000
0000
0030
1001
0000
0000
0000
0001
0000
0000
0000
,
0001
0001
0010
0010
,
0010
0000
0100
0100
,
0100
0100
1000
1000
,
1000
0001
1000
0001
0100
0000
0100
0000
,
0100
0100
0010
0010
,
0010
0000
1000
0000
,
0001
0000
0000
0000
1000
0001
1000
0001
,
0200
0000
0000
0300
0020
0000
0000
0030
1000
0000
0000
0100
0000
0000
1000
0000
,
0001
0000
0000
0000
0100
0000
0000
0000
0010
0000
0000
0100
0000
0000
0001
0000
,
0010
0000
0000
0100
1000
0000
0000
0000
0001
0000
0000
0100
0000
0000
0001
0000
,
1000
0000
0000
0000
0100
0000
0000
0000
0010
0000
0000
0100
0000
0000
1000
0000
,
0010
0000
0100
0000
0010
0000
0100
0000
0001
0000
0000
0010
0000
0000
0100
0000
,
0001
0000
0000
0000
0100
0000
0000
0000
0010
0000
0000
0001
0000
0000
1000
0000
,
0010
0000
0000
0100
0001
0000
0000
0000
1000
0000
0000
0100
0000
0000
0010
0000
,
0001
0000
0100
0010
2000
0000
0000
0000
,
0000
0000
0000
0000
3001
0000
1000
0000
0001
0000
0000
0010
0000
0000
0001
0000
,
0000
1000
0000
0010
0100
0000
1000
0000
0100
0000
0000
0001
0000
0000
0010
0000
,
0000
0100
0000
1000
0010
0100
0010
0000
1000
0000
0000
0001
0000
0000
0010
0000
,
0000
0001
0000
0010
1000
0000
0010
0000
0100
0000
0000
1000
0000
0000
0010
0000
,
0000
0100
0000
0001
0100
0010
1000
0000
0001
0000
0000
0010
0000
0000
0100
0000
,
0000
0010
0000
0001
1000
0000
1000
0000
0010
0000
0000
0100
0000
0000
0010
0000
,
0000
1000
0000
0001
0010
0000
0010
0000
0010
0000
0000
1000
0000
0000
0010
0000
,
0001
0000
0000
1000
0000
0000
0010
0100
0001
0000
0000
0010
0000
0000
1000
0000
,
0000
0001
0000
0100
1000
0000
0001
0000
2000
0000
0000
0000
0000
0000
0010
0000
,
0000
0000
0100
0000
3002
0000
0000
0100
,
0000
0000
0010
0000
2003
0000
0000
0100
,
0000
0000
0010
0000
3002
0000
0000
0010
,
0000
0000
0100
0000
0023
0000
0000
1000
,
0000
0000
0001
0000
0230
0000
0000
0001
,
0000
0000
1000
0000
0320
0000
0000
0001
,
0000
0000
1000
0000
0230
0000
0000
1000
,
0000
0000
0001
0000
0310
0000
0000
0001
,
0000
0000
0100
0000
1000
0000
0000
0100
,
0000
0001
0000
0000
1000
0000
0000
0000
0100
0000
0000
0000
0000
0000
0001
0000
,
0000
0000
0100
0000
0010
0000
0000
0001
,
0000
0000
0100
0010
1010
0000
0000
0000
,
0000
0000
0011
0000
,
0000
0000
0101
0000
,
1100
0110
1001
0000
,
0200
0000
0000
0300
0020
0000
0000
0030
1000
0100
0000
1000
0010
0000
0001
0000
,
0000
0010
0000
0000
0100
0000
0001
0000
1000
0100
0000
0100
0000
0000
0010
0000
,
0000
1000
0000
0010
0001
0000
1000
0000
0001
0100
0000
0001
0010
0000
1000
0000
,
0000
0010
0000
0000
0100
0000
0010
0000
0001
0100
0000
0100
0000
0000
0010
0000
,
0000
0001
0000
0010
1000
0000
0001
0000
0100
0010
0000
0001
0010
0000
0100
0000
,
0000
0001
0000
0000
0010
0000
0100
0000
1000
0010
0000
0010
0000
0000
0001
0000
,
0000
0010
0000
1000
0100
0000
0010
0000
1000
0010
0000
0010
0000
0000
0100
0000
,
0000
1000
0000
0000
0010
0000
0100
0000
0001
1000
0000
1000
0000
0000
0000
0000
,
0100
0010
0100
0001
0000
0100
0000
1000
0001
0100
0000
0010
0000
0001
0000
0010
,
0000
0100
0000
1000
0100
0000
0001
0000
1000
0100
0000
0001
0000
0100
0000
0010
,
0000
1000
0000
0010
0001
0000
1000
0000
0001
0010
0000
1000
0000
0010
0000
0100
,
0000
0001
0000
0100
1000
0000
0001
0000
1000
0010
0000
0001
0000
0010
0000
0100
,
0000
1000
0100
0001
1000
0100
0010
0100
1000
0001
0000
0100
0000
1000
0000
0100
,
0000
0010
0000
0001
0010
0000
1000
0000
0001
1000
0000
0100
0000
0001
0000
0100
,
0000
0010
0000
1000
0010
0000
0001
0000
1000
0010
0000
0001
0000
1000
0000
0100
,
0000
0001
0000
0010
0100
0000
1000
0000
0001
0100
0000
1000
0000
0100
0000
0001
,
0000
1000
0100
0010
0001
0100
0010
0100
0001
0000
0000
0000
0000
0000
0010
0000
,
0000
0000
0001
0000
1000
0000
0000
0010
,
0000
0000
1000
0000
0001
0000
0000
0100
,
0000
0000
0010
0000
1000
0000
0000
0100
,
0000
0010
0001
0000
,
0000
0000
0000
0000
,
0000
0000
0000
0000
,
0000
0000
0000
0000
0000
0000
0000
0000
1000
0100
1000
0000
0001
0010
0001
0000
,
1000
0010
0100
0001
1000
0000
0001
1000
0001
0000
0000
0000
0000
0000
0000
0000
;

//--------------- dance-single - Peter ----------------
#NOTES:
     dance-single:
     Peter:
     Challenge:
     16:
     0,0,0,0,0:
0000
0000
0000
0000
,
0000
0000
0000
0000
,
0000
0000
0000
0000
,
0000
0000
0000
0000
,
0200
0000
0000
0300
0020
0000
0000
0030
1001
0000
0000
1000
0100
0000
0010
0000
,
0100
0000
0000
0001
0100
0000
0000
0000
1000
0000
0000
0001
0100
0000
0010
0000
,
0100
0000
0000
0000
0100
0000
0000
0000
0001
0000
0000
1000
0010
0000
0100
0000
,
0010
0000
0000
0001
0010
0000
0000
0000
1000
0000
0000
0001
0010
0000
0100
0000
,
0010
0000
0010
0000
0010
0000
0010
0000
0001
0000
0000
1000
0010
0000
0001
0000
,
0010
0000
0000
0100
0010
0000
0000
0000
1000
0000
0000
0001
0010
0000
1000
0000
,
0010
0010
0001
0000
,
1000
0000
0000
0000
0001
0001
1000
1000
,
0200
0000
0000
0300
0020
0000
0000
0030
1001
0000
0000
1000
0100
0000
0001
0000
,
0100
0000
0000
0010
1000
0000
0000
0000
0010
0000
0000
0001
0100
0000
1000
0000
,
0100
0000
0000
0010
0001
0000
0010
0000
1000
0000
0000
0001
0010
0000
1000
0000
,
0010
0000
0000
0100
0001
0000
0000
0000
0100
0000
0000
1000
0010
0000
0001
0000
,
0010
0000
0010
0000
0010
0000
0010
0000
1000
0000
0000
0001
0100
0000
1000
0000
,
0100
0000
0000
0010
0001
0000
0000
0000
0010
0000
0000
1000
0100
0000
0001
0000
,
0100
0000
0000
0010
1000
0000
0010
0000
0001
0000
0000
1000
0010
0000
0001
0000
,
0010
0000
0000
0100
1000
0000
0100
0000
0002
0000
0000
0000
0000
0000
0000
0000
,
0000
0000
0000
0000
1003
0000
1000
0000
1001
0000
0000
0001
0010
0000
0100
0000
,
0000
0010
0000
1000
0010
0000
0100
0000
1000
0000
0000
0010
0000
0000
0100
0000
,
0000
1000
0000
0100
0010
0000
1000
0000
0001
0000
0000
1000
0010
0000
0100
0000
,
0000
0010
0000
0001
0010
0000
0100
0000
0001
0000
0000
0010
0100
0000
0100
0000
,
0001
0100
0000
1000
0010
0100
0001
0000
1001
0000
0000
0001
0010
0000
1000
0000
,
0000
0010
0000
0001
1000
0000
1001
0000
1001
0000
0000
1000
0010
0000
0001
0000
,
0010
1000
0001
0000
0010
0100
1000
0001
1000
0000
0000
1100
0000
0000
0101
0000
,
0001
0000
0000
0000
0000
0000
0000
0000
0000
0011
0000
0000
0000
0000
0000
0000
0000
0000
0001
0000
0000
1000
0000
0000
0001
0000
0100
0000
0001
0000
0100
0000
0000
0000
0000
0000
0010
0000
1000
0000
0010
0000
1000
0000
0000
0000
0000
0000
,
0001
0010
0001
1000
0010
1000
0001
0000
0000
0010
0001
0010
0002
0000
0000
0000
0000
0000
0000
0000
0000
0000
0000
0000
,
0000
0000
0203
0000
,
0000
0000
0320
0000
,
0000
0000
2030
0000
,
0000
0000
3200
0000
,
0000
0000
0320
0000
,
0000
0000
0032
0000
,
0000
0000
2003
0000
,
0000
0000
0000
0000
0000
0000
0000
0000
3001
0000
0000
0100
0000
0000
0001
0000
,
0000
1000
0000
0000
0100
0000
0001
0000
0100
0000
0000
0010
0000
0000
0100
0000
,
0000
1000
0000
0000
0010
0000
0100
0000
0001
0000
0000
0010
0000
0000
0001
0000
,
0000
1000
0000
0000
0010
0000
0001
0000
0010
0000
0000
0100
0000
0000
0010
0000
,
0000
1000
0000
0000
0100
0000
0010
0000
0001
0100
0001
0100
0001
0100
0001
0100
,
0010
1000
0010
1000
0010
1000
0010
1000
0100
0010
0100
0010
0100
0010
0100
0010
,
0001
1000
0001
1000
0001
1000
0001
1000
0001
0010
0001
0010
0100
1000
0100
1000
,
0001
1000
0001
1000
0001
0000
1000
0000
1001
0000
0000
0000
0000
0000
0000
0000
,
0200
0000
0000
0300
0020
0000
0000
0030
1000
0100
0000
0001
0100
0000
1000
0000
,
0000
0010
0000
0100
0001
0000
1000
0000
0001
0010
0000
0010
1000
0000
0010
0000
,
0000
0100
0000
1000
0010
0000
0100
0000
0001
0100
0000
1000
0100
0000
0001
0000
,
0000
0010
0000
0100
1000
0000
0001
0000
1000
0010
0000
0010
0000
0000
0100
0000
,
0001
0000
0001
0000
0001
0000
0001
0000
1000
0010
0000
0001
0010
0000
1000
0100
,
0000
0100
0000
0100
0001
0000
0100
0000
1000
0010
0000
0100
0010
0000
0100
0000
,
0000
0001
0000
0010
0100
0000
1000
0000
0001
0010
0000
1000
0010
0000
0001
0000
,
0000
0100
0000
0100
0010
0000
1000
0001
1000
0100
0000
0100
0010
0100
0000
0100
,
0001
0100
1000
0000
0010
0100
0000
0001
1000
0010
0000
0100
1000
0100
0000
0001
,
0000
0001
0000
0001
0010
0000
0100
0000
1000
0010
0000
0001
0000
0010
0000
0100
,
0000
0100
0000
0100
0001
0000
1000
0000
0001
0010
0000
0100
0001
0100
0000
1000
,
0000
1000
0000
1000
0010
0000
0100
0000
0001
0010
0000
0000
1000
0010
0000
0100
,
1000
0001
0100
0001
0010
0100
1000
0100
0010
0001
0000
0010
0000
1000
0000
0010
,
0000
0100
0000
0001
0100
0000
1000
0000
0010
0100
0000
1000
0100
0010
0000
0001
,
0000
0010
0000
1000
0001
0000
0010
0000
0100
1000
0000
0100
0000
0001
0000
0100
,
0000
0010
0000
1000
0010
0000
0001
0000
1000
0010
0100
0010
1000
0001
0010
0001
,
1000
0010
0100
0001
0010
0100
0010
0001
1000
0000
0000
0010
0100
0000
0001
0000
,
0000
0000
0000
0000
0010
0000
0000
0000
0001
0000
0000
0100
0010
0000
1000
0000
,
0000
0000
0000
0000
0010
0000
0000
0000
1000
0000
0000
0100
0010
0000
0001
0000
,
0000
0000
0000
0000
0100
0000
0000
0000
0001
0000
0000
0010
0100
0000
1000
0000
,
0000
0100
1000
0000
,
0000
0000
0001
0000
,
0000
0000
1000
0000
,
0000
0000
0000
0000
0000
0000
0000
0000
0000
0000
0000
0000
0001
0010
0001
0010
0000
0000
0100
1000
0100
1000
0000
0000
,
0001
0000
0100
0000
0001
0000
1000
0000
0100
0000
1000
0000
0001
0000
0000
0100
0000
0000
0001
0000
1000
0000
0001
0000
1000
0000
0000
0000
0000
0000
0000
0000
0000
0000
0000
0000
0000
0000
0000
0000
0000
0000
0000
0000
0000
0000
0000
0000
;

//--------------- dance-single - 32nd alt challenge ----------------
#NOTES:
     dance-single:
     32nd alt challenge:
     Edit:
     16:
     0,0,0,0,0:
0000
0000
0000
0000
,
0000
0000
0000
0000
,
0000
0000
0000
0000
,
0000
0000
0000
0000
,
0200
0000
0000
0300
0020
0000
0000
0030
1001
0000
0000
1000
0100
0000
0010
0000
,
0100
0000
0000
0001
0100
0000
0000
0000
1000
0000
0000
0001
0100
0000
0010
0000
,
0100
0000
0000
0000
0100
0000
0000
0000
0001
0000
0000
1000
0010
0000
0100
0000
,
0010
0000
0000
0001
0010
0000
0000
0000
1000
0000
0000
0001
0010
0000
0100
0000
,
0010
0000
0010
0000
0010
0000
0010
0000
0001
0000
0000
1000
0010
0000
0001
0000
,
0010
0000
0000
0100
0010
0000
0000
0000
1000
0000
0000
0001
0010
0000
1000
0000
,
0010
0010
0001
0000
,
1000
0000
0000
0000
0001
0001
1000
1000
,
0200
0000
0000
0300
0020
0000
0000
0030
1001
0000
0000
1000
0100
0000
0001
0000
,
0100
0000
0000
0010
1000
0000
0000
0000
0010
0000
0000
0001
0100
0000
1000
0000
,
0100
0000
0000
0010
0001
0000
0010
0000
1000
0000
0000
0001
0010
0000
1000
0000
,
0010
0000
0000
0100
0001
0000
0000
0000
0100
0000
0000
1000
0010
0000
0001
0000
,
0010
0000
0010
0000
0010
0000
0010
0000
1000
0000
0000
0001
0100
0000
1000
0000
,
0100
0000
0000
0010
0001
0000
0000
0000
0010
0000
0000
1000
0100
0000
0001
0000
,
0100
0000
0000
0010
1000
0000
0010
0000
0001
0000
0000
1000
0010
0000
0001
0000
,
0010
0000
0000
0100
1000
0000
0100
0000
0002
0000
0000
0000
0000
0000
0000
0000
,
0000
0000
0000
0000
1003
0000
1000
0000
1001
0000
0000
0001
0010
0000
0100
0000
,
0000
0010
0000
1000
0010
0000
0100
0000
1000
0000
0000
0010
0000
0000
0100
0000
,
0000
1000
0000
0100
0010
0000
1000
0000
0001
0000
0000
1000
0010
0000
0100
0000
,
0000
0010
0000
0001
0010
0000
0100
0000
0001
0000
0000
0010
0100
0000
0100
0000
,
0001
0100
0000
1000
0010
0100
0001
0000
1001
0000
0000
0001
0010
0000
1000
0000
,
0000
0010
0000
0001
1000
0000
1001
0000
1001
0000
0000
1000
0010
0000
0001
0000
,
0010
1000
0001
0000
0010
0100
1000
0001
1000
0000
0000
1100
0000
0000
0101
0000
,
0001
0000
0000
0000
0000
0000
0011
0000
0000
0000
0000
0000
0001
0000
1000
0000
0001
0100
0001
0100
0001
0000
0000
0000
1000
0010
1000
0010
1000
0000
0000
0000
,
0001
0010
0001
0000
1000
0010
1000
0000
0001
0000
0000
0000
1000
0100
1000
0100
2000
0000
0000
0000
0000
0000
0000
0000
0000
0000
0000
0000
0000
0000
0000
0000
,
0000
0000
3020
0000
,
0000
0000
0230
0000
,
0000
0000
0302
0000
,
0000
0000
0023
0000
,
0000
0000
0230
0000
,
0000
0000
2300
0000
,
0000
0000
3002
0000
,
0000
0000
0000
0000
0000
0000
0000
0000
1003
0000
0000
0010
0000
0000
1000
0000
,
0000
0001
0000
0000
0010
0000
1000
0000
0010
0000
0000
0100
0000
0000
0010
0000
,
0000
0001
0000
0000
0100
0000
0010
0000
1000
0000
0000
0100
0000
0000
1000
0000
,
0000
0001
0000
0000
0100
0000
1000
0000
0100
0000
0000
0010
0000
0000
0100
0000
,
0000
0001
0000
0000
0010
0000
0100
0000
1000
0010
1000
0010
1000
0010
1000
0010
,
0100
0001
0100
0001
0100
0001
0100
0001
0010
0100
0010
0100
0010
0100
0010
0100
,
1000
0001
1000
0001
1000
0001
1000
0001
1000
0100
1000
0100
0010
0001
0010
0001
,
1000
0001
1000
0001
1000
0000
0001
0000
1001
0000
0000
0000
0000
0000
0000
0000
,
0200
0000
0000
0300
0020
0000
0000
0030
1000
0100
0000
0001
0100
0000
1000
0000
,
0000
0010
0000
0100
0001
0000
1000
0000
0001
0010
0000
0010
1000
0000
0010
0000
,
0000
0100
0000
1000
0010
0000
0100
0000
0001
0100
0000
1000
0100
0000
0001
0000
,
0000
0010
0000
0100
1000
0000
0001
0000
1000
0010
0000
0010
0000
0000
0100
0000
,
0001
0000
0001
0000
0001
0000
0001
0000
1000
0010
0000
0001
0010
0000
1000
0100
,
0000
0100
0000
0100
0001
0000
0100
0000
1000
0010
0000
0100
0010
0000
0100
0000
,
0000
0001
0000
0010
0100
0000
1000
0000
0001
0010
0000
1000
0010
0000
0001
0000
,
0000
0100
0000
0100
0010
0000
1000
0001
1000
0100
0000
0100
0010
0100
0000
0100
,
0001
0100
1000
0000
0010
0100
0000
0001
1000
0010
0000
0100
1000
0100
0000
0001
,
0000
0001
0000
0001
0010
0000
0100
0000
1000
0010
0000
0001
0000
0010
0000
0100
,
0000
0100
0000
0100
0001
0000
1000
0000
0001
0010
0000
0100
0001
0100
0000
1000
,
0000
1000
0000
1000
0010
0000
0100
0000
0001
0010
0000
0000
1000
0010
0000
0100
,
1000
0001
0100
0001
0010
0100
1000
0100
0010
0001
0000
0010
0000
1000
0000
0010
,
0000
0100
0000
0001
0100
0000
1000
0000
0010
0100
0000
1000
0100
0010
0000
0001
,
0000
0010
0000
1000
0001
0000
0010
0000
0100
1000
0000
0100
0000
0001
0000
0100
,
0000
0010
0000
1000
0010
0000
0001
0000
1000
0010
0100
0010
1000
0001
0010
0001
,
1000
0010
0100
0001
0010
0100
0010
0001
1000
0000
0000
0010
0100
0000
0001
0000
,
0000
0000
0000
0000
0010
0000
0000
0000
0001
0000
0000
0100
0010
0000
1000
0000
,
0000
0000
0000
0000
0010
0000
0000
0000
1000
0000
0000
0100
0010
0000
0001
0000
,
0000
0000
0000
0000
0100
0000
0000
0000
0001
0000
0000
0010
0100
0000
1000
0000
,
0000
0000
0100
0000
1000
0000
0000
0100
,
0000
0000
0000
0000
0010
0000
0000
0001
,
0000
0000
0100
0000
0010
0000
0000
1000
,
0000
0000
0000
0000
0000
0000
0000
0000
0000
0000
0000
0000
0000
0000
0000
0000
0001
0010
0001
0010
0001
0000
0000
0000
1000
0100
1000
0100
1000
0000
0000
0000
,
0001
0100
0001
0000
1000
0100
1000
0000
0001
0000
0010
0000
0001
1000
0001
1000
0001
0000
0000
0000
0000
0000
0000
0000
0000
0000
0000
0000
0000
0000
0000
0000
;
