#TITLE:CLOSED CIRCUIT;
#SUBTITLE:;
#ARTIST:Z-I-v Sound Team "Karl with a K;
#TITLETRANSLIT:;
#SUBTITLETRANSLIT:;
#ARTISTTRANSLIT:;
#GENRE:;
#CREDIT:;
#BANNER:CLOSED CIRCUIT banner.png;
#BACKGROUND:CLOSED CIRCUIT bg.png;
#LYRICSPATH:;
#CDTITLE:;
#MUSIC:CLOSED CIRCUIT.ogg;
#OFFSET:0.000000;
#SAMPLESTART:39.789471;
#SAMPLELENGTH:15.000000;
#SELECTABLE:YES;
#BPMS:0.000000=380.000000
,244.000000=190.000000
,248.000000=380.000000
,461.000000=190.000000
,525.000000=380.000000
;
#STOPS:460.000000=0.474000
;
#BGCHANGES:;
#KEYSOUNDS:;
#ATTACKS:;

//---------------dance-single - XO DS JA+ XMOD RH- JU----------------
#NOTES:
     dance-single:
     :
     Challenge:
     18:
     0.880780,1.230238,0.282080,0.624605,0.010074,918.000000,876.000000,42.000000,93.000000,0.000000,0.000000,0.880780,1.230238,0.282080,0.624605,0.010074,918.000000,876.000000,42.000000,93.000000,0.000000,0.000000:
// measure 0
0000
0000
0000
0000
,  // measure 1
0000
0000
0000
0000
,  // measure 2
0000
0000
0000
0000
,  // measure 3
0000
0000
0000
0000
,  // measure 4
0000
0000
0000
0000
,  // measure 5
0000
0000
0000
0000
,  // measure 6
0000
0000
0000
0000
,  // measure 7
0000
0000
0000
0000
,  // measure 8
0000
0000
0000
0000
,  // measure 9
2000
0000
0000
3020
,  // measure 10
0000
0000
2030
0000
,  // measure 11
0000
3200
0000
0000
,  // measure 12
1300
0001
0001
1000
,  // measure 13
0010
1000
0002
0000
,  // measure 14
0000
0023
0000
0000
,  // measure 15
0032
0000
0000
0203
,  // measure 16
0000
0000
0302
0000
,  // measure 17
0000
1003
0010
0100
,  // measure 18
0020
0000
0000
2030
,  // measure 19
0000
0000
3200
0000
,  // measure 20
0320
0001
0000
0000
,  // measure 21
0031
1000
0001
0100
,  // measure 22
0001
1000
0200
0000
,  // measure 23
0000
0320
0000
0000
,  // measure 24
0032
0000
0000
0203
,  // measure 25
0000
0000
0302
0000
,  // measure 26
1003
0001
1000
0001
,  // measure 27
0011
0001
1001
0000
,  // measure 28
0001
0100
0010
0100
0010
0000
0210
0000
,  // measure 29
0000
2300
0000
0000
,  // measure 30
3100
0010
1000
0010
,  // measure 31
0100
0010
1010
1000
,  // measure 32
1001
0000
0000
0000
1000
0100
0010
0100
,  // measure 33
0001
0101
0000
0002
,  // measure 34
0000
0000
0203
0320
,  // measure 35
0230
0000
1300
0100
,  // measure 36
1100
1000
1001
0000
,  // measure 37
0001
0100
0010
0100
1000
0000
1100
0000
,  // measure 38
0000
2000
0000
0000
,  // measure 39
3100
0010
1000
0002
,  // measure 40
1000
0103
0101
0001
,  // measure 41
1001
0000
0000
0000
1000
0100
0010
0100
,  // measure 42
0010
0110
0000
0001
,  // measure 43
0001
1000
1000
0010
,  // measure 44
0010
1000
1000
0001
,  // measure 45
2000
0000
0010
0000
,  // measure 46
3002
0000
1000
0000
,  // measure 47
0023
0000
0001
0000
,  // measure 48
0230
0000
0010
0000
,  // measure 49
2300
0000
0100
0000
,  // measure 50
3002
0000
1000
0000
,  // measure 51
0023
0000
0001
0000
,  // measure 52
0230
0000
0310
0001
,  // measure 53
1000
0010
1000
0010
,  // measure 54
0001
0010
1000
0001
,  // measure 55
0010
0001
0010
0001
,  // measure 56
0100
0010
0100
0010
,  // measure 57
1000
0000
0010
1000
0010
1000
0010
1000
,  // measure 58
0001
0000
1000
0100
1000
0100
1000
0100
,  // measure 59
0010
0001
0100
0000
0010
1000
0100
0000
,  // measure 60
0010
0001
0100
0010
1000
0100
0010
0000
,  // measure 61
1001
0000
0000
0000
,  // measure 62
1000
0010
0100
0010
1000
0000
0001
0000
,  // measure 63
1000
0001
0010
0100
0010
0001
1000
0000
,  // measure 64
0100
1000
0010
0000
0100
0000
0010
0000
,  // measure 65
1000
0001
0100
0001
1000
0001
1000
0000
,  // measure 66
0010
0000
1000
0000
0100
1000
0000
1000
,  // measure 67
0001
0100
0001
0100
0001
1000
0100
0010
,  // measure 68
0000
0010
0100
0000
0010
0001
0100
0000
,  // measure 69
0001
1000
0000
0010
0000
0010
1000
0000
,  // measure 70
0001
0100
0001
0000
,  // measure 71
0010
0100
1000
0000
0001
1000
0100
1000
,  // measure 72
0100
0000
0010
0000
0100
1000
0000
0000
,  // measure 73
1000
0000
0010
0100
0010
1000
0001
0000
,  // measure 74
0010
0000
0001
1000
0010
0000
0100
0010
,  // measure 75
0100
0001
0000
0000
0010
0000
0100
0010
,  // measure 76
0001
1000
0001
0000
1000
0000
0001
0010
,  // measure 77
0100
1000
0001
0100
0001
0000
0010
0000
,  // measure 78
0001
0010
0001
0000
1000
0010
1000
0000
,  // measure 79
0010
0100
0010
0100
0001
1000
0001
0000
,  // measure 80
2000
0100
3001
0002
,  // measure 81
0103
0001
1000
0001
0020
0000
0100
0000
,  // measure 82
0031
0100
0100
0100
,  // measure 83
0100
0100
0001
0000
,  // measure 84
0011
0000
1100
0000
,  // measure 85
0001
1000
0001
1000
0001
0000
0100
0000
,  // measure 86
0010
1000
0001
0000
0101
0000
0001
0100
,  // measure 87
0000
0010
0100
0000
0001
0100
0000
0010
,  // measure 88
0100
0000
0001
0000
1000
0100
1000
0100
,  // measure 89
1000
0000
0001
0100
0000
0100
0001
0000
,  // measure 90
1000
0000
0001
1000
0001
0000
1000
0001
,  // measure 91
1000
0000
0100
0000
0000
0100
1000
0000
,  // measure 92
0100
0000
0000
0100
0000
0000
0100
0000
,  // measure 93
1000
0010
0000
0000
0010
0000
0000
0010
,  // measure 94
0000
0000
0100
0000
0010
0100
0010
0000
,  // measure 95
0100
0010
0100
0010
0100
0000
1000
0100
,  // measure 96
1000
0100
1000
0000
0100
0001
0000
0001
,  // measure 97
1000
0010
0010
0010
,  // measure 98
1000
0100
0001
0100
1000
0000
0000
0000
,  // measure 99
0011
0000
0001
0100
0010
0001
0010
0000
,  // measure 100
0000
0000
1000
0000
1000
0100
0010
0000
,  // measure 101
0100
0000
0010
1000
0010
1000
0010
0000
,  // measure 102
0001
0000
0000
0000
1000
0010
0001
0010
,  // measure 103
1000
0000
0000
0000
0101
0000
0001
0010
,  // measure 104
0100
0001
0100
0000
0000
0000
1000
0000
,  // measure 105
0001
0100
1000
0000
0100
0010
1000
0010
,  // measure 106
1000
0100
0010
0000
0011
0000
0000
0000
,  // measure 107
0001
0010
1000
0010
0001
0000
0000
0000
,  // measure 108
1100
0000
1000
0010
0100
1000
0100
0000
,  // measure 109
0000
0000
0001
0000
0001
0010
0000
0010
,  // measure 110
0100
0000
0001
0100
1000
0000
0001
0000
,  // measure 111
0100
0010
0100
0000
0001
0100
1000
0100
,  // measure 112
0001
0000
0000
0000
1010
0000
1000
0100
,  // measure 113
0010
1000
0010
0000
0000
0000
0001
0000
,  // measure 114
1000
0010
0001
0010
0100
0010
0100
0000
,  // measure 115
0110
0000
0100
0100
0100
0002
1000
1000
,  // measure 116
0000
1000
0000
0000
1003
0000
0100
0010
,  // measure 117
0010
0001
0010
0000
0010
0002
1000
0000
,  // measure 118
1000
1000
0000
1003
0000
0001
1000
0020
,  // measure 119
0000
0230
0001
0001
0001
0000
0310
1000
,  // measure 120
0100
0000
0010
0010
0100
1000
0100
0010
,  // measure 121
0001
1000
0200
1000
1000
0300
0100
0000
,  // measure 122
1000
0100
1000
0001
0100
0010
1000
0010
,  // measure 123
0100
0001
2000
0000
0100
0000
3002
0000
,  // measure 124
0100
0023
0001
0230
,  // measure 125
1000
2300
3020
0032
,  // measure 126
0010
0023
1030
0200
,  // measure 127
0010
0000
1300
1000
1000
0000
0001
0001
,  // measure 128
0001
0000
0010
0010
0010
0000
0100
0100
,  // measure 129
0100
0000
1000
0001
0100
0001
0100
0001
,  // measure 130
0010
0100
0001
0100
1000
0010
0001
0000
,  // measure 131
0110
2010
0000
0010
,  // measure 132
3000
1000
0100
0200
,  // measure 133
0000
0010
0000
1300
,  // measure 134
0000
0000
1000
0010
0000
0000
0100
0001
,  // measure 135
0000
0002
0023
0032
,  // measure 136
0023
0100
0000
0032
,  // measure 137
0000
1003
0001
0100
,  // measure 138
2000
0000
3200
0000
0000
0000
0301
0010
,  // measure 139
0100
0010
1000
0010
,  // measure 140
0001
0100
1000
0100
,  // measure 141
0001
1000
0200
0000
,  // measure 142
0320
0032
0100
0103
,  // measure 143
0001
1000
0100
0010
,  // measure 144
0002
1003
0001
0100
,  // measure 145
0010
0000
0000
0020
0000
0000
0000
2030
0000
0000
0000
3100
,  // measure 146
0000
0000
0000
0000
0000
0000
0020
0000
0000
0100
0000
0000
0000
0000
0032
0000
0000
0000
1003
0000
0000
0001
0000
0000
,  // measure 147
0000
0000
1000
0020
0000
0000
1030
0020
,  // measure 148
0000
0001
0000
0100
,  // measure 149
0000
2030
0000
3100
,  // measure 150
0010
1000
0010
0001
,  // measure 151
0100
0000
2000
0000
0000
3200
0000
0000
,  // measure 152
0302
0010
0000
2003
,  // measure 153
0000
0100
0000
0100
,  // measure 154
0000
3001
0010
0001
,  // measure 155
1000
0200
0000
0310
,  // measure 156
0002
1000
0000
0203
,  // measure 157
0000
0001
0000
0301
,  // measure 158
0000
0110
0000
1000
,  // measure 159
0000
1000
0100
0010
,  // measure 160
0001
0100
0010
0001
,  // measure 161
0010
0002
0000
1003
,  // measure 162
0001
0010
0010
1000
,  // measure 163
1000
0000
0100
1000
0100
1000
0100
0010
,  // measure 164
0100
0010
0001
1000
0001
1000
0001
0100
,  // measure 165
0001
1000
0010
1000
0001
0010
0100
0010
,  // measure 166
0001
1000
0020
0000
0000
0000
0130
0000
,  // measure 167
0001
1000
0002
0000
0100
0000
0100
0000
,  // measure 168
0000
0000
0013
0000
0001
0010
0001
0000
,  // measure 169
0010
0000
0001
1000
0010
0100
0010
0000
,  // measure 170
1000
0000
0001
0000
0100
0000
0001
1000
,  // measure 171
0001
0010
0200
0000
0000
0000
1300
0100
,  // measure 172
1000
0000
0001
0000
0100
0010
2000
0000
,  // measure 173
0000
0000
3001
0100
0001
1000
0001
0000
,  // measure 174
1000
0000
0020
0000
1000
0000
0130
0001
,  // measure 175
0100
0000
0010
1000
0001
0010
0001
1000
,  // measure 176
0100
1000
0100
0010
0100
0010
0001
0010
,  // measure 177
0001
0000
1000
0001
1000
0000
0010
0000
,  // measure 178
0100
0000
0001
1000
0001
1000
0100
0000
,  // measure 179
0010
2000
0010
0010
,  // measure 180
0000
0001
0000
3020
,  // measure 181
0000
0031
0010
0200
,  // measure 182
0300
0120
0000
0001
,  // measure 183
0000
0032
1000
0100
,  // measure 184
0003
0201
0010
0001
,  // measure 185
0000
0320
1000
0100
,  // measure 186
0000
0032
0010
1000
,  // measure 187
0000
0013
0001
0010
,  // measure 188
1000
0010
1000
0000
0001
0000
0010
0000
,  // measure 189
0100
0000
0001
0100
0001
0000
0100
0000
,  // measure 190
1000
0000
1001
0000
0000
1000
0001
0100
,  // measure 191
0010
1000
0001
0010
0100
1000
0100
0010
,  // measure 192
0001
1000
0010
0100
0010
1000
0001
0010
,  // measure 193
0100
0010
1000
0010
0001
0000
0010
0000
,  // measure 194
1000
0001
0100
0000
1000
0000
0010
0001
,  // measure 195
1000
0100
1000
0000
0100
0000
1100
0000
,  // measure 196
0000
0000
0100
0001
1000
0000
0100
0000
,  // measure 197
0001
1000
0010
1010
,  // measure 198
0000
0000
0010
0001
1000
0000
0010
0000
,  // measure 199
0001
0010
0100
1000
,  // measure 200
0100
0000
0001
0000
0010
0100
0000
0010
,  // measure 201
0001
1000
0100
0010
,  // measure 202
1000
0000
0001
0100
0000
0100
0010
0000
,  // measure 203
0001
1000
0010
0000
1000
0000
0001
0000
,  // measure 204
0010
1100
0000
0110
,  // measure 205
0000
1100
0000
1001
,  // measure 206
0000
0101
1000
0001
,  // measure 207
1000
0010
1000
0001
,  // measure 208
1000
0100
0010
0110
,  // measure 209
0100
1100
1000
1001
,  // measure 210
0001
0011
0001
1001
,  // measure 211
1000
0010
1010
0010
,  // measure 212
0110
0000
0100
0000
0001
0010
1000
0001
,  // measure 213
1000
0001
2000
0000
0000
0000
0000
0000
,  // measure 214
0000
0000
0000
0000
,  // measure 215
0000
0000
3000
0000
;

//---------------dance-single - XO- DS JA XMOD RH-----------------
#NOTES:
     dance-single:
     :
     Hard:
     15:
     0.751254,1.157871,0.120891,0.490282,0.013432,783.000000,765.000000,18.000000,73.000000,0.000000,0.000000,0.751254,1.157871,0.120891,0.490282,0.013432,783.000000,765.000000,18.000000,73.000000,0.000000,0.000000:
// measure 0
0000
0000
0000
0000
,  // measure 1
0000
0000
0000
0000
,  // measure 2
0000
0000
0000
0000
,  // measure 3
0000
0000
0000
0000
,  // measure 4
0000
0000
0000
0000
,  // measure 5
0000
0000
0000
0000
,  // measure 6
0000
0000
0000
0000
,  // measure 7
0000
0000
0000
0000
,  // measure 8
0000
0000
0000
0000
,  // measure 9
0002
0000
0000
0023
,  // measure 10
0000
0000
0230
0000
,  // measure 11
0000
2300
0000
0000
,  // measure 12
3001
0000
0001
0100
,  // measure 13
0010
0000
0200
0000
,  // measure 14
0000
0320
0000
0000
,  // measure 15
2030
0000
0000
3200
,  // measure 16
0000
0000
2300
0000
,  // measure 17
0000
3001
1000
0001
,  // measure 18
0020
0000
0000
0032
,  // measure 19
0000
0000
2003
0000
,  // measure 20
3010
0200
0000
0000
,  // measure 21
0301
1000
0001
0000
,  // measure 22
1000
0100
2000
0000
,  // measure 23
0000
3020
0000
0000
,  // measure 24
0230
0000
0000
0302
,  // measure 25
0000
0000
1003
0000
,  // measure 26
0001
0100
0001
0000
,  // measure 27
1000
0100
1000
0000
0001
0000
0000
0000
,  // measure 28
0100
0010
0100
0000
0001
0000
1000
0000
,  // measure 29
0000
0110
0000
0000
,  // measure 30
1000
0001
1000
0000
,  // measure 31
0100
0000
0010
0000
0001
0100
0001
0000
,  // measure 32
1000
0000
0000
0000
0100
0010
0100
0000
,  // measure 33
1000
0001
0000
0010
,  // measure 34
0000
0000
0002
0000
,  // measure 35
0003
0100
0010
1000
,  // measure 36
0001
0010
0001
0000
1000
0000
0000
0000
,  // measure 37
0010
0100
0010
0000
1000
0000
0001
0000
,  // measure 38
0000
0100
0000
0000
,  // measure 39
0001
1000
0001
0020
,  // measure 40
0230
0000
0000
0000
1300
0010
1000
0000
,  // measure 41
0001
0000
0000
0000
0010
0100
0010
0000
,  // measure 42
0001
1000
0000
0100
,  // measure 43
1000
0100
1000
0100
,  // measure 44
0010
0001
0100
0010
,  // measure 45
1010
0000
0010
0100
,  // measure 46
0001
0000
0001
1000
,  // measure 47
0010
0000
0010
1000
,  // measure 48
0100
0000
0010
0100
,  // measure 49
1000
0000
0100
0010
,  // measure 50
0001
0000
1000
0001
,  // measure 51
0010
0000
0010
0001
,  // measure 52
0100
0000
0100
0010
,  // measure 53
1000
0100
1000
0100
,  // measure 54
0010
0001
0010
0001
,  // measure 55
1000
0010
1000
0010
,  // measure 56
0100
0001
0100
0001
,  // measure 57
1000
0000
0100
0010
0100
0000
1000
0000
,  // measure 58
0001
0000
0100
0010
0100
0000
0001
0000
,  // measure 59
0010
0100
1000
0000
0100
1000
0001
0000
,  // measure 60
0100
0010
1000
0000
0010
0100
0010
0000
,  // measure 61
0110
0000
0000
0000
,  // measure 62
0001
0100
0001
0000
0010
0000
0100
0000
,  // measure 63
0010
0000
0001
1000
0000
0001
1000
0000
,  // measure 64
0001
0010
0100
0000
0010
0001
0000
0000
,  // measure 65
1000
0001
0000
1000
0001
0010
0001
0000
,  // measure 66
1000
0000
0001
0000
0100
0010
0000
1000
,  // measure 67
0010
0000
1000
0000
0001
0000
0010
0001
,  // measure 68
0000
1000
0010
0000
0100
0000
0001
0000
,  // measure 69
1000
0100
0000
0010
0000
0100
0010
0000
,  // measure 70
0001
0000
1001
0000
,  // measure 71
1000
0100
1000
0000
0010
0000
0100
0010
,  // measure 72
1000
0000
0001
0000
1000
0001
0000
0000
,  // measure 73
1000
0000
0010
0000
0100
0010
0100
0000
,  // measure 74
0001
0000
0000
0001
1000
0010
1000
0001
,  // measure 75
1000
0000
0000
0000
0100
0010
0001
0010
,  // measure 76
0001
0000
1000
0010
0000
1000
0001
0010
,  // measure 77
0100
1000
0100
1000
,  // measure 78
0001
0100
0010
0000
0100
0010
0100
0001
,  // measure 79
1000
0000
0001
1000
0100
1000
0001
0000
,  // measure 80
1000
0001
0000
0000
1000
0000
0001
0000
,  // measure 81
0100
0001
1000
0001
0010
0000
0000
0000
,  // measure 82
0001
0100
0100
0100
,  // measure 83
0100
0100
0001
0000
,  // measure 84
0011
0000
0110
0000
,  // measure 85
1000
0100
1000
0001
1000
0000
0100
0000
,  // measure 86
0010
0000
0001
0000
0100
0000
0010
0100
,  // measure 87
0000
0000
0100
0000
0000
0100
0000
0000
,  // measure 88
0100
0000
0000
0000
0010
1000
0010
1000
,  // measure 89
0010
0000
1000
0001
0000
1000
0001
0000
,  // measure 90
0010
0000
0001
0010
0001
0000
0000
1000
,  // measure 91
0010
0000
0110
0000
0000
0100
0000
0000
,  // measure 92
0100
0000
0000
0100
0000
0000
0100
0000
,  // measure 93
0000
0010
0000
0000
1010
0000
0000
0010
,  // measure 94
0000
0000
0100
0000
0001
0100
0001
0000
,  // measure 95
1000
0100
1000
0100
1000
0000
0010
1000
,  // measure 96
0010
1000
0001
0000
1000
0001
1000
0000
,  // measure 97
0001
0010
0110
0010
,  // measure 98
0001
0100
0010
0100
0001
0000
0000
0000
,  // measure 99
1000
0000
0001
0010
0100
0010
0001
0000
,  // measure 100
0000
1000
0010
0010
,  // measure 101
0000
1000
1000
1000
,  // measure 102
0001
0000
0000
0000
1000
0100
0010
0100
,  // measure 103
1000
0000
0000
0000
0001
0000
1000
0010
,  // measure 104
0100
0010
1000
0000
0000
0000
0001
0010
,  // measure 105
0100
0010
0001
0001
,  // measure 106
1000
0100
0010
0000
0010
0000
0001
0000
,  // measure 107
1000
0010
0100
0010
1000
0000
0000
0000
,  // measure 108
0001
0000
1000
0100
0010
0100
1000
0000
,  // measure 109
0000
0000
0001
0000
0100
0001
0000
0100
,  // measure 110
0001
0000
0010
0001
1000
0000
0001
0000
,  // measure 111
1000
0001
1000
0000
0001
0010
0100
0010
,  // measure 112
0001
0000
0000
0000
1000
0000
0001
0100
,  // measure 113
0010
0100
0001
0000
0000
0000
1000
0000
,  // measure 114
1000
0100
0010
0001
1000
0010
0100
0000
,  // measure 115
0101
0000
0200
0000
0000
0320
1000
0000
,  // measure 116
0100
0000
0000
0000
0130
0000
0001
1000
,  // measure 117
0001
0000
0020
0000
0000
0230
0010
0000
,  // measure 118
1000
0000
1300
0020
,  // measure 119
0000
0230
0001
0000
0000
0000
0010
0000
,  // measure 120
0000
0000
0000
0000
0301
0000
0001
0010
,  // measure 121
0000
0000
0200
0000
0000
0320
0000
0000
,  // measure 122
0032
0000
1003
0010
1000
0000
0001
0010
,  // measure 123
0001
0000
0010
0000
0100
0000
0010
0001
,  // measure 124
1000
0000
0010
0000
0100
0010
1000
0000
,  // measure 125
0002
0100
1000
0100
,  // measure 126
1000
0000
0023
0000
0130
2000
0100
0000
,  // measure 127
3001
0000
0001
0100
0001
0000
1000
0100
,  // measure 128
1000
0000
0010
0100
0001
0000
0010
0100
,  // measure 129
1000
0000
0001
1000
0001
1000
0001
0010
,  // measure 130
0100
0001
0100
0100
1000
1000
0020
0000
,  // measure 131
0001
1030
0000
2000
,  // measure 132
0000
3100
0000
0200
,  // measure 133
0000
0010
0000
0010
,  // measure 134
0000
0000
1300
0001
0000
0000
0100
0010
,  // measure 135
0000
2000
0000
0100
,  // measure 136
0000
3100
0000
0200
,  // measure 137
0000
0310
0000
0001
,  // measure 138
0020
0000
0000
0000
0130
0000
1000
0001
,  // measure 139
0000
1000
0010
1000
,  // measure 140
0001
0100
0001
1000
,  // measure 141
0100
1000
0001
0100
,  // measure 142
0020
1030
0000
1000
,  // measure 143
0100
1000
0100
1000
,  // measure 144
0020
0000
0130
0001
,  // measure 145
1000
0000
0000
0010
0000
0000
0000
1000
0000
0000
0000
0001
,  // measure 146
0000
0000
0000
0110
0000
0000
0000
0100
0000
0000
0000
0010
,  // measure 147
0000
0002
0013
0002
,  // measure 148
0000
0010
0000
1003
,  // measure 149
0000
0100
1000
0001
,  // measure 150
0100
0010
0100
0010
,  // measure 151
0100
0000
2000
0000
0000
3200
0000
0000
,  // measure 152
0320
1000
0000
0230
,  // measure 153
0000
0301
1000
0200
,  // measure 154
0000
0310
1000
0010
,  // measure 155
0100
2000
0000
0000
,  // measure 156
3020
1000
0000
0230
,  // measure 157
0000
0010
0000
0301
,  // measure 158
0000
1000
0000
0100
,  // measure 159
0000
1000
0100
0010
,  // measure 160
0001
1000
0010
0100
,  // measure 161
0001
0020
0030
0010
,  // measure 162
0010
0001
1000
1001
,  // measure 163
0000
0000
0001
0100
0010
1000
0001
0000
,  // measure 164
0010
0000
0001
0010
0100
1000
0001
0000
,  // measure 165
0010
0000
0001
0010
0001
0000
1000
0010
,  // measure 166
1000
0020
0000
0100
,  // measure 167
1000
2030
0000
0100
,  // measure 168
0000
3001
0000
0001
,  // measure 169
0010
0001
1000
0010
,  // measure 170
1000
0001
0100
0001
,  // measure 171
1000
0020
0000
0100
,  // measure 172
0230
0010
0000
0302
,  // measure 173
0000
1003
0200
1000
,  // measure 174
0000
0320
0000
0100
,  // measure 175
0030
0000
0010
0001
0010
0100
1000
0000
,  // measure 176
0001
0000
0100
0001
0100
0010
1000
0000
,  // measure 177
0001
0100
0001
1000
,  // measure 178
0100
0010
0001
0100
,  // measure 179
0010
0002
0000
0010
,  // measure 180
0000
0010
0000
0023
,  // measure 181
0000
0100
0000
0100
,  // measure 182
0000
0032
0000
0023
,  // measure 183
0000
2030
0000
0001
,  // measure 184
0000
3200
0000
1000
,  // measure 185
0000
0320
0000
0100
,  // measure 186
0000
2030
0000
3010
,  // measure 187
0000
0010
1000
0010
,  // measure 188
0100
0010
0100
0000
0000
0000
0010
0000
,  // measure 189
0001
0000
0100
0010
0100
0000
0001
0000
,  // measure 190
1000
0000
0010
0000
1000
0001
0100
0001
,  // measure 191
1000
0000
0100
0010
0100
0000
0010
0001
,  // measure 192
1000
0000
0010
0100
0010
0000
1000
0001
,  // measure 193
0100
0000
0010
1000
0000
0000
1000
0001
,  // measure 194
0020
0000
0100
0000
0000
0000
0031
1000
,  // measure 195
0010
2000
0000
0100
,  // measure 196
3001
1002
0000
0100
,  // measure 197
1003
0021
0000
0100
,  // measure 198
0031
0210
0000
0310
,  // measure 199
0001
1000
0100
0120
,  // measure 200
0000
0000
0031
0000
0000
0000
0001
1000
,  // measure 201
0001
0010
0001
0100
,  // measure 202
0010
0000
0100
0010
0100
0000
0010
1000
,  // measure 203
0000
0010
1000
0000
0000
0000
0001
0000
,  // measure 204
0010
0001
0000
0011
,  // measure 205
0000
0010
0000
0110
,  // measure 206
0000
0100
1000
0100
,  // measure 207
0010
1000
0010
1000
,  // measure 208
0010
0001
0100
0010
,  // measure 209
0001
0010
0001
0010
,  // measure 210
1000
0100
0001
0100
,  // measure 211
0001
1000
0010
0001
,  // measure 212
1000
0000
0001
0000
1000
0010
0100
0010
,  // measure 213
0001
2000
0000
0000
,  // measure 214
0000
0000
0000
0000
,  // measure 215
0000
0000
3000
0000
;

//---------------dance-single - ----------------
#NOTES:
     dance-single:
     :
     Medium:
     12:
     0.602538,1.157871,0.040297,0.423120,0.013432,628.000000,622.000000,6.000000,63.000000,0.000000,0.000000,0.602538,1.157871,0.040297,0.423120,0.013432,628.000000,622.000000,6.000000,63.000000,0.000000,0.000000:
// measure 0
0000
0000
0000
0000
,  // measure 1
0000
0000
0000
0000
,  // measure 2
0000
0000
0000
0000
,  // measure 3
0000
0000
0000
0000
,  // measure 4
0000
0000
0000
0000
,  // measure 5
0000
0000
0000
0000
,  // measure 6
0000
0000
0000
0000
,  // measure 7
0000
0000
0000
0000
,  // measure 8
0000
0000
0000
0000
,  // measure 9
2000
0000
0000
3020
,  // measure 10
0000
0000
0230
0000
,  // measure 11
0000
0302
0000
0000
,  // measure 12
1003
0000
0100
0000
,  // measure 13
0010
0000
0002
0000
,  // measure 14
0000
0023
0000
0000
,  // measure 15
0230
0000
0000
2300
,  // measure 16
0000
0000
3001
0000
,  // measure 17
0000
1000
0001
0000
,  // measure 18
0020
0000
0000
0032
,  // measure 19
0000
0000
0203
0000
,  // measure 20
0320
0000
0000
0000
,  // measure 21
1030
0001
1000
0000
,  // measure 22
0100
0000
2000
0000
,  // measure 23
0000
3002
0000
0000
,  // measure 24
0023
0000
0000
0230
,  // measure 25
0000
0000
2300
0000
,  // measure 26
3001
0000
1000
0000
,  // measure 27
0001
0100
0001
0000
,  // measure 28
1000
0100
1000
0100
,  // measure 29
0000
0010
0000
0000
,  // measure 30
0001
0000
0001
0000
,  // measure 31
1000
0000
0001
0010
,  // measure 32
0001
0000
1000
0010
,  // measure 33
1000
0010
0000
0100
,  // measure 34
0000
0000
0002
0000
,  // measure 35
0003
1000
0001
0000
,  // measure 36
1000
0010
1000
0000
,  // measure 37
0001
0010
0001
0010
,  // measure 38
0000
0100
0000
0000
,  // measure 39
1000
0000
1000
0000
,  // measure 40
0001
0000
1000
0100
,  // measure 41
1000
0000
0001
0100
,  // measure 42
0001
0100
0000
0010
,  // measure 43
0000
0010
1000
0000
,  // measure 44
0001
1000
0001
0000
,  // measure 45
1000
0000
0000
1000
,  // measure 46
0001
0000
0000
0001
,  // measure 47
0010
0000
0000
0010
,  // measure 48
0100
0000
0000
0100
,  // measure 49
1000
0000
0000
1000
,  // measure 50
0001
0000
0000
1000
,  // measure 51
0010
0000
0000
0010
,  // measure 52
0100
0000
0000
0001
,  // measure 53
1000
0100
1000
0100
,  // measure 54
0010
0001
1000
0001
,  // measure 55
0010
0001
1000
0010
,  // measure 56
0100
0010
0100
0010
,  // measure 57
1000
1000
0001
1000
,  // measure 58
0001
0001
1000
0001
,  // measure 59
0010
0100
1000
0010
,  // measure 60
0100
0001
1000
0000
,  // measure 61
0001
0000
0000
0000
,  // measure 62
1000
0010
0100
0010
,  // measure 63
1000
0001
1000
0001
,  // measure 64
0100
0001
0010
0100
,  // measure 65
0010
0001
1000
0001
,  // measure 66
1000
0100
1000
0010
,  // measure 67
0100
0001
1000
0100
,  // measure 68
1000
0001
0100
0001
,  // measure 69
0010
0100
1000
0001
,  // measure 70
0100
0001
1000
0100
,  // measure 71
1000
0001
0100
0010
,  // measure 72
0100
0001
1000
0001
,  // measure 73
1000
0010
1000
0100
,  // measure 74
0010
0100
1000
0001
,  // measure 75
1000
0001
0010
0001
,  // measure 76
0100
0010
1000
0001
,  // measure 77
0010
0001
1000
0010
,  // measure 78
1000
0100
0010
0001
,  // measure 79
1000
0010
1000
0001
,  // measure 80
1000
0100
0010
0001
,  // measure 81
0100
0001
0010
0001
,  // measure 82
1000
0100
0010
0100
,  // measure 83
1000
0001
0100
0001
,  // measure 84
0010
0001
0100
0001
,  // measure 85
1000
0001
1000
0100
,  // measure 86
0010
0001
0100
0001
,  // measure 87
1000
0100
1000
0001
,  // measure 88
0100
0001
0010
0100
,  // measure 89
0010
0001
1000
0001
,  // measure 90
0010
0001
0010
0100
,  // measure 91
1000
0100
1000
0001
,  // measure 92
0100
0001
1000
0100
,  // measure 93
0010
0001
0010
0001
,  // measure 94
1000
0100
1000
0001
,  // measure 95
0100
0010
0100
0010
,  // measure 96
1000
0001
1000
0001
,  // measure 97
0010
0001
0010
0001
,  // measure 98
1000
1000
1000
0000
,  // measure 99
0001
0100
0010
0010
,  // measure 100
0000
1000
1000
0000
,  // measure 101
0000
0001
0001
0001
,  // measure 102
1000
0000
0001
0001
,  // measure 103
0001
0000
1000
0100
,  // measure 104
0010
0010
0000
0001
,  // measure 105
0000
0001
1000
0010
,  // measure 106
0100
0001
1000
0000
,  // measure 107
0010
0010
0010
0000
,  // measure 108
1000
0100
0100
1000
,  // measure 109
0000
0000
0001
0000
0000
0001
0000
0000
,  // measure 110
0001
1000
0000
0100
,  // measure 111
0010
0001
0010
0010
,  // measure 112
0010
0000
0001
0100
,  // measure 113
0100
0001
0000
1000
,  // measure 114
0001
0001
1000
1000
,  // measure 115
0001
2000
0000
3020
,  // measure 116
0000
0230
0000
0301
,  // measure 117
0001
0020
0000
0230
,  // measure 118
0000
2300
0000
3020
,  // measure 119
0000
0230
0000
0001
,  // measure 120
0000
0300
0001
0010
,  // measure 121
0000
0200
0000
1000
,  // measure 122
0000
1300
0001
0010
,  // measure 123
0001
1000
1000
0001
,  // measure 124
0001
0010
0010
0100
,  // measure 125
0100
1000
1000
0001
,  // measure 126
0100
0010
0010
0100
,  // measure 127
0100
0000
0001
1000
0100
0000
0010
0001
,  // measure 128
1000
0000
0010
0100
0010
0000
0100
0001
,  // measure 129
1000
0000
0010
1000
0100
0010
0001
0100
,  // measure 130
0010
1000
0010
0100
0001
0010
0100
0000
,  // measure 131
0100
0010
0000
0020
,  // measure 132
0000
0031
0000
0002
,  // measure 133
0000
1003
0001
1000
,  // measure 134
0000
0001
0100
0010
,  // measure 135
0100
0010
0000
0020
,  // measure 136
0000
1030
0000
2000
,  // measure 137
0000
3001
0000
1000
,  // measure 138
0020
0000
1030
0001
,  // measure 139
0100
0001
0010
0001
,  // measure 140
0000
1000
0010
1000
,  // measure 141
0000
0001
0010
0000
,  // measure 142
1000
0000
0010
0001
,  // measure 143
0000
1000
0010
0100
,  // measure 144
0010
0000
1000
0100
,  // measure 145
0010
0000
0000
0001
0000
0000
0000
0001
0000
0000
0000
0001
,  // measure 146
0000
0000
0000
1000
0000
0000
0000
1000
0000
0000
0000
1000
,  // measure 147
0000
0010
0000
0020
,  // measure 148
0000
1030
0000
0001
,  // measure 149
0000
0010
0000
0001
,  // measure 150
0100
0010
0100
0010
,  // measure 151
0000
0000
0020
0000
0000
1030
0000
0000
,  // measure 152
0100
0010
0000
2000
,  // measure 153
0000
3010
0000
0001
,  // measure 154
0000
1000
0010
1000
,  // measure 155
0000
0200
0000
0300
,  // measure 156
0020
0000
0030
0002
,  // measure 157
0000
1003
0000
1000
,  // measure 158
0000
0020
0000
0130
,  // measure 159
0000
0100
0001
1000
,  // measure 160
0100
0010
0001
1000
,  // measure 161
0010
0002
0000
0013
,  // measure 162
1000
0001
1000
1000
,  // measure 163
1000
0010
0100
0001
,  // measure 164
0100
0010
1000
0001
,  // measure 165
0010
0100
1000
0100
,  // measure 166
0010
2000
0000
3010
,  // measure 167
0001
2000
0000
0100
,  // measure 168
0000
3001
0000
1000
,  // measure 169
0010
1000
0001
0010
,  // measure 170
0001
1000
0100
1000
,  // measure 171
0000
0002
0000
0003
,  // measure 172
0200
0000
0300
0020
,  // measure 173
0000
0030
2000
0000
,  // measure 174
3000
0020
0000
1030
,  // measure 175
0000
0001
0010
0100
,  // measure 176
1000
0100
0010
0001
,  // measure 177
1000
0010
0100
0001
,  // measure 178
0100
0010
1000
0010
,  // measure 179
0100
2000
0000
0000
,  // measure 180
0000
3100
0000
0002
,  // measure 181
0000
1000
0000
1000
,  // measure 182
0000
0023
0000
0100
,  // measure 183
0000
0230
0000
0001
,  // measure 184
0000
0302
0000
0100
,  // measure 185
0000
0203
0000
0010
,  // measure 186
0000
0320
0000
0032
,  // measure 187
0000
0103
0010
0001
,  // measure 188
0010
1000
0100
0010
,  // measure 189
1000
0010
0001
1000
,  // measure 190
0001
0010
0100
1000
,  // measure 191
0010
0100
1000
0100
,  // measure 192
0010
0100
0001
1000
,  // measure 193
0100
0020
0000
0130
,  // measure 194
1000
0100
1000
0001
,  // measure 195
1000
1000
0010
0100
,  // measure 196
0001
0001
0010
0100
,  // measure 197
0010
0010
0001
1000
,  // measure 198
0100
0100
1000
0010
,  // measure 199
1000
1000
0100
0010
,  // measure 200
0001
0001
1000
0001
,  // measure 201
0010
0010
0001
1000
,  // measure 202
0010
0100
0010
0100
,  // measure 203
0001
1000
0100
0010
,  // measure 204
0001
0002
0000
1000
,  // measure 205
0000
0023
0000
0001
,  // measure 206
0000
0230
0000
0010
,  // measure 207
0000
2300
0000
0010
,  // measure 208
0000
3002
1003
0010
,  // measure 209
0100
0010
0000
1010
,  // measure 210
0000
0110
0000
0101
,  // measure 211
0000
1001
0000
1100
,  // measure 212
0000
1002
0000
0013
,  // measure 213
1000
0002
0000
0000
,  // measure 214
0000
0000
0000
0000
,  // measure 215
0000
0000
0003
0000
;
