#TITLE:But It's Better If You Do;
#SUBTITLE:;
#ARTIST:Panic! At The Disco;
#TITLETRANSLIT:;
#SUBTITLETRANSLIT:;
#ARTISTTRANSLIT:;
#GENRE:;
#CREDIT:;
#MUSIC:But It's Better If You Do.ogg;
#BANNER:;
#BACKGROUND:;
#CDTITLE:;
#SAMPLESTART:29.440;
#SAMPLELENGTH:15.001;
#SELECTABLE:YES;
#OFFSET:0.209;
#BPMS:0.000=169.990
,156.000=84.995
,162.000=169.990
;
#STOPS:250.000=2.471;
#BGCHANGES:;
#FGCHANGES:;

//--------------- dance-single - eataninja ----------------
#NOTES:
     dance-single:
     eataninja:
     Beginner:
     4:
     0,0,0,0,0:
0000
0000
0000
0000
,
0000
0000
0000
0000
,
0000
0000
0000
0000
,
0000
0000
0000
0000
,
0000
0000
0000
0000
,
0000
0000
0000
0000
,
0000
0000
0000
0000
,
0000
0000
0000
0000
,
0000
0000
0000
0000
,
0001
0000
1000
0000
,
0100
0000
0000
0000
,
0010
0000
0100
0000
,
1000
0000
1000
0000
,
0001
0000
0000
0000
,
0100
0000
0000
0000
,
0010
0000
0100
0000
,
0001
0000
1000
0000
,
1001
0000
0000
0000
,
0000
0000
0000
0000
,
0100
0200
0000
0000
,
0000
0000
0300
0000
,
1000
0000
0001
0000
,
0100
0000
0010
0000
,
0110
0000
0100
0000
,
0001
0001
0001
0000
,
1000
0000
0100
0000
,
0001
0000
0100
0000
,
1000
0000
0000
0000
,
0010
0000
0100
0000
,
0001
0000
1000
0000
,
0100
0000
0010
0000
,
0110
0000
0100
0000
,
1000
1000
1000
0000
,
0001
0000
0100
0000
,
1000
0000
0100
0000
,
0010
0000
0000
0000
,
0100
0000
0001
0000
,
1001
0000
0000
1001
,
0000
0000
1001
0000
,
0000
0000
0000
0000
,
0000
0000
0100
0100
,
0100
0000
0000
0100
,
0100
0000
0001
0001
,
0001
0000
1000
1000
,
1000
0000
0100
0100
,
0100
0000
0000
0100
,
0100
0000
1000
1000
,
1000
0000
0001
0001
,
0001
0000
0100
0000
,
0010
0000
0100
0000
,
0001
0000
1000
0000
,
0000
0000
0100
0100
,
0100
0000
1000
0000
,
0001
0000
0100
0000
,
0010
0010
0000
0100
,
0000
0001
0000
1000
,
1000
0000
0100
0000
,
0010
0000
0100
0000
,
1000
0000
0001
0000
,
0000
0000
0100
0100
,
0100
0000
0100
0000
,
1000
0000
0100
0000
,
0001
0000
1001
1000
,
0000
0100
0000
0010
,
0000
0001
0000
1001
,
0000
1000
0000
0010
,
0010
0010
0000
0100
,
0000
1000
0000
0100
,
0000
0001
0000
0010
,
0000
0000
0000
0100
,
0000
0010
0000
0001
,
0000
0100
0000
0010
,
0000
1000
0000
1001
,
0000
0001
0000
0010
,
0010
0010
0000
0100
,
0000
0001
0000
0100
,
0000
1000
0000
0010
,
0000
0000
0000
0100
,
0100
0100
0000
0001
,
0000
1001
0000
0100
,
0100
0100
0000
1000
,
0000
1001
0000
0010
,
0010
0010
0000
2000
,
0000
0000
0000
0000
,
0000
0000
0000
0000
,
0000
0000
0000
0000
,
0000
0000
0000
0000
,
0000
0000
3000
0000
;

//--------------- dance-single - eataninja ----------------
#NOTES:
     dance-single:
     eataninja:
     Easy:
     8:
     0,0,0,0,0:
0000
0000
0000
0000
,
0000
0000
0000
0000
,
0000
0000
0000
0000
,
0000
0000
0000
0000
,
0000
0000
0000
0000
,
0000
0000
0000
0000
,
0000
0000
0000
0000
,
0000
0000
0000
0000
,
0000
0000
1000
0001
,
0110
1000
0001
0010
,
0100
0000
1000
0000
,
0001
0100
1000
0100
,
0010
0010
1000
0001
,
0010
0100
1000
0010
,
0100
0100
0001
1000
,
0100
0001
0100
1000
,
0010
0100
0001
1000
,
1001
0000
0000
0000
0000
0010
0000
0100
,
0000
0000
0000
0000
,
1001
2002
0000
0000
,
0000
0000
0000
3003
,
1000
1000
0100
0100
,
0001
0001
0100
0100
,
0010
0001
0100
1000
,
0100
0010
1000
0001
,
1001
0000
0000
0000
0000
0000
0010
0000
0000
0100
0000
2000
,
0000
0000
0000
0000
0000
0000
3010
0000
0100
0000
0000
0001
,
0000
0000
0002
0000
0000
0000
0000
0000
0000
0003
0000
0000
,
0001
0100
1000
0100
,
0010
0010
1000
1000
,
0001
0001
0010
0010
,
1000
0010
0001
0100
,
0010
1000
0100
0010
,
1001
0000
0000
0000
0000
0000
0001
0000
0000
0100
0000
0020
,
0000
0000
0000
0000
0000
0000
1030
0000
0001
0000
0000
0010
,
0000
0000
0200
0000
0000
0000
0000
0000
0000
0300
0000
0000
,
1000
0010
0001
0010
,
0110
0000
1001
0000
,
0110
0000
1001
0000
,
0002
0000
0000
0023
0000
0000
2030
0000
,
0000
3200
0000
0000
0301
0000
0001
0000
,
0001
0000
0000
0000
0000
1000
1000
0000
,
1000
1000
0010
0010
,
0010
0000
0000
0000
0100
0010
0100
0000
,
0100
0001
1000
1000
,
1000
0000
0000
0000
0000
0001
0001
0000
,
0001
0001
0010
0010
,
0010
0000
0000
0000
0100
0010
0100
0000
,
0100
1000
0001
1001
,
1000
0010
0100
1001
,
1000
0100
0010
1001
,
0001
0100
1000
0100
,
0001
0000
1000
1001
,
0001
0010
0100
1001
,
0001
0100
0010
1001
,
1000
0100
0001
0100
,
1000
0000
0001
0110
,
1000
0001
0010
0110
,
0100
1000
0010
1001
,
0001
0100
0010
1001
,
1000
0100
0010
0110
,
1000
1001
0100
0110
,
0001
1001
0110
1000
,
1000
0100
0100
0001
,
0001
0100
0100
0010
,
0001
1000
0010
0001
,
1000
0100
0010
0110
,
0000
0000
0000
0100
0000
0000
0001
0000
2000
0000
0000
0000
,
0000
0000
0000
3001
0000
0010
0000
0000
0100
0000
0000
0200
,
0000
0000
0300
1000
,
0100
0001
0100
0010
,
0010
0001
0001
1000
,
1000
0010
0010
0001
,
1000
0100
0001
0010
,
0100
0001
0100
0110
,
0000
0000
0000
0010
0000
0000
0001
0000
2000
0000
0000
0000
,
0000
0000
0000
3010
0000
0100
0000
0000
0001
0000
0000
0020
,
0000
0000
0030
0010
,
0100
0000
0000
1000
0000
0000
0000
0000
1001
0000
0000
0000
,
0000
0000
0110
0000
0000
0000
0000
0000
1001
0000
0000
0000
,
0001
0000
0000
0010
0000
0000
0000
0000
0110
0000
0000
0000
,
0000
0000
1001
0000
0000
0000
0000
0000
0110
0000
0000
0000
,
0100
0001
1000
0200
,
0000
0000
0000
0000
,
0000
0000
0000
0000
,
0000
0000
0000
0000
,
0000
0000
0000
0000
,
0000
0000
0300
0000
;

//--------------- dance-single - eataninja ----------------
#NOTES:
     dance-single:
     eataninja:
     Medium:
     12:
     0,0,0,0,0:
0000
0000
0000
0000
,
0000
0000
0000
0000
,
0000
0000
0000
0000
,
0000
0000
0000
0000
,
0000
0000
0000
0000
,
0000
0000
0000
0000
,
0000
0000
0000
0000
,
0000
0000
0000
0000
,
0000
0000
0110
1001
,
0001
0000
0001
0000
1000
0010
0000
0100
,
0000
0100
0001
0000
0010
0100
0010
0100
,
1000
0000
1000
0000
0001
0100
0000
0010
,
0000
0010
0100
0000
0001
1000
0001
1000
,
0100
0000
0100
0000
0010
0001
0000
1000
,
0000
1000
0010
0000
0100
0010
0100
0010
,
1000
0000
1000
0000
0001
0010
0000
0100
,
0000
0100
0010
0000
0001
1000
0010
0000
,
0110
0000
0000
0000
0000
0101
0000
1010
,
0000
0000
0000
0000
,
1001
2002
0000
0000
,
0000
0000
0000
3003
,
1000
0000
0000
1000
0000
0000
0001
0000
0100
0001
0000
0000
,
0010
0000
0000
0010
0000
0000
0100
0000
1000
0000
0000
1002
,
0000
0000
0100
0000
0000
2003
0000
0000
3100
0010
0000
0000
,
0001
0000
0000
1000
0000
0000
0010
0000
0100
0010
0000
1000
,
0000
0000
0000
0100
0000
0000
0001
0000
0000
0100
0000
1000
,
0100
0000
0000
0010
0000
0000
0001
0000
1000
0000
0000
1010
,
0000
0000
0220
0000
0000
0000
0000
0000
0330
0000
0000
0100
,
0001
0000
0100
0010
0000
1000
0001
0000
0010
0100
0000
1002
,
0000
0000
0000
1003
0000
0000
0010
0000
1000
0010
0000
0000
,
1000
0000
0000
0001
0000
0000
0010
0000
0100
0000
0000
0210
,
0000
0000
1000
0000
0000
0320
0000
0000
0031
1000
0000
0000
,
0010
0000
0000
0001
0000
0000
0010
0000
0100
0001
0000
1000
,
0000
0000
0000
0001
0000
0000
0010
0000
0000
1000
0000
0010
,
1000
0000
0000
0010
0000
0000
0100
0000
1000
0000
0000
1001
,
0000
0000
0202
0000
0000
0000
0000
0000
0000
0303
0000
0100
,
0001
0000
1000
0100
0000
0010
0001
0000
1000
0010
0000
0000
,
0110
0110
0101
0101
,
1001
1001
1100
1100
,
0200
0000
0000
0001
0010
2300
3002
0000
,
0000
0203
0000
0000
0310
1000
1000
0010
,
1000
1000
0000
0000
0000
0001
0010
0000
,
0100
0100
0100
0000
0010
0001
0001
0010
,
0001
0001
0000
0000
1000
0010
1000
0001
,
0001
0001
0000
0000
0100
0001
0001
0100
,
0001
0001
0000
0000
0000
1000
0100
0000
,
0010
0010
0010
0000
0100
1000
1000
0100
,
1000
1000
0000
0000
0001
0100
0001
1000
,
1000
1000
0000
0000
0001
1000
1001
0000
,
1000
0100
1100
0000
1000
0001
1001
0000
,
0001
0100
0101
0000
0100
0000
0010
0000
,
1000
0001
0010
0000
1000
0010
0001
0010
,
0000
0100
1000
0000
0001
1000
1001
0000
,
1000
0010
1010
0000
0001
1000
1001
0000
,
0001
0010
0011
0000
0010
1000
0000
1000
,
0001
0000
0001
0100
0000
1000
0000
0010
,
0000
0100
0001
0000
1000
0010
1000
0010
,
0100
0001
1001
0000
0001
0010
0001
0010
,
0100
1000
1001
0000
1000
0100
0001
0000
,
0100
0010
0001
0000
1000
0010
0001
0010
,
0000
0100
0001
0000
0100
0010
0100
0010
,
1000
0001
1000
0001
0010
0100
0010
0100
,
1000
0001
1000
1000
0010
0000
0100
0000
,
0100
0000
0000
0001
0000
1000
0001
0000
0000
0010
0000
0000
,
0100
0000
0000
1000
0000
0001
0000
0000
2001
0000
0000
0010
,
0000
0000
3002
0000
0000
0013
0100
0000
0010
0001
0000
1000
,
0010
0000
0100
0010
0000
1000
0001
0000
0000
0010
0000
0000
,
1000
0000
0000
0010
0000
0001
0010
0000
0000
0001
0000
0000
,
1000
0000
0000
0010
0000
0100
0000
0000
0110
0000
0000
2002
,
0000
0000
0000
0000
0000
0000
3003
0000
1000
0010
0000
0100
,
0001
0000
0010
0100
0000
0010
0001
0000
0000
1000
0000
0000
,
1000
0000
0000
0001
0000
0010
0001
0000
0000
1000
0000
0000
,
0010
0000
0000
0100
0000
0001
0000
0000
0201
0000
0000
1000
,
0000
0000
0320
0000
0000
1030
0001
0000
0010
0100
0000
1000
,
0001
0000
0100
1000
0000
0100
0010
0000
0000
1000
0000
0000
,
0100
0000
0000
0001
0000
0100
0001
0000
0000
0100
0000
0000
,
0010
0000
0000
0001
0000
1000
0000
0000
1001
0000
0000
1020
,
0000
0000
0100
0000
0000
1030
0000
0000
0001
1000
0000
0100
,
0010
0000
0100
1000
0000
0001
0100
0000
0210
0000
0000
0001
,
0000
0000
0010
0000
0000
0301
0000
0000
2001
0000
0000
3100
,
0010
0000
0001
1000
0000
0010
0100
0000
1002
0000
0000
0010
,
0000
0000
0100
0000
0000
1003
0000
0000
1020
0000
0000
0130
,
0001
0000
1000
0100
0000
0001
0100
0000
0020
0000
0000
0000
,
0000
0000
0000
0000
,
0000
0000
0000
0000
,
0000
0000
0000
0000
,
0000
0000
0000
0000
,
0000
0000
0030
0000
;

//--------------- dance-single - eataninja ----------------
#NOTES:
     dance-single:
     eataninja:
     Hard:
     15:
     0,0,0,0,0:
0000
0000
0000
0000
,
0000
0000
0000
0000
,
0000
0000
0000
0000
,
0000
0000
0000
0000
,
0000
0000
0000
0000
,
0000
0000
0000
0000
,
0000
0000
0000
0000
,
0000
0000
0000
0000
,
0000
0000
0000
0000
1000
0010
0100
0000
,
0001
0010
1000
0010
0000
0100
0000
0110
,
0000
0010
0001
0000
0001
1000
0001
1000
,
0010
0001
1000
0000
0100
0010
1000
0001
,
0010
0100
0001
0100
0010
0001
1000
1000
,
0010
0110
1001
1100
,
0100
0001
0100
0000
0010
0010
0001
1000
,
0000
0010
0100
0100
0001
1000
0001
0001
,
0010
1000
0010
0001
1000
0010
0100
0000
,
0101
0000
0000
0000
0000
1100
0000
1001
,
0000
0000
0000
0000
,
1100
2100
0001
0001
,
3100
0000
0000
1000
0010
0100
0001
1000
0001
1000
0100
0010
,
0001
0000
0000
0101
0000
0000
0100
0000
0010
1000
0000
1200
,
0000
0000
0301
0100
0000
0100
0010
0000
0010
0000
0000
0011
,
0000
0000
1001
0000
0000
1010
0000
0000
0010
0100
0000
0010
,
1000
0000
1000
0100
0000
0100
0001
0000
0100
0010
0001
1000
,
0010
0000
0000
0110
0000
0100
0001
0000
0100
0001
0000
0020
,
0000
0000
0130
0000
0000
0100
1000
0000
1000
0001
0000
0101
,
0000
0000
0120
0000
0000
1000
0000
0000
0130
0000
0000
0100
,
0001
0000
0001
1000
0000
0100
0001
0000
0100
0010
0000
0012
,
0000
0000
0000
1003
0000
0000
0010
0000
1000
0100
0000
0120
,
0000
0000
0031
1000
0000
1000
0010
0000
0010
0000
0000
0110
,
0000
0000
1001
0000
0000
1100
0000
0000
0100
0010
0000
0010
,
0001
0000
1000
0001
0000
0100
1000
0000
1000
0100
0000
0120
,
0000
0000
1030
0001
0000
0000
0010
0000
0100
0010
0000
0002
,
0000
0000
1003
0000
0000
0001
0100
0000
0100
0000
0000
1000
,
0000
0000
0100
0001
0000
0000
1000
0000
0000
1100
0000
0100
,
0010
0000
0100
1000
0000
0001
1000
0010
1000
0001
0010
0100
,
1100
1100
1010
1010
,
0011
0011
0101
0101
,
1002
1000
2003
3200
0302
0203
2300
0010
,
3002
0000
0023
0000
0100
0000
0032
0000
1003
0000
0010
1000
0010
0000
1000
0010
,
1000
0000
0010
0000
0000
0000
0000
0000
0000
0000
0100
0000
0100
0000
0001
1000
,
0001
0000
1000
0000
1000
0000
0001
0010
0001
0000
0010
0001
0010
0000
0001
0010
,
0001
0000
0010
0000
0000
0000
0000
0000
0100
1000
0100
1000
0100
0000
1000
0001
,
1000
0000
0001
0000
0100
0010
0100
0000
0001
0000
0100
0001
0100
0000
0001
0100
,
0001
0000
0100
0000
0001
0000
0000
0000
0001
0000
1000
0000
1000
0000
0001
0010
,
0001
0000
0100
0000
0100
0000
0010
1000
0010
0000
1000
0010
1000
0000
0010
1000
,
0010
0000
1000
0000
0001
0000
0000
0000
0010
0100
0010
0100
0010
0000
0100
1000
,
0100
0000
1000
0000
1000
0000
0001
1000
0010
0000
0100
0000
0110
0000
0010
0000
,
1000
0001
1002
0000
1003
0100
1100
0100
,
0010
0001
0012
0000
0103
0010
0110
0100
,
0001
1000
2001
0000
3001
0010
0011
0010
,
0100
1000
2100
0000
3001
1000
1010
0010
,
0100
0001
0201
0000
0310
1000
1001
0001
,
0010
0100
1200
0000
1300
0001
0101
0100
,
0010
1000
1020
0000
0130
0001
1001
1000
,
0100
0000
0010
0000
0021
0000
0000
0000
0031
0000
1000
0000
1001
0000
1000
0010
,
1000
0000
0001
0000
0010
0000
1000
0000
0010
0000
0100
0000
0110
0000
0010
0001
,
0010
0000
0001
0000
1000
0000
0010
0000
0100
0000
0001
0000
0101
0000
0100
0010
,
0100
0000
1000
0000
0100
0000
0001
0000
1000
0000
0100
0000
1100
0000
1000
0001
,
1000
0000
0100
0000
0010
0000
0001
0000
1000
0000
0010
0000
1010
0000
0010
0100
,
0001
0000
1000
0000
1001
0000
0001
0000
1000
0000
0100
0000
1100
0000
0100
0010
,
0001
1000
1010
0010
0100
0000
0101
0000
,
0001
0000
1000
0100
0000
0100
0010
0000
0012
0000
0000
1003
,
0010
0000
1000
0001
0000
0001
0000
0000
0021
0000
0000
0130
,
1000
0000
1020
0000
0000
0130
0001
0000
0001
1000
0000
1000
,
0100
0000
0001
0100
0010
0100
1000
0001
0100
0010
0000
0000
,
1010
0000
1000
0001
0000
0001
1000
0000
1200
0000
0000
0301
,
0000
0000
0100
0010
0000
0010
0001
0000
0012
0000
0000
1003
,
0010
0000
2010
0000
0000
3001
0010
0000
0100
0010
0000
0010
,
0001
0000
0100
1000
0000
0100
0001
0000
2001
0000
0000
3100
,
0010
0000
0001
0010
0000
0001
1000
0000
2010
0000
0000
3001
,
0100
0000
0100
0010
0000
0010
0000
0000
2001
0000
0000
3010
,
0100
0000
0102
0000
0000
0013
0100
0000
0010
0001
0000
1000
,
0010
0000
0001
1000
0000
0100
0010
0000
0210
0000
0000
0301
,
1000
0000
0000
1100
0000
0100
0010
0000
0002
0000
0000
1003
,
0010
0000
1000
0001
0000
0001
0000
0000
0011
0000
0000
0010
,
0100
0000
1001
0000
0000
0001
0100
0000
0010
0110
0000
0100
,
0001
0000
1000
0100
0000
0001
0100
0000
0110
0000
0000
0010
,
0001
0000
1002
0000
0000
1003
0000
0000
1020
0000
0000
0130
,
0001
0000
1000
0100
0000
0001
0100
0000
0120
0000
0000
0031
,
1000
0000
1002
0000
0000
0103
0000
0000
0120
0000
0000
1030
,
0001
0000
0010
0100
1000
0001
0100
0010
1000
0002
0000
0000
,
0000
0000
0000
0000
,
0000
0000
0000
0000
,
0000
0000
0000
0000
,
0000
0000
0000
0000
,
0000
0000
0003
0000
;
