#TITLE:Bring Me Joy;
#SUBTITLE:;
#ARTIST:Pegboard Nerds & lug00ber;
#TITLETRANSLIT:;
#SUBTITLETRANSLIT:;
#ARTISTTRANSLIT:;
#GENRE:;
#CREDIT:;
#MUSIC:Bring Me Joy.ogg;
#BANNER:Bring Me Joy-bn.png;
#BACKGROUND:Bring Me Joy-bg.png;
#CDTITLE:Bring Me Joy-jacket.png;
#SAMPLESTART:67.059;
#SAMPLELENGTH:12.000;
#SELECTABLE:YES;
#OFFSET:1.412;
#BPMS:0.000=170.000;
#STOPS:;
#BGCHANGES:;
#FGCHANGES:;

//--------------- dance-single - OrangeRight ----------------
#NOTES:
     dance-single:
     OrangeRight:
     Beginner:
     3:
     0.142442,0.208874,0.008596,0.025787,0,116,115,1,3,0,0,0.142442,0.208874,0.008596,0.025787,0,116,115,1,3,0,0:
0000
0000
0000
0000
,
0000
0000
0000
0000
,
0000
0000
0000
0000
,
0000
0000
0000
0000
,
0000
0000
0000
0000
,
0000
0000
0000
0000
,
0000
0000
0000
0000
,
0000
0000
0000
0000
,
0000
0000
1000
0000
,
1000
0000
0000
0000
,
0000
0000
0001
0000
,
0001
0000
0000
0000
,
0000
0000
1000
0000
,
1000
0000
0000
0000
,
0000
0000
0001
0000
,
0001
0000
0000
0000
,
0000
0000
1000
0000
,
1000
0000
0000
0000
,
0001
0000
0000
0000
,
1000
0000
0000
0000
,
0001
0000
0000
0000
,
1000
0000
0001
0000
,
1000
0000
0001
0000
,
0100
0000
0100
0000
,
0002
0000
0003
0000
,
1000
0000
0100
0000
,
1000
0000
0000
0000
,
0001
0000
0100
0000
,
0001
0000
0000
0000
,
1000
0000
0100
0000
,
1000
0000
0000
0000
,
0001
0000
0010
0000
,
0001
0000
0000
0000
,
0001
0000
0100
0000
,
0001
0000
0000
0000
,
1000
0000
0100
0000
,
1000
0000
0000
0000
,
0001
0000
0100
0000
,
0001
0000
0000
0000
,
1000
0000
0010
0000
,
1000
0000
0000
0000
,
1000
0000
0000
0000
,
0000
0000
0001
0000
,
0001
0000
0000
0000
,
0000
0000
0100
0000
,
0100
0000
0000
0000
,
0000
0000
0010
0000
,
0010
0000
0000
0000
,
0000
0000
1000
0000
,
0001
0000
0010
0000
,
0001
0000
0001
0000
,
1000
0000
0100
0000
,
1000
0000
1000
0000
,
0001
0000
0100
0000
,
0001
0000
0001
0000
,
1000
0000
0010
0000
,
0100
0000
0100
0000
,
0001
0000
1000
0000
,
0001
0000
0001
0000
,
1000
0000
0001
0000
,
1000
0000
1000
0000
,
0100
0000
0010
0000
,
0001
0000
0001
0000
,
0100
0000
0010
0000
,
1000
0000
0001
0000
,
2000
0000
3000
0000
,
1000
0000
0100
0000
,
0010
0000
0001
0000
,
0100
0000
0001
0000
,
0002
0000
0003
0000
,
0001
0000
0010
0000
,
0100
0000
1000
0000
,
0010
0000
0010
0000
,
1000
0000
1000
0000
,
0100
0000
0100
0000
,
0010
0000
0010
0000
,
0001
0000
1000
0000
,
0001
0000
0001
0000
,
0100
0000
0100
0000
,
0010
0000
0010
0000
,
1000
0000
0001
0000
,
1001
0000
0000
0000
;

//--------------- dance-single - OrangeRight ----------------
#NOTES:
     dance-single:
     OrangeRight:
     Easy:
     6:
     0.300848,0.313311,0.017191,0.257869,0,245,243,2,30,0,0,0.300848,0.313311,0.017191,0.257869,0,245,243,2,30,0,0:
0000
0000
0000
0000
,
0000
0000
0000
0000
,
0000
0000
0000
0000
,
0000
0000
0000
0000
,
0000
0000
0000
0000
,
1000
1000
0000
1000
,
0001
0001
0000
0001
,
0200
0000
0000
0320
0000
0000
2000
0000
,
0000
3030
1000
0001
,
2000
0000
0000
0000
,
3000
0000
0001
0100
,
0002
0000
0000
0000
,
0003
0000
1000
0010
,
2000
0000
0000
0000
,
3000
0000
0010
0100
,
0020
0000
0000
0000
,
0030
0000
1000
0001
,
1000
1000
0001
0001
,
1000
0001
1000
0001
,
0100
0100
0010
0010
,
0100
0010
0100
0010
,
1000
0100
0010
0001
,
1000
0010
0100
0001
,
0010
0100
0010
0100
,
2000
3000
0002
0003
,
1000
0010
0010
0100
,
0100
0001
1000
0000
,
0001
0010
0001
0100
,
0001
1000
0100
1000
,
0001
0010
0010
0100
,
0100
1000
0001
1000
,
0002
0000
1003
0001
,
0200
0000
0310
1000
,
0001
0010
0010
0100
,
0100
1000
0001
0000
,
1000
0010
1000
0100
,
1000
0001
0100
0001
,
1000
0010
0010
0100
,
0100
0001
1000
0001
,
2000
0000
3001
1000
,
0200
0000
0310
0001
,
2000
0000
0000
0000
,
3010
0000
0010
1000
,
0002
0000
0000
0000
,
0103
0000
0100
0001
,
2000
0000
0000
0000
,
3001
0000
1000
0001
,
2002
0000
3003
0000
,
1000
1000
0001
1000
,
0001
0100
0010
0100
,
0001
1000
0002
0003
,
1000
0100
0010
0100
,
1000
0001
2000
3000
,
1000
0010
0100
0010
,
1000
0100
0020
0030
,
0001
0100
0010
0100
,
0001
0010
0200
0300
,
1000
0001
0100
0010
,
1000
0001
2000
3000
,
0001
0010
0100
1000
,
0001
0100
0002
0003
,
0010
0001
1000
0001
,
0100
0010
2000
3000
,
0010
1000
0001
1000
,
0100
0010
0002
0003
,
2000
0000
0010
0000
,
3010
1000
0010
0100
,
0001
1000
0001
0010
,
0100
1000
0001
0001
,
0002
0000
0010
0000
,
0013
0001
0100
0010
,
0100
0001
0010
0100
,
1000
0010
0100
0001
,
1000
1000
0100
1000
,
0001
0001
0100
0001
,
1000
1000
0010
0100
,
0001
0010
0100
1000
,
0001
0001
0010
0010
,
0100
0100
1000
1000
,
0001
1000
0001
1000
,
0002
0003
2000
3000
,
1001
0000
0000
0000
;

//--------------- dance-single - OrangeRight ----------------
#NOTES:
     dance-single:
     OrangeRight:
     Medium:
     10:
     0.432238,0.522185,0.128935,0.292252,0.034383,352,337,15,34,0,0,0.432238,0.522185,0.128935,0.292252,0.034383,352,337,15,34,0,0:
0000
0000
0000
0000
,
0000
0000
0000
0000
,
0000
0000
0000
0000
,
0000
0000
0000
0000
,
0000
0000
0000
0000
,
1000
0000
0001
0000
0000
0001
0000
0000
,
0001
0000
1000
0000
0000
1000
0000
0000
,
0020
0000
0000
0230
0000
0000
0320
0000
,
0000
0000
1030
0001
,
2002
0000
0000
0000
,
3003
0000
0001
0100
,
0202
0000
0000
0000
,
0303
0000
0100
0010
,
0220
0000
0000
0000
,
0330
0000
0010
1000
,
2020
0000
0000
0000
,
3030
0000
1000
0001
,
1000
1000
0100
0100
,
1000
1000
0001
0001
,
0100
0001
1000
0010
,
1000
0001
0010
0100
,
1000
0001
1000
0000
0001
1000
0001
0000
,
0100
0010
0100
0000
0010
0100
0010
0000
,
1000
0001
1000
0001
1000
0001
1000
0001
,
1000
1000
0001
1000
,
0002
0103
0200
0301
,
0002
0000
1003
0001
1000
0000
0100
0000
,
2000
0000
3100
1000
0100
0000
1000
0010
,
1000
0001
1001
1001
,
2000
3100
0200
1300
,
2000
0000
3001
1000
0001
0000
0100
0000
,
0020
1000
1000
1030
,
1000
0000
0001
0000
1000
0001
1000
0000
,
0002
0013
0020
0130
,
0200
0000
1300
0010
1000
0000
0100
0000
,
0020
0000
0031
0100
0001
0000
1000
0001
,
2000
3001
1001
1001
,
0002
1003
2000
3100
,
0200
0000
0310
0001
0010
0000
0001
0000
,
2001
0000
3100
1000
,
0010
0100
0001
1000
,
2001
0000
0001
0000
,
3001
0000
1000
0010
,
1020
0000
1000
0000
,
1030
0000
0010
0100
,
0210
0000
0010
0000
,
0310
0000
0100
0001
,
0102
0000
0100
0000
,
1000
0000
0000
0000
1000
0000
0000
0000
1003
0000
0000
0001
0000
0000
1000
0000
,
0001
0100
0001
0000
0010
0000
0100
0000
,
1000
0000
0001
0000
1000
0010
1000
0000
,
0001
0000
0100
0001
0100
0000
0001
0000
,
0010
0000
0000
0000
0100
0000
0000
0000
1000
0000
0000
0001
0000
0000
1000
0000
,
0001
0010
0001
0000
0100
0000
0010
0000
,
1000
0000
0100
0000
0010
0100
0010
0000
,
0001
0000
1000
0001
1000
0000
0010
0000
,
0100
0000
0000
0000
0001
0000
0000
0000
1000
0000
0000
0100
0000
0000
1000
0000
,
0010
0100
0010
0000
1000
0000
0100
0000
,
0010
0000
0001
0000
0100
0001
0100
0000
,
0001
0000
1000
0100
1000
0000
0010
0000
,
1000
0000
0000
0000
0100
0000
0000
0000
0010
0000
0000
0100
0000
0000
0010
0000
,
0001
1000
0001
0000
0100
0000
0010
0000
,
1000
0100
1000
0000
0001
0100
0001
0000
,
1000
0000
0001
0010
0001
0000
0010
0000
,
0100
0000
1000
0000
0001
0000
0000
0000
1000
0000
0000
0001
0000
0000
1000
0000
,
0002
0010
1000
0100
,
1003
0001
0010
0000
0010
0100
1000
0000
,
1000
0010
1000
0000
0010
0100
0010
0000
,
0100
0000
0001
0000
1000
0000
0000
0000
0001
0000
0000
1000
0000
0000
0001
0000
,
2000
0100
0001
0010
,
3001
1000
0100
0000
0100
0010
0001
0000
,
0001
1000
0001
1000
0010
0100
0010
0000
,
1000
0100
1000
0000
0010
1000
0001
0000
,
0100
0010
0100
0010
0100
0010
0100
0000
,
0001
1000
0001
1000
0001
1000
0001
0000
,
1000
0100
1000
0100
0010
0001
0010
0000
,
0001
0000
1000
0000
0001
0000
0000
0000
0010
0000
0000
0001
0000
0000
1000
0000
,
0010
0100
0010
0100
0010
0100
0010
0000
,
1000
0001
1000
0001
1000
0001
1000
0000
,
0001
0010
1000
0000
1000
0010
0001
0000
,
1001
0000
0000
0000
1001
0000
0000
0000
1000
0000
0000
0001
0000
0000
0100
0000
,
0010
0000
0000
0000
;

//--------------- dance-single - OrangeRight ----------------
#NOTES:
     dance-single:
     OrangeRight:
     Hard:
     12:
     0.578364,0.661435,0.309443,0.300848,0.141828,471,435,36,35,0,0,0.578364,0.661435,0.309443,0.300848,0.141828,471,435,36,35,0,0:
0000
0000
0000
0000
,
0000
0000
0000
0000
,
0000
0000
0000
0000
,
0000
0000
0000
0000
,
0000
0000
0000
0000
,
1000
0000
0001
0000
0001
0100
0000
0100
,
0010
0000
1000
0000
1000
0100
0000
0100
,
0020
0000
0000
0032
0000
0000
2000
0000
,
0000
0000
0000
0000
3003
0000
0000
0000
1000
0000
0000
0001
0000
0000
1000
0000
,
2002
0000
0000
0000
,
3003
0000
0000
0000
0000
0000
0000
0000
0001
0000
0000
1000
0000
0000
0100
0000
,
0020
0000
0032
0200
0000
0000
0000
0000
,
0303
0000
0000
0000
0000
0000
0000
0000
0001
0000
0000
0100
0000
0000
0010
0000
,
2020
0000
0000
0000
,
3030
0000
0000
0000
0000
0000
0000
0000
1000
0000
0000
0100
0000
0000
0010
0000
,
0002
0000
0203
0020
0000
0000
0000
0000
,
0330
0000
0000
0000
0000
0000
0000
0000
0100
0000
0000
0010
0000
0000
1000
0000
,
1001
1001
1100
1100
,
1001
1001
0101
0101
,
0001
0010
0001
0000
0010
0100
0010
0000
,
0100
1000
0100
0000
1000
0001
1000
0000
,
0001
1000
0100
0000
0010
0001
1000
0000
,
0010
1000
0001
0000
0100
0001
1000
0000
,
0010
1000
0100
0010
0001
0100
0010
0100
,
0001
0000
1000
0000
0001
0000
1000
0000
0001
0000
0000
0001
0000
0000
0001
0000
,
2001
3100
0210
1300
,
1200
0000
0310
0100
0010
0000
0011
0000
,
1002
0000
0103
0001
1000
0001
0010
0000
,
0021
0130
1010
0101
,
1002
0013
0120
0031
,
0201
0000
0000
0000
0310
0000
0100
0000
0010
0000
0000
1000
0000
0000
0001
0000
,
0020
1000
0100
0031
,
0001
0100
0010
0000
1000
0001
1000
0000
,
2001
3010
0120
1030
,
1020
0000
0130
0010
0100
0000
0101
0000
,
1002
0000
0013
0001
1000
0001
0100
0000
,
0201
0310
1100
0011
,
1002
0103
0210
0301
,
0021
0000
0000
0000
0130
0000
1000
0000
0001
0000
0000
0100
0000
0000
0010
0000
,
0200
1000
0010
0301
,
0001
0000
0010
0000
0100
0000
1000
0000
0001
0000
0000
1000
0000
0000
1000
0000
,
0001
0000
0100
0000
0010
1000
0000
1000
,
0100
0000
0000
0000
0010
0000
0000
0000
0001
0000
0000
0001
0000
0000
0001
0000
,
1000
0000
0010
0100
0000
0100
0001
0000
,
1000
0000
0001
0000
1000
0000
0000
0000
0001
0000
0000
1000
0000
0000
0001
0000
,
1000
0000
0010
0000
0100
0001
0000
0001
,
0010
0000
0000
0000
0001
0000
0000
0000
1000
0000
0000
1000
0000
0000
1000
0000
,
0001
0000
0100
1000
0000
0100
0001
0000
,
1001
0000
0000
0000
1001
0000
0000
0000
0001
0000
0000
0001
0000
0000
0001
0000
,
1000
0001
0100
0001
1000
0001
0010
0000
,
0010
0000
0001
0000
0100
0000
0010
0000
1000
0000
0000
0100
0000
0000
0010
0000
,
0001
1000
0001
0100
1000
0100
0001
0000
,
0010
0000
0100
0000
1000
0000
0010
0000
1000
0000
0000
0100
0000
0000
0010
0000
,
0001
1000
0010
1000
0001
1000
0100
0000
,
0100
0000
1000
0000
0010
0000
0100
0000
0001
0000
0000
0010
0000
0000
0100
0000
,
1000
0001
1000
0010
0001
0010
1000
0000
,
0010
0000
1000
0000
0100
0000
0010
0000
0001
0000
0000
0100
0000
0000
0010
0000
,
0100
0001
0010
0100
1000
0001
1000
0000
,
0010
0000
1000
0000
0100
0000
0010
0000
0001
0000
0000
0100
0000
0000
0001
0000
,
0010
1000
0010
0001
0100
0010
1000
0000
,
0001
0000
1000
0000
0100
0000
1000
0000
0001
0000
0000
1000
0000
0000
0001
0000
,
0010
0100
1000
0010
0100
0001
1000
0000
,
0001
0000
0100
0000
1000
0000
0100
0000
0001
0000
0000
0010
0000
0000
0100
0000
,
1000
0010
0001
1000
0100
0001
0010
0100
,
1000
0000
0001
0000
0100
0000
1000
0000
0100
0000
0000
0001
0000
0000
0010
0000
,
0002
0010
1000
0100
,
2003
0100
0001
0010
,
3001
0000
0100
0000
0100
0000
0000
0001
0000
1000
0100
0000
0010
0000
0001
0000
,
1000
0000
0100
0000
0100
0000
0000
1000
0001
0000
0000
0100
0000
0000
0010
0000
,
2000
0001
0010
0100
,
3002
1000
0010
0100
,
1003
0000
0001
0000
0001
0000
1000
0100
0000
0100
0010
0000
0001
0000
1000
0000
,
0001
0000
1000
0000
1000
0000
0001
0000
0011
0000
0000
1001
0000
0000
1100
0000
,
1000
0100
0001
0100
1000
0100
0001
0100
,
1000
0010
0001
0010
1000
0010
0001
0010
,
1000
0100
0001
0100
0010
0100
1000
0001
,
1000
0000
0010
0000
0001
0000
0010
0000
1010
0000
0000
0110
0000
0000
0101
0000
,
0001
0100
1000
0100
0001
0100
1000
0100
,
0001
0010
1000
0010
0001
0010
1000
0010
,
0001
0100
1000
0100
0010
0100
0001
0010
,
0110
0000
0000
0000
1100
0000
0000
0000
1000
0000
0000
0001
0000
0000
1000
0000
,
1001
0000
0000
0000
;

//--------------- dance-single - OrangeRight ----------------
#NOTES:
     dance-single:
     OrangeRight:
     Challenge:
     16:
     0.762556,0.939934,0.550121,0.283656,0.550121,621,557,64,33,8,0,0.762556,0.939934,0.550121,0.283656,0.550121,621,557,64,33,8,0:
0000
0000
0000
0000
,
0000
0000
0000
0000
,
0000
0000
0000
0000
,
0000
0000
0000
0000
,
0000
0000
0000
0000
,
1000
0001
0100
0000
0100
0010
0000
0010
,
1000
0001
0010
0000
0010
0100
0000
0100
,
1000
0000
0000
0010
0000
0010
0100
0000
0000
0001
0000
0001
2000
0000
0000
0000
,
0000
0000
0000
0000
0000
0000
0000
0000
3100
0000
0000
0010
0000
0000
0001
0000
,
2002
0000
0000
0000
,
3003
0000
0000
0000
0000
0000
0000
0000
1000
0000
0000
0001
0000
0000
0100
0000
,
0020
0000
2030
0200
0000
0000
0000
0000
,
3300
0000
0000
0000
0000
0000
0000
0000
1000
0000
0000
0100
0000
0000
0010
0000
,
0022
0000
0000
0000
,
0033
0000
0000
0000
0000
0000
0000
0000
0001
0000
0000
0100
0000
0000
0010
0000
,
2000
0000
3200
0020
0000
0000
0000
0000
,
0330
0000
0000
0000
0000
0000
0000
0000
0100
0000
0000
1000
0000
0000
0001
0000
,
0011
0110
1100
1001
,
0101
0110
1010
1001
,
1100
0110
0101
0110
,
1100
1010
0110
0101
,
0001
0010
0100
1000
0001
0100
0010
1000
,
0100
0010
0001
1000
0010
0100
0001
1000
,
0001
0010
0001
0010
0100
1000
0100
1000
0010
0100
0010
0100
0001
1000
0001
1000
,
0100
0000
0100
0000
0010
0000
0010
0000
0001
0000
1000
0001
1000
0000
0100
0000
,
1200
0310
0012
0103
,
0201
0000
0310
1000
1100
0000
0011
0000
,
0102
0000
0013
0001
0101
0100
0110
0010
,
2010
0000
3100
1000
1010
0000
1001
0000
,
0021
0130
2100
3010
,
1020
0000
0000
0000
0130
0000
0010
0000
1000
0000
0000
0M10
0000
0000
0010
0000
,
0012
1000
0100
1000
,
0013
0000
0001
0000
0100
0000
0000
0010
1000
0000
1000
0000
0001
0000
0001
0000
,
0201
1300
1200
0301
,
0201
0000
0310
1000
1100
0000
0110
0000
,
2100
0000
3010
1000
1100
1000
1001
0001
,
0012
0000
0103
0001
0011
0000
1001
0000
,
1020
0031
0021
1030
,
1002
0000
0000
0000
0013
0000
0001
0000
0100
0000
0000
01M0
0000
0000
1000
0000
,
2100
0001
0010
0001
,
3100
0000
1000
0000
0010
0000
0000
0100
0001
0000
0000
0M10
0000
0000
0010
0000
,
1000
0000
0001
0000
0001
0000
0100
0001
0000
0001
0100
0000
0010
0000
0010
0000
,
1000
0000
0001
0000
0001
0000
0010
0100
1000
0000
0000
0100
00M0
0000
0100
0000
,
0001
0000
1000
0000
1000
0000
0100
1000
0000
1000
0100
0000
0010
0000
0010
0000
,
0001
0000
1000
0000
1000
0000
0010
0100
0001
0000
0000
0100
00M0
0000
0100
0000
,
1000
0000
0001
0000
0100
0000
0001
1000
0000
1000
0100
0000
0010
0000
0001
0000
,
1000
0000
0001
0000
0010
0000
0001
1000
0010
0000
0M00
0010
0000
0000
0001
0000
,
1000
0000
0100
0000
0010
0000
0001
1000
0000
0010
0100
0000
0001
0000
1000
0000
,
1001
0000
0000
0000
1010
0000
0000
0000
0110
0000
0000
0101
0000
0000
1001
0000
,
1000
0000
0100
0000
0010
0000
0001
0100
0000
0100
0010
0000
1000
0010
1000
0000
,
0001
0000
0100
0000
0010
0000
1000
0100
1000
0000
0000
0001
0000
0000
1000
0000
,
0001
0010
0001
0000
0100
0000
0010
1000
0010
0000
1000
0000
0001
0000
0010
0000
,
0100
0000
1000
0000
0010
0000
0100
0001
0100
0000
0000
0001
0000
0000
0010
0000
,
0001
0000
1000
0000
0100
0000
0010
0001
0000
0001
0100
0000
0010
1000
0010
0000
,
1000
0000
0001
0000
0010
0000
0100
1000
0001
0000
0000
0100
0000
0000
0010
0000
,
0100
0001
0100
0000
0001
0000
1000
0100
1000
0000
0010
0000
0100
0000
0001
0000
,
1000
0000
0100
0000
0010
0000
0001
0100
0010
0000
1000
0001
0000
1000
0001
0000
,
1000
0000
0100
0000
0001
0000
0100
1000
0000
0010
0100
0000
0001
1000
0001
0000
,
0010
0000
1000
0000
0010
0000
0001
0100
0010
0000
1000
0001
0000
1000
0100
0000
,
0010
0001
1000
0000
0010
0000
0100
0001
1000
0000
0100
0000
1000
0000
0001
0000
,
0010
0000
1000
0000
0010
0000
0001
1000
0001
0000
1000
0100
0000
0100
1000
0000
,
0001
0000
0100
0000
1000
0000
0100
0001
0000
0010
0100
0000
1000
0001
1000
0000
,
0010
0000
0001
0000
0010
0000
1000
0100
0010
0000
0001
0100
0000
0100
0001
0000
,
1000
0100
1000
0000
0001
0100
0001
0000
1000
0010
1000
0000
0001
0010
0001
0000
,
1000
0100
0010
0001
0100
0010
1000
0001
1000
0000
0001
1000
0000
1000
0010
0000
,
2000
0000
0010
0000
0010
0000
0000
0001
0000
0001
0000
0000
0100
0000
0100
0000
,
3002
0000
0010
0000
0010
0000
0000
1000
0000
1000
0000
0000
0100
0000
0100
0000
,
1003
0000
0001
0000
0100
0000
0001
0010
0M00
0010
1000
0000
0001
1000
0001
0000
,
1000
0000
0100
0000
0010
0000
0001
1000
0001
0000
1000
0100
0000
0100
0010
0000
,
0002
0000
0010
0000
0010
0000
0000
1000
0000
1000
0000
0000
0100
0000
0100
0000
,
2003
0000
0010
0000
0010
0000
0000
0001
0000
0001
0000
0000
0100
0000
0100
0000
,
3001
0000
1000
0000
0100
0000
1000
0010
0M00
0010
0001
0000
0100
0010
0100
0000
,
0001
0000
1000
0000
0100
0000
0010
0001
0100
0000
0010
1000
0000
1000
0100
0000
,
1000
0001
1000
0000
0001
0100
0001
0000
0100
0010
0100
0000
0010
1000
0010
0000
,
1000
0100
1000
0000
0001
0010
0001
0000
1000
0010
1000
0000
0001
0100
0001
0000
,
1000
0000
0001
0000
0010
0000
0001
0100
0000
0100
0001
0000
1000
0100
1000
0000
,
0100
0000
1000
0000
0010
0000
0100
0000
0110
0000
0000
0101
0000
0000
0011
0000
,
0001
0100
0010
0000
1000
0100
1000
0000
0100
1000
0001
0000
1000
0001
1000
0000
,
0001
0010
0100
0000
0010
0100
0010
0000
0100
1000
0010
0000
1000
0001
1000
0000
,
0001
0100
0010
0000
1000
0010
0100
0000
0001
0010
0100
0000
1000
0010
0100
0000
,
0110
0000
0000
0000
1001
0000
0000
0000
1100
0000
0000
0101
0000
0000
0011
0000
,
0110
0000
0000
0000
;

//--------------- dance-double - OrangeRight ----------------
#NOTES:
     dance-double:
     OrangeRight:
     Easy:
     6:
     0.298392,0.348124,0.094552,0.464165,0,243,232,11,54,0,0,0.298392,0.348124,0.094552,0.464165,0,243,232,11,54,0,0:
00000000
00000000
00000000
00000000
,
00000000
00000000
00000000
00000000
,
00000000
00000000
00000000
00000000
,
00000000
00000000
00000000
00000000
,
00000000
00000000
00000000
00000000
,
00100000
00001000
00000000
00001000
,
00010000
00000100
00000000
00000100
,
00002000
00000000
00000000
00003020
00000000
00000000
00000200
00000000
,
00000000
00000330
00000010
00001000
,
00000200
00000000
00000000
00000000
,
00000000
00000000
00010300
00001000
,
00200000
00000000
00020000
00000000
,
00330000
00000000
00100000
00010000
,
02000000
00000000
00000000
00000000
,
00000000
00000000
03010000
01000000
,
00002000
00000000
00020000
00000000
,
00033000
00000000
00010000
00001000
,
00010000
00010000
00001000
00001000
,
00010000
00001000
00010000
00001000
,
01000000
01000000
00001000
00001000
,
00010000
00010000
00000100
00000100
,
00001000
00000010
00010000
00001000
,
00100000
00010000
01000000
00001000
,
00010000
00010000
00001000
00001000
,
00020000
00030000
00002000
00003000
,
00022000
00033000
00001000
00100000
,
00010000
01000000
00200000
00300000
,
00100000
10000000
01000000
00100000
,
00020000
00030000
00100000
00001000
,
00022000
00033000
00010000
00000010
,
00001000
00000100
00000010
00000001
,
00000200
00000000
00000320
00000000
,
00002030
00000000
00003001
00001000
,
00002002
00003003
00001000
00000100
,
00010000
00000100
00002000
00003000
,
00001000
00000010
00010000
00001000
,
00200000
00300000
00010000
10000000
,
20020000
30030000
00010000
00100000
,
00001000
00010000
00000010
00001000
,
00000200
00000000
00000320
00000000
,
00000032
00000000
00001003
00000001
,
00002002
00000000
00000000
00003003
,
00001000
00000000
00000100
00010000
,
00022000
00000000
00000000
00033000
,
00001000
00000000
00100000
00010000
,
20020000
00000000
00000000
30030000
,
10000000
00000000
00010000
00100000
,
02200000
00000000
00000000
03300000
,
20020000
30030000
00020000
00030000
,
00100000
10000000
00100000
00010000
,
01000000
00001000
00020000
00030000
,
00001000
00100000
00010000
01000000
,
00001000
00010000
00000200
00000300
,
00001000
00000010
00000001
00000010
,
00001000
00000100
00000020
00000030
,
00000010
00000100
00010000
00001000
,
00000100
00000010
00002000
00003000
,
00000010
00000001
00000010
00001000
,
00000100
00010000
00002000
00003000
,
00010000
00000010
00001000
00000100
,
00010000
00001000
02000000
03000000
,
00010000
00100000
10000000
00100000
,
00010000
01000000
00002000
00003000
,
00100000
00010000
01000000
00001000
,
00010000
00000100
00001000
00000010
,
00000200
00000000
00000001
00000000
,
00000320
00000000
00001000
00000000
,
00000130
00000001
00000010
00000100
,
00001000
00000100
00010000
00001000
,
00200000
00000000
00010000
00000000
,
02300000
00000000
10000000
00000000
,
03100000
00010000
01000000
00001000
,
00010000
00000100
00001000
00000001
,
00001000
00001000
00000100
00000100
,
00010000
00010000
00001000
00001000
,
00100000
00010000
01000000
00010000
,
00100000
01000000
00200000
00300000
,
00010000
10000000
00100000
01000000
,
00001000
00010000
00000100
00000010
,
00000001
00001000
00000010
00000100
,
00000220
00000330
00001000
00000001
,
00001001
00000000
00000000
00000000
;

//--------------- dance-double - OrangeRight ----------------
#NOTES:
     dance-double:
     OrangeRight:
     Medium:
     10:
     0.417503,0.522185,0.1977,0.386804,0.008596,340,317,23,45,0,0,0.417503,0.522185,0.1977,0.386804,0.008596,340,317,23,45,0,0:
00000000
00000000
00000000
00000000
,
00000000
00000000
00000000
00000000
,
00000000
00000000
00000000
00000000
,
00000000
00000000
00000000
00000000
,
00000000
00000000
00000000
00000000
,
00010000
00000000
00000100
00000000
00000000
00001000
00000000
00000000
,
00000100
00000000
00010000
00000000
00000000
00001000
00000000
00000000
,
00200000
00000000
00000000
00320000
00000000
00000000
02030000
00000000
,
00000000
00000000
03010000
01000000
,
02020000
00000000
00000000
00000000
,
03030000
00000000
01000000
00001000
,
02002000
00000000
00000000
00000000
,
03003000
00000000
00001000
00010000
,
00022000
00000000
00000000
00000000
,
00033000
00000000
00010000
00000010
,
00020020
00000000
00000000
00000000
,
00030030
00000000
00000010
00001000
,
00000100
00000100
00001000
00001000
,
00000010
00000010
00010000
00010000
,
00001000
00001000
00100000
00100000
,
00010000
00010000
01000000
01000000
,
00010000
00100000
00010000
00000000
00100000
00001000
00100000
00000000
,
00001000
00010000
00001000
00000000
00010000
00000010
00010000
00000000
,
00001000
00010000
00001000
00010000
00001000
00010000
00001000
00000000
,
00022000
00000000
00000000
00000000
00033000
00000000
00000000
00000000
00010000
00000000
00000000
00001000
00000000
00000000
00010000
00000000
,
00012000
00103000
00200000
00310000
,
00020000
00000000
01030000
00010000
02000000
00000000
03001000
00000000
,
00021000
00000000
00030100
00001000
00000100
00000000
00001000
00000010
,
00002000
00003010
00001000
00000100
,
00001200
00000310
00000020
00000130
,
00000200
00000000
00010300
00000100
00010000
00000000
00001000
00000000
,
00012000
00000000
00100000
00000000
,
00023000
00000000
00000000
00000000
00031000
00010000
00001000
00000000
,
00021000
00030010
00000020
00001030
,
00002000
00000000
00003100
00010000
00002000
00000000
00013000
00000000
,
00012000
00000000
01003000
00010000
01000000
00000000
00010000
00100000
,
00020000
00130000
01000000
10000000
,
21000000
30010000
00020000
01030000
,
02000000
00000000
03100000
10000000
00100000
00000000
10000000
00000000
,
10020000
00000000
00100000
00000000
,
20030000
00000000
31000000
10000000
,
10020000
00000000
00100000
00000000
,
01000000
00000000
00130000
00001000
,
00021000
00000000
00000100
00000000
,
00001000
00000000
00030010
00001000
,
00002001
00000000
00000010
00000000
,
00000100
00000000
00003010
00001000
,
00001200
00000000
00000310
00000000
,
00000110
00000110
00002002
00003003
,
00000001
00000010
00000100
00000000
00001000
00000000
00000010
00000000
,
00001000
00000000
00000100
00000000
00001000
00000001
00000100
00000000
,
00000010
00000000
00001000
00000100
00000000
00000100
00010000
00000000
,
00001000
00000000
00100000
00000000
00001000
00010000
00001000
00000000
,
00010000
00001000
00100000
00000000
00010000
00000000
01000000
00000000
,
00100000
00000000
10000000
00000000
01000000
00100000
01000000
00000000
,
10000000
00000000
00010000
01000000
00000000
01000000
00100000
00000000
,
01000000
00000000
00010000
00000000
10000000
00010000
10000000
00000000
,
00010000
00100000
00001000
00000000
00010000
00000000
00000100
00000000
,
00001000
00000010
00010000
00000000
00001000
00010000
00001000
00000000
,
00100000
00000000
00010000
01000000
00000000
01000000
00100000
00000000
,
10000000
00010000
10000000
00000000
01000000
00100000
01000000
00000000
,
10000000
00100000
01000000
00000000
00010000
00000000
00100000
00000000
,
00001000
00010000
00001000
00000000
00010000
00000100
00001000
00000000
,
00000010
00001000
00000010
00000000
00000100
00000001
00000100
00000000
,
00000010
00000100
00000010
00000000
00001000
00000001
00001000
00000000
,
00000002
00001000
00001000
00001003
,
00002000
00000100
00000100
00003100
,
00000100
00010000
00001000
00000000
00100000
00000000
00010000
00000000
,
01000000
00010000
01000000
00000000
00100000
00000000
10000000
00000000
,
20010000
00010000
00010000
30010000
,
00020000
00100000
00100000
00130000
,
00100000
00010000
01000000
00000000
00100000
00000000
10000000
00000000
,
01000000
10000000
00100000
00000000
01000000
00000000
00010000
00000000
,
00100000
00001000
00100000
00000000
00001000
00010000
00001000
00000000
,
00010000
00000100
00010000
00000000
00000100
00001000
00000100
00000000
,
00001000
00000010
00000100
00000000
00000001
00000010
00000100
00000000
,
00001000
00000000
00000001
00000000
00001000
00000001
00001000
00000000
,
00000001
00000010
00000001
00000000
00001000
00000010
00001000
00000000
,
00000100
00010000
00000100
00000000
00010000
00001000
00010000
00000000
,
00001000
00100000
00010000
00000000
01000000
00100000
10000000
00000000
,
10010000
00000000
00000000
00000000
10010000
00000000
00000000
00000000
00010000
00000000
00000000
10000000
00000000
00000000
01000000
00000000
,
00100000
00000000
00000000
00000000
;

//--------------- dance-double - OrangeRight ----------------
#NOTES:
     dance-double:
     OrangeRight:
     Hard:
     12:
     0.572224,0.626622,0.318039,0.257869,0.150424,466,429,37,30,0,0,0.572224,0.626622,0.318039,0.257869,0.150424,466,429,37,30,0,0:
00000000
00000000
00000000
00000000
,
00000000
00000000
00000000
00000000
,
00000000
00000000
00000000
00000000
,
00000000
00000000
00000000
00000000
,
00000000
00000000
00000000
00000000
,
10000000
00000000
00010000
00000000
00010000
01000000
00000000
01000000
,
00001000
00000000
00010000
00000000
00000100
00001000
00000000
00001000
,
00000020
00000000
00000000
00000230
00000000
00000000
00000302
00000000
,
00000000
00000000
00000000
00000000
00000000
00000000
00000000
00000000
00001003
00000000
00000000
00000001
00000000
00000000
00001000
00000000
,
00002002
00000000
00000000
00000000
,
00003003
00000000
00000000
00000000
00000000
00000000
00000000
00000000
00000001
00000000
00000000
00000010
00000000
00000000
00000100
00000000
,
00002000
00000000
00003200
00020000
00000000
00000000
00000000
00000000
,
00030300
00000000
00000000
00000000
00000000
00000000
00000000
00000000
00000100
00000000
00000000
00010000
00000000
00000000
00001000
00000000
,
00022000
00000000
00000000
00000000
,
00033000
00000000
00000000
00000000
00000000
00000000
00000000
00000000
00001000
00000000
00000000
00100000
00000000
00000000
00010000
00000000
,
20000000
00000000
30200000
02000000
00000000
00000000
00000000
00000000
,
03300000
00000000
00000000
00000000
00000000
00000000
00000000
00000000
01000000
00000000
00000000
00010000
00000000
00000000
10000000
00000000
,
10010000
10010000
00110000
00110000
,
00101000
00101000
00011000
00011000
,
00010100
00010100
00001100
00001100
,
00001001
00001001
00000110
00000110
,
00000010
00000100
00001000
00000000
00000010
00001000
00000100
00000000
,
00001000
00000100
00010000
00000000
00001000
00100000
00010000
00000000
,
01000000
00010000
01000000
00010000
00100000
01000000
10000000
00010000
,
10000000
00000000
10000000
00000000
00010000
00000000
00010000
00000000
10000000
00000000
00000000
00010000
00000000
00000000
10000000
00000000
,
10020000
01030000
02010000
03100000
,
02100000
00000000
03010000
01000000
00020000
00000000
00130000
00000000
,
00210000
00000000
00301000
00100000
00001000
00000000
00010000
00000100
,
00010000
00000000
00001000
00010000
00001000
00000000
00010000
00000000
,
00021000
00030100
00010200
00001300
,
00001020
00000000
00000000
00000000
00000130
00000000
00000010
00000000
00000100
00000000
00000000
00000001
00000000
00000000
00001000
00000000
,
00000002
00000010
00001000
00000100
,
00001000
00000000
00000010
00000000
00001003
00001000
00000001
00000001
,
00000201
00000310
00000210
00000301
,
00000021
00000000
00000130
00000010
00000100
00000000
00001100
00000000
,
00001020
00000000
00010030
00000010
00010000
00000000
00001000
01000000
,
00001000
00000000
00010000
00001000
00010000
00000000
00001000
00000000
,
00012000
00103000
00201000
00310000
,
02010000
00000000
00000000
00000000
03100000
00000000
01000000
00000000
00100000
00000000
00000000
10000000
00000000
00000000
00010000
00000000
,
20000000
00100000
00010000
01000000
,
00010000
00000000
00000000
00000000
00100000
00000000
00000000
00000000
31000000
00000000
00000000
10000000
00000000
00000000
00010000
00000000
,
10000000
01000000
00100000
00000000
00010000
01000000
00000000
00010000
,
00100000
00000000
00001000
00000000
00010000
00000000
00000000
00000000
00001000
00000000
00000000
00010000
00000000
00000000
00001000
00000000
,
00100000
00000000
00010000
01000000
00000000
01000000
00100000
00000000
,
01000000
00000000
00010000
00000000
00100000
00000000
00000000
00000000
00010000
00000000
00000000
00100000
00000000
00000000
00001000
00000000
,
00010000
00000010
00001000
00000000
00000001
00001000
00000000
00000100
,
00000010
00000000
00000001
00000000
00000100
00000000
00000000
00000000
00000010
00000000
00000000
00001000
00000000
00000000
00000100
00000000
,
00000010
00000000
00000010
00000100
00000000
00000100
00001000
00000000
,
00001001
00000000
00000000
00000000
00000110
00000000
00000000
00000000
00000010
00000000
00000000
00000100
00000000
00000000
00000001
00000000
,
00000010
00000100
00000010
00000001
00000100
00000010
00001000
00000000
,
00000100
00000000
00001000
00000000
00000100
00000000
00010000
00000000
00001000
00000000
00000000
00001000
00000000
00000000
00001000
00000000
,
00100000
00010000
01000000
00100000
01000000
00010000
00100000
00000000
,
00010000
00000000
00100000
00000000
00001000
00000000
00010000
00000000
00001000
00000000
00000000
00001000
00000000
00000000
00001000
00000000
,
00010000
00000100
00001000
00000100
00010000
00001000
01000000
00000000
,
00010000
00000000
00100000
00000000
01000000
00000000
00100000
00000000
00010000
00000000
00000000
00010000
00000000
00000000
00010000
00000000
,
10000000
00100000
00010000
00100000
10000000
01000000
00100000
00000000
,
00010000
00000000
01000000
00000000
00100000
00000000
00000000
00000000
10000000
00000000
00000000
00010000
00000000
00000000
10000000
00000000
,
00010000
01000000
00100000
01000000
00010000
10000000
01000000
00000000
,
00100000
00000000
00010000
00000000
01000000
00000000
00010000
00000000
00100000
00000000
00000000
00100000
00000000
00000000
00100000
00000000
,
00001000
00010000
00000100
00001000
00000100
00010000
00001000
00000000
,
00010000
00000000
00000010
00000000
00001000
00000000
00000000
00000000
00000010
00000000
00000000
00000010
00000000
00000000
00000010
00000000
,
00001000
00000100
00010000
00001000
00100000
00010000
01000000
00000000
,
00100000
00000000
01000000
00000000
00010000
00000000
00100000
00000000
00001000
00000000
00000000
00010000
00000000
00000000
00000100
00000000
,
00001000
00010000
00001000
00000100
00010000
00001000
00100000
00010000
,
00001000
00000000
00010000
00000000
00100000
00000000
01000000
00000000
10000000
00000000
00000000
00100000
00000000
00000000
01000000
00000000
,
00010000
00000000
00100000
00000000
00100000
00000000
00000000
00010000
00000000
01000000
00000000
00000000
00001000
00000000
00010000
00000000
,
00000100
00000000
00001000
00000000
00001000
00000000
00000000
00000010
00000000
00001000
00000000
00000000
00000100
00000000
00000010
00000000
,
00000001
00000100
00001000
00000100
00000001
00000010
00000100
00000000
,
00001000
00000000
00000100
00000000
00000010
00000000
00000100
00000000
00001000
00000000
00000000
00001000
00000000
00000000
00000010
00000000
,
00001000
00000000
00000100
00000000
00000100
00000000
00000000
00001000
00000000
00000010
00000000
00000000
00010000
00000000
00001000
00000000
,
00100000
00000000
00010000
00000000
00010000
00000000
00000000
01000000
00000000
00010000
00000000
00000000
00100000
00000000
01000000
00000000
,
10000000
00000000
00100000
00000000
00010000
00000000
00000000
00100000
00000000
10000000
00000000
00000000
01000000
00000000
00100000
00000000
,
00010000
00000000
01000000
00000000
00010000
00000000
00000000
00000000
10000000
00000000
00000000
10000000
00000000
00000000
10000000
00000000
,
00010000
00100000
10000000
00100000
00010000
01000000
10000000
01000000
,
00010000
00100000
00001000
00100000
00010000
01000000
00001000
00010000
,
00000100
00001000
00000010
00000001
00000010
00001000
00000100
00000010
,
00000001
00000000
00001000
00000000
00000001
00000000
00000000
00000000
00001000
00000000
00000000
00001000
00000000
00000000
00000001
00000000
,
00001000
00000010
00000001
00000010
00001000
00000100
00010000
00000100
,
00001000
00000010
00010000
00001000
00100000
00010000
01000000
10000000
,
01000000
00100000
01000000
00010000
00100000
01000000
10000000
00010000
,
10010000
00000000
00000000
00000000
11000000
00000000
00000000
00000000
10000000
00000000
00000000
00100000
00000000
00000000
00010000
00000000
,
00100000
00000000
00000000
00000000
;

//--------------- dance-double - OrangeRight ----------------
#NOTES:
     dance-double:
     OrangeRight:
     Challenge:
     16:
     0.753961,0.905121,0.507143,0.257869,0.464165,614,555,59,30,3,0,0.753961,0.905121,0.507143,0.257869,0.464165,614,555,59,30,3,0:
00000000
00000000
00000000
00000000
,
00000000
00000000
00000000
00000000
,
00000000
00000000
00000000
00000000
,
00000000
00000000
00000000
00000000
,
00000000
00000000
00000000
00000000
,
00100000
00010000
01000000
00000000
01000000
00001000
00000000
00001000
,
00010000
00000100
00001000
00000000
00000001
00001000
00000000
00000010
,
00000100
00000000
00000000
00000001
00000000
00000010
00000100
00000000
00000000
00001000
00000000
00000002
00002000
00000000
00000000
00000000
,
00000000
00000000
00000000
00000000
00003003
00000000
00000000
00000000
00000001
00000000
00000000
00000010
00000000
00000000
00000100
00000000
,
00002200
00000000
00000000
00000000
,
00003300
00000000
00000000
00000000
00000000
00000000
00000000
00000000
00000100
00000000
00000000
00010000
00000000
00000000
00001000
00000000
,
00201000
00000000
00320000
02000000
00000000
00000000
00000000
00000000
,
03030000
00000000
00000000
00000000
00000000
00000000
00000000
00000000
00010000
00000000
00000000
00100000
00000000
00000000
01000000
00000000
,
22000000
00000000
00000000
00000000
,
33000000
00000000
00000000
00000000
00000000
00000000
00000000
00000000
01000000
00000000
00000000
10000000
00000000
00000000
00100000
00000000
,
02100000
00000000
03020000
00200000
00000000
00000000
00000000
00000000
,
00330000
00000000
00000000
00000000
00000000
00000000
00000000
00000000
00100000
00000000
00000000
00010000
00000000
00000000
01000000
00000000
,
01010000
00110000
00101000
00011000
,
00010100
00001100
00001010
00000110
,
00001010
00001001
00001100
00010100
,
00011000
01001000
01010000
10010000
,
00010000
00100000
01000000
00100000
00010000
01000000
00001000
00010000
,
00000100
00001000
00000010
00000100
00000001
00000100
00000010
00001000
,
00000100
00001000
00000100
00001000
00000100
00010000
00000100
00010000
00001000
00010000
00001000
00010000
00001000
00100000
00001000
00100000
,
00001000
00000000
00001000
00000000
00010000
00000000
00010000
00000000
00001000
00000000
01000000
00010000
01000000
00000000
00010000
00000000
,
10020000
01030000
10020000
00130000
,
10020000
00000000
01030000
00010000
00110000
00000000
11000000
00000000
,
10200000
00000000
01300000
00010000
00110000
00100000
00101000
00001000
,
00021000
00000000
00030100
00001000
00001100
00000000
00000011
00000000
,
00002001
00003100
00002001
00003010
,
00002001
00000000
00000000
00000000
00003100
00000000
00001000
00000000
00000010
00000000
00000000
00001M00
00000000
00000000
00001000
00000000
,
00020000
00000100
00001000
00000010
,
00031000
00010000
00000100
00000000
00010000
00010000
00001000
00001000
,
00012000
00103000
00012000
01003000
,
00021000
00000000
00030100
00010000
00010100
00000000
00001100
00000000
,
00001020
00000000
00000130
00000001
00000011
00000010
00000110
00000100
,
00001200
00000000
00010300
00000100
00010100
00000000
00101000
00000000
,
00021000
00030100
00021000
00030010
,
00012000
00000000
00000000
00000000
00103000
00000000
00001000
00000000
00100000
00000000
00000000
0M010000
00000000
00000000
00010000
00000000
,
00002000
00100000
00010000
01000000
,
00013000
00000000
00001000
00000000
00100000
00000000
00000000
00000000
00010000
00000000
00000000
01M00000
00000000
00000000
01000000
00000000
,
10000000
00000000
00100000
00000000
00100000
00000000
01000000
00010000
00000000
01000000
00010000
00000000
00100000
00000000
01000000
00000000
,
10000000
00000000
00100000
00000000
01000000
00000000
00010000
00100000
00010000
00000000
00000000
00100000
00000000
00000000
00001000
00000000
,
00010000
00000100
00001000
00010000
00001000
00000100
00010000
00010000
,
00000010
00000000
00001000
00000000
00000100
00000000
00001000
00000001
00001000
00000000
00000000
00000100
00000000
00000000
00000010
00000000
,
00000001
00000000
00000100
00000000
00000100
00000000
00000010
00001000
00000000
00000010
00001000
00000000
00000100
00000000
00000010
00000000
,
00000001
00000000
00000100
00000000
00000010
00000000
00001000
00000100
00001000
00000000
00000000
00000100
00000000
00000000
00010000
00000000
,
00001000
00100000
00010000
00001000
00010000
00100000
00001000
00010000
,
00011000
00000000
00000000
00000000
00101000
00000000
00000000
00000000
00110000
00000000
00000000
01100000
00000000
00000000
11000000
00000000
,
10000000
00000000
00100000
00000000
00100000
00000000
01000000
00010000
00000000
00010000
00100000
00000000
01000000
00000000
00100000
00000000
,
00010000
00000000
01000000
00000000
00001000
00000000
00010000
00001000
00010000
00000000
00000100
00001000
00000000
00001000
00000100
00000000
,
00010000
00001000
00010000
00000000
00000100
00000000
00001000
00000010
00001000
00000000
00000100
00000000
00001000
00000000
00001000
00000000
,
00000010
00000000
00000100
00000000
00000001
00000000
00000010
00000100
00000010
00000000
00000100
00001000
00000000
00001000
00000100
00000000
,
00010000
00000000
00001000
00000000
00001000
00000000
00100000
00010000
00000000
00010000
01000000
00000000
00001000
00000000
00010000
00000000
,
00000100
00000000
00001000
00000000
00000010
00000000
00000100
00000001
00000100
00000000
00000001
00000010
00000000
00000010
00000001
00000000
,
00001000
00000010
00001000
00000000
00000001
00000000
00000100
00000010
00000100
00000000
00000001
00000000
00000010
00000000
00000010
00000000
,
00000100
00000000
00001000
00000000
00000001
00000000
00000100
00000010
00001000
00000000
00001000
00000100
00000000
00000100
00000010
00000000
,
00000001
00000000
00001000
00000000
00001000
00000000
00000100
00001000
00000000
00001000
00000010
00000000
00000100
00000000
00000010
00000000
,
00001000
00000000
00000100
00000000
00010000
00000000
00001000
00010000
00001000
00000000
01000000
00010000
00000000
00010000
01000000
00000000
,
00001000
00010000
00001000
00000000
00100000
00000000
00010000
00100000
00010000
00000000
01000000
00000000
00010000
00000000
00010000
00000000
,
00100000
00000000
01000000
00000000
10000000
00000000
00100000
01000000
00100000
00000000
01000000
00010000
00000000
00010000
01000000
00000000
,
00001000
00000000
00010000
00000000
00010000
00000000
00000010
00001000
00000000
00001000
00000100
00000000
00010000
00000000
00001000
00000000
,
01000000
00000000
00010000
00000000
00100000
00000000
00001000
00010000
00000100
00000000
00001000
00000010
00000000
00000010
00001000
00000000
,
00000100
00010000
00000100
00000000
00010000
00001000
00010000
00000000
00001000
00100000
00001000
00000000
00100000
00010000
00100000
00000000
,
00010000
01000000
00001000
00010000
00000100
00000000
00010000
00000000
00001000
00000000
00100000
00010000
00000000
00010000
01000000
00000000
,
00010000
00100000
00100000
00010000
01000000
10000000
01000000
00010000
,
00100000
00001000
00001000
00010000
00100000
00010000
00001000
01000000
,
00010000
00100000
00100000
00001000
00010000
00000100
00001000
00000010
,
00000001
00000000
00000010
00000000
00001000
00000000
00000100
00000000
00000010
00000000
00000001
00000100
00000000
00000100
00000010
00000000
,
00001000
00000000
00000010
00000000
00000010
00000000
00001000
00000100
00000000
00000100
00010000
00000000
00001000
00000000
00100000
00000000
,
00010000
00000000
01000000
00000000
01000000
00000000
00010000
00100000
00000000
00100000
01000000
00000000
10000000
00000000
00100000
00000000
,
10000000
00000000
01000000
00000000
00010000
00000000
01000000
00100000
00000000
00100000
00010000
00000000
01000000
00000000
00001000
00000000
,
00010000
00000000
00000100
00000000
00001000
00000000
00000010
00001000
00000010
00000000
00000100
00000001
00000000
00000010
00000100
00000000
,
00001000
00000100
00001000
00000000
00000100
00010000
00000100
00000000
00010000
00001000
00010000
00000000
00001000
00100000
00001000
00000000
,
00100000
00010000
00100000
00000000
00010000
01000000
00010000
00000000
01000000
00001000
01000000
00000000
00001000
00010000
00001000
00000000
,
00010000
00000000
00000100
00000000
00001000
00000000
00000010
00000100
00000000
00000100
00000001
00000000
00000010
00000000
00001000
00000000
,
00000010
00000000
00000001
00000000
00000100
00000000
00000010
00001000
00000100
00000000
00000100
00010000
00000000
00010000
00001000
00000000
,
00100000
00010000
01000000
00000000
00010000
00100000
00010000
00000000
00100000
00001000
00010000
00000000
00001000
00010000
00001000
00000000
,
00010000
00000010
00001000
00000000
00000010
00001000
00000010
00000000
00001000
00000100
00000010
00000000
00000100
00000010
00000100
00000000
,
00001000
00000100
00010000
00000000
00010000
00001000
01000000
00000000
01000000
00010000
00100000
00000000
00100000
00001000
00010000
00000000
,
00011000
00000000
00000000
00000000
00010100
00000000
00000000
00000000
00001010
00000000
00000000
00000110
00000000
00000000
00000101
00000000
,
00001001
00000000
00000000
00000000
;
