#TITLE:Brainfog;
#SUBTITLE:;
#ARTIST:Static-X;
#TITLETRANSLIT:;
#SUBTITLETRANSLIT:;
#ARTISTTRANSLIT:;
#GENRE:;
#CREDIT:Braeden;
#MUSIC:Brainfog.ogg;
#BANNER:ban.png;
#BACKGROUND:bg.png;
#JACKET:jacket.png;
#CDTITLE:;
#SAMPLESTART:44.098;
#SAMPLELENGTH:12.000;
#SELECTABLE:YES;
#OFFSET:-0.174;
#BPMS:0.000=150.692;
#STOPS:232.000=7.167
,234.000=5.574
;
#BGCHANGES:;
#FGCHANGES:;

//--------------- dance-single - ----------------
#NOTES:
     dance-single:
     :
     Beginner:
     4:
     0,0,0,0,0:
0000
0000
0000
0000
,
0000
0000
0000
0000
,
0000
0000
0000
0000
,
0000
0000
0000
0000
,
1000
0000
0000
0001
,
0001
0000
0000
0100
,
0100
0000
0000
0010
,
0010
0000
0000
0100
,
0100
0000
0000
0001
,
0001
0000
0000
1000
,
0000
0000
0001
0001
,
0001
0000
0000
1000
,
0000
0000
0010
0010
,
0000
0000
0000
2000
,
0000
3000
0000
0002
,
0000
0003
0000
0100
,
0000
0000
0000
0010
,
0000
0000
1000
0000
,
0000
0001
0000
1000
,
0000
0000
0010
0000
,
0000
1000
0000
0001
,
0000
0000
0000
0100
,
0000
0000
0000
0010
,
0000
0000
1000
1001
,
0000
0001
0000
0100
,
0000
0010
0000
1001
,
0000
1000
0000
0001
,
0000
0100
0000
1001
,
0000
1000
0000
0010
,
0000
1000
0000
1001
,
0000
0001
0000
0100
,
0000
0010
0000
2000
,
0000
0000
0000
3000
,
0000
0000
0000
0002
,
0000
0000
0000
0103
,
0000
0000
0010
0020
,
0000
0000
0000
0030
,
0000
0000
0000
2000
,
0000
0000
0000
3010
,
0000
0000
1000
1000
,
0000
0000
0000
0001
,
0000
0000
1000
1000
,
0000
0000
0000
1001
,
0000
0001
0000
0100
,
0000
0010
0000
1001
,
0000
0001
0000
1000
,
0000
0100
0000
1001
,
0000
0001
0000
0100
,
0000
0010
0000
1001
,
0000
1000
0000
0001
,
0000
1000
0000
0001
,
0000
0010
0000
0100
,
0000
1000
0000
0001
,
0000
1000
0000
0010
,
0000
1000
0000
0001
,
0000
0000
0000
1000
,
0000
0000
0000
0010
,
0000
0000
1000
0000
,
0010
0000
0100
0010
,
0000
1000
0000
0001
,
0000
0100
0000
0100
,
0000
0010
0000
1000
,
0000
0001
0000
2000
,
0000
0000
0000
3000
,
0000
0000
0000
0100
,
0000
0010
0000
0100
,
0000
0010
0000
0002
,
0000
0000
0000
0003
,
0000
0000
0000
0200
,
0000
0000
0000
0300
,
0000
0000
0000
0020
,
0000
0000
0000
0030
,
0000
0000
0000
2000
,
0000
0000
0000
3000
,
0000
0000
0000
0002
,
0000
0000
0000
0003
,
0000
0000
0000
0020
,
0000
0000
0000
0030
,
0000
0000
0000
0002
,
0000
0003
0000
0000
;

//--------------- dance-single - ----------------
#NOTES:
     dance-single:
     :
     Easy:
     9:
     0,0,0,0,0:
0000
0000
0000
0000
,
0000
0000
0000
0000
,
0000
0000
0000
0000
,
0000
0000
0000
0000
,
1000
0000
0000
0001
0000
0000
1000
0000
0010
0000
0000
0000
1000
0000
0000
0000
,
0001
0000
0000
0010
0000
0000
0001
0000
0010
0000
0000
0000
0001
0000
0000
0000
,
1000
0000
0000
0100
0000
0000
0010
0000
0001
0000
0000
0000
1000
0000
0000
0000
,
0001
0000
0000
0100
0000
0000
0010
0000
1000
0000
0000
0000
0100
0000
0000
0000
,
0010
0000
0000
0001
0000
0000
0010
0000
0001
0000
0000
0000
1001
0000
0000
0000
,
1000
0000
0000
0010
0000
0000
0100
0000
0001
0000
0000
0000
0100
0000
0000
0000
,
0000
0001
0000
0000
1000
0000
0010
0000
,
1000
0000
0000
0100
0000
0000
0010
0000
0001
0000
0000
0000
1000
0000
1000
0000
,
0000
0010
0000
0100
0100
0000
0001
0000
,
1000
0000
0000
0100
0000
0000
0010
0000
0001
0000
0000
0000
2000
0000
0000
0000
,
0000
0010
0000
0000
3001
0000
1000
0000
,
0001
0000
0000
0100
0000
0000
0010
0000
1000
0000
0000
0000
0010
0000
0010
0000
,
0000
0000
0100
0000
0000
0000
0001
0000
0001
0000
0000
0000
1000
0000
0000
0010
,
0000
0000
1000
0000
0000
0010
0000
0000
1000
0000
0000
0000
0000
0000
0001
0000
,
0000
0100
0000
0000
0001
0000
0000
0100
0000
0000
0000
0000
0001
0000
0000
1000
,
0000
0000
0010
0000
0000
1000
0000
0000
0001
0000
0000
0000
0000
0000
1000
0000
,
0000
0100
0000
0000
0010
0000
0000
0001
0000
0000
0000
0000
1000
0000
0000
0010
,
0000
0000
0100
0000
0000
0001
0000
0000
0100
0000
0000
0000
0010
0000
0000
1000
,
0000
0000
0010
0000
0000
1000
0000
0000
0001
0000
0000
0000
1000
0000
0100
0000
,
0000
0010
0001
0000
1000
0001
1000
0000
,
0100
0000
0000
1100
0000
0000
1000
0000
0000
0001
0000
1000
,
0000
0010
0000
1010
0000
0000
1000
0000
0000
0001
0000
0000
,
0100
0000
0000
0110
0000
0000
0010
0000
0000
1000
0000
0001
,
0000
0100
0000
0101
0000
0000
0001
0000
0000
1000
0000
0000
,
0100
0000
0000
1001
0000
0000
0001
0000
0000
0100
0000
0010
,
0000
0100
0000
0110
0000
0000
0010
0000
0000
1000
0000
0000
,
0010
0000
0000
1001
0000
0000
0001
0000
0000
0100
0000
0010
,
0000
0100
0000
0001
0000
0000
1000
0000
0000
0002
0000
0000
,
0000
0000
0000
0000
0000
0000
0003
1000
,
0000
0010
0000
0000
1000
0000
0000
0010
0000
0000
0000
0000
1000
0000
0000
0100
,
0000
0000
0010
0000
0000
0001
0000
0000
1000
0000
0000
0000
0001
0000
0100
0000
,
0000
0000
0010
0000
1000
0000
0000
0000
0001
0000
1000
0000
0001
0000
0000
0010
,
0000
0000
0001
0000
0000
0010
0000
0000
0001
0000
0000
0000
0000
0000
1000
0000
,
0000
0001
0000
0000
1000
0000
0000
0001
0000
0000
0000
0000
0100
0000
0000
0010
,
0000
0000
0100
0000
0000
0001
0000
0000
0100
0000
0000
0000
0010
0000
1000
0000
,
0000
0000
0001
0000
0100
0000
0000
0000
0001
0000
1000
0000
0001
0000
0000
0010
,
0000
0000
0001
0000
0000
0010
0000
0000
0001
0000
0000
0000
1000
0000
0010
0000
,
0000
0000
0000
0100
0000
0000
0001
0000
0000
0000
0000
0000
0010
0000
0000
0000
0000
0000
0001
0000
0000
0000
1000
0000
,
0000
0010
0000
1000
0000
0001
0000
0100
0000
0102
0000
0000
,
0010
1003
0200
1300
,
0010
0010
1000
1001
,
0001
0100
0010
1000
,
0100
0011
0001
0101
,
0100
0020
1030
0100
,
1000
1001
0001
1001
,
1000
1010
0010
0100
,
0001
0101
0000
0100
,
0001
0100
0001
1000
,
0010
1000
0010
0100
,
0001
0100
0001
1000
,
0010
0000
1000
0000
0010
0000
1000
0001
,
0000
0100
0000
0000
0010
0000
0000
1000
0000
0000
0001
0000
0100
0000
0010
0000
,
0000
1000
0000
0000
0100
0000
0000
1000
0000
0000
0000
0000
0002
0000
0000
0000
,
1003
0010
0000
1000
0001
1000
0000
0000
,
0M10
0000
100M
0010
,
1000
0000
0001
0100
0001
0000
1000
0000
,
0010
0000
0100
0001
0100
0010
0010
0000
,
1000
0000
0001
1000
0001
0000
1000
0000
,
0100
0000
0010
0001
1000
0010
0010
0000
,
1000
0000
0100
0010
0100
0000
1000
0000
,
0001
0000
0100
0001
0100
0010
0010
0000
,
1000
0000
0001
1000
0010
0000
1000
0000
,
0001
0000
1000
0010
1000
0100
0200
0000
,
0310
0000
0000
0001
0000
0000
0010
0000
0001
0000
0000
0000
2000
0000
0000
0000
,
3001
0000
0000
0100
0000
0000
0010
0000
1000
0000
0000
0000
0001
0000
0000
0000
,
1000
0000
0000
0100
0000
0000
0010
0000
0001
0000
0000
0000
1000
0000
0000
0000
,
0001
0000
0000
0100
0000
0000
0010
0000
0100
0000
0000
0000
0002
0000
0000
0000
,
1003
0000
0000
0100
0000
0000
1000
0000
0010
0000
0000
0000
0200
0000
0000
0000
,
0301
0000
0000
1000
0000
0000
0100
0000
1000
0000
0000
0000
0001
0000
0000
0000
,
1000
0000
0000
0100
0000
0000
1000
0000
0010
0000
0000
0000
0100
0000
0000
0000
,
0001
0000
0000
0010
0000
0000
0100
0000
1000
0000
0000
0000
0002
0000
0000
0000
,
0103
0000
0000
0010
0000
0000
1000
0000
0001
0000
0000
0000
1000
0000
0000
0000
,
0001
0000
0000
1000
0000
0000
0100
0000
1000
0000
0000
0000
0001
0000
0000
0000
,
0100
0000
0000
0010
0000
0000
1000
0000
0001
0000
0000
0000
1000
0000
0000
0000
,
0001
0000
0000
0010
0000
0000
0100
0000
1000
0000
0000
0000
0001
0000
0000
0000
,
1000
0000
0000
0000
1001
0000
0000
0000
0000
0000
0000
0000
;

//--------------- dance-single - XMOD- XO FS- ----------------
#NOTES:
     dance-single:
     XMOD- XO FS-:
     Medium:
     13:
     0,0,0,0,0:
0000
0000
0000
0000
,
0000
0000
0000
0000
,
0000
0000
0000
0000
,
0000
0000
0000
0000
,
0001
1000
0000
0100
0000
0010
0001
0000
1000
0000
0010
0000
2000
0000
0000
0000
,
3001
0010
0000
0001
0000
1000
0001
0000
1000
0000
0100
0000
0020
0000
0000
0000
,
0031
1000
0000
0100
0000
0010
0001
0000
1000
0000
0001
0000
0200
0000
0000
0000
,
0301
0010
0000
0100
0000
1000
0001
0000
0100
0000
0010
0000
2000
0000
0000
0000
,
3001
1000
0000
0010
0000
0100
0001
0000
1000
0000
0001
0000
0101
0000
0000
0000
,
0100
0010
0000
0100
0000
0010
1000
0000
0001
0000
1000
0000
1001
0000
0000
0000
,
0000
0101
0000
0000
0110
0000
1010
0000
,
1000
0100
0000
0010
0000
0001
1000
0000
0010
0000
0100
0000
0001
0000
0001
0000
,
0100
0001
0100
0010
0010
1000
1010
0000
,
0010
1000
0000
0010
0000
1000
0001
0000
0010
0000
0100
0000
1000
0000
0100
0000
,
0100
0010
0001
0001
1000
0001
1001
0000
,
1000
0010
0000
1000
0000
0001
0100
0000
0010
0000
1000
0000
0001
0000
0001
0000
,
0100
0000
0001
0000
0100
0000
0010
0000
0010
0000
1000
0000
0001
0000
0000
0100
,
0000
0000
1000
0000
0000
0100
0000
0000
0001
0000
1000
0000
0100
0000
1000
0000
,
0000
0010
0000
0000
0001
0000
0000
0010
0000
0000
1000
0000
0001
0000
0000
0100
,
0000
0000
0010
0000
0000
0001
0000
0000
0010
0000
0100
0000
0001
0000
1000
0000
,
0000
0100
0000
0000
0001
0000
0000
0100
0000
0000
0010
0000
0001
0000
0000
1000
,
0000
0000
0100
0000
0000
0001
0000
0000
0100
0000
1000
0000
0001
0000
0000
0010
,
0000
0000
1000
0000
0000
0010
0000
0000
0100
0000
0000
0000
1000
0001
1000
0001
,
0000
0000
1000
0010
1000
0010
0000
0000
0100
0001
0100
0001
0200
0000
0000
0000
,
0301
0010
0100
1000
0000
0001
0100
0010
1000
0001
0000
1000
,
0000
0001
0100
0001
0000
1000
0010
0000
0000
0210
0000
0000
,
0301
0010
0100
1000
0000
0001
1000
0100
0010
0001
0000
0001
,
0000
1000
0010
1000
0000
0001
0100
0000
0000
2001
0000
0000
,
3001
0100
0010
1000
0000
0100
0010
0001
1000
0001
0000
0001
,
0000
1000
0100
1000
0000
0000
0001
0000
0000
2001
0000
0000
,
3010
1000
0010
1000
0000
0100
0010
0001
1000
0001
0000
0100
,
0000
0000
0000
0000
0010
0000
0000
0000
1000
0000
0000
0000
0010
0000
0000
0000
0000
0000
0000
0000
0000
0000
0000
0000
1000
0000
0000
0000
0000
0000
0000
0000
0000
0000
0000
0000
1001
0000
0000
0000
0000
0000
0000
0000
0000
0001
0000
0000
,
0000
0000
0100
0000
0000
1000
0000
0000
0100
0000
0001
0000
1000
0000
0001
0000
,
0000
0100
0000
0000
0010
0000
0000
0001
0000
0000
0000
0000
0010
0000
0000
0100
,
0000
0000
0001
0000
0000
1000
0000
0000
0010
0000
0000
0000
1000
0100
0010
0001
,
0000
0000
1000
0100
0010
0001
0000
0000
1000
0001
1000
0001
1000
0000
0000
0010
,
0000
0000
0100
0000
0000
0010
0000
0000
0001
0000
0010
0000
1000
0000
0001
0000
,
0000
0100
0000
0000
1000
0000
0000
0100
0000
0000
0010
0000
1000
0000
0000
0100
,
0000
0000
0001
0000
0000
0100
0000
0000
1000
0000
0000
0000
0001
0100
0010
1000
,
0000
0000
0001
0010
0100
1000
0000
0000
0001
1000
0001
1000
0100
0000
0000
0010
,
0000
0000
0001
0000
0000
0100
0000
0000
0010
0000
0000
0000
1000
0001
1000
0001
,
0000
0000
0000
0000
0000
0000
1000
0000
0000
0001
0000
0000
1000
0000
0000
0001
0000
0000
0000
0000
0000
0000
0000
0000
0100
0000
0000
0010
0000
0000
0100
0000
0000
0010
0000
0000
0100
0000
0000
0000
0001
0000
0000
0000
1000
0000
0000
0000
,
0000
0001
0010
0001
0000
1000
0100
1000
0000
0001
0010
0100
,
1000
0001
0100
0002
0000
0000
2003
0000
0000
3001
0100
0010
,
1000
0010
0100
0002
0000
0000
2003
0000
0000
3001
0010
0100
,
1000
0100
0010
0001
0000
0000
1001
0000
0000
1000
0010
0100
,
0001
0100
0010
2000
0000
0000
3100
0000
0000
1000
0100
0010
,
0100
1000
0100
0020
0000
0000
0031
0000
0000
1000
0000
0001
,
0000
1000
0010
1000
0000
0000
0001
0100
0010
1000
0100
0010
,
0001
0010
0100
1000
0000
0001
0100
0000
0010
1000
0000
0001
,
0010
0000
0100
0000
1000
0000
0001
0000
0000
0000
0000
0000
0000
0000
0000
0001
0000
0000
1000
0000
0000
0001
0000
0000
,
0001
0000
0010
0M00
0010
0000
1000
0000
1000
0000
0100
00M0
0100
0000
0001
0000
,
0001
0000
0100
00M0
0100
0000
1000
0000
1000
0000
0010
0M00
0010
0000
0001
0000
,
0001
1000
1000
0010
0010
0100
0100
0001
,
0001
1000
1000
0010
0010
1000
0001
1000
,
0000
0100
0000
0000
1000
0000
0000
0001
0000
0000
0100
0000
0100
0000
0010
0000
,
0000
1000
0000
0000
0001
0000
0000
1000
0000
0000
0010
0000
1000
0000
0100
0000
,
0010
0010
0000
0001
1000
0010
0000
0000
,
1MM1
0000
0000
0000
1MM1
0000
0001
0100
,
1000
0100
0010
0100
1000
0100
0001
0010
,
1000
0010
0100
0010
0001
1000
1000
0001
,
0100
0010
0001
0010
0100
0010
0001
0010
,
0100
0001
1000
0010
1000
0001
0002
0000
,
1000
0010
0100
0010
,
1000
0000
0100
0000
1003
0001
0001
1000
,
0100
0010
1000
0010
0100
1000
0001
0100
,
0010
1000
0001
1000
0010
1000
1000
0000
,
0001
1000
0000
0010
0000
1000
0001
0000
0100
0000
0010
0000
2000
0000
0000
0000
,
3001
0100
0000
0001
0000
0100
0001
0000
1000
0000
0100
0000
0010
0000
0000
0000
,
0001
1000
0000
0001
0000
1000
0010
0000
1000
0000
0001
0000
0010
0000
0000
0000
,
0100
1000
0000
0100
0000
1000
0001
0000
1000
0000
0010
0000
0100
0000
0000
0000
,
0001
0010
0000
0100
0000
1000
0100
0000
0010
0000
0001
0000
2000
0000
0000
0000
,
3001
0100
0000
0010
0000
1000
0010
0000
1000
0000
0001
0000
1000
0000
0000
0000
,
0001
0010
0000
0001
0000
1000
0010
0000
1000
0000
0001
0000
1000
0000
0000
0000
,
0100
0010
0000
0001
0000
0010
0100
0000
1000
0000
0001
0000
0200
0000
0000
0000
,
0301
0010
0000
0001
0000
1000
0010
0000
1000
0000
0001
0000
0200
0000
0000
0000
,
0301
0100
0000
0100
0000
0100
0010
0000
1000
0000
0001
0000
1000
0000
0000
0000
,
1000
0001
0000
0001
0000
0001
0100
0000
0010
0000
1000
0000
0001
0000
0000
0000
,
0001
0100
0000
0100
0000
0100
0001
0000
1000
0000
0010
0000
1000
0000
0100
0000
,
0010
0000
0000
0001
0000
0000
0000
0000
1001
0000
0000
0000
0000
0000
0000
0000
0000
0000
0000
0000
0000
0000
0000
0000
;

//--------------- dance-single - XMOD- XO SJ FS FL- JA ----------------
#NOTES:
     dance-single:
     XMOD- XO SJ FS FL- JA:
     Hard:
     16:
     1,1,0.527,0.09,1:
0000
0000
0000
0000
,
0000
0000
0000
0000
,
0000
0000
0000
0000
,
0000
0000
0000
0000
,
1000
0100
0000
1000
0000
0001
1000
0000
0010
0000
0100
0000
0002
0000
0000
0000
,
1003
0100
0000
0010
0000
0001
1000
0000
0010
0000
0100
0000
0002
0000
0000
0000
,
1003
0100
0000
0010
0000
0001
1000
0000
0001
0000
0100
0000
0020
0000
0000
0000
,
1030
0100
0000
1000
0000
0001
0100
0000
0001
0000
1000
0000
0002
0000
0000
0000
,
0013
0100
0000
1000
0000
0100
0010
0000
0001
0000
1000
0000
1010
0000
0010
0000
,
0100
0001
0000
0100
0000
0010
1000
0000
0001
0000
0100
0000
0110
0000
0010
0000
,
1000
1010
0010
0100
0101
0001
1001
1000
,
0001
0100
00M0
0100
0000
1000
0010
0000
0100
0000
0001
0000
1001
0000
1010
0000
,
0010
0110
0100
0101
1001
1000
0001
1000
,
0001
0100
00M0
0100
0000
1000
0010
0000
1000
0000
0001
0000
1001
0000
1000
0000
,
0100
0110
0010
0001
0011
0010
0011
0001
,
1000
0010
0M00
0010
0000
0001
1000
0000
0001
0000
1000
0000
1100
0000
0011
0000
,
0001
0000
1001
0000
0100
0000
0110
0000
1001
0000
1000
0000
0001
0000
1000
0100
,
0000
1000
0010
0000
1000
0100
0000
0010
0001
0010
0001
0000
1000
0000
0001
0000
,
0100
0010
0000
1000
0010
0000
0100
0001
1000
0000
0100
0000
0010
0000
0001
0100
,
0000
0010
1000
0000
0001
0010
0000
0100
1000
0000
0001
0000
1000
0000
0010
0000
,
1000
0010
0000
0100
0001
0000
1000
0100
0010
0000
0001
0000
1000
0000
0001
0100
,
0000
0010
1000
0000
0001
0010
0000
0100
1000
0000
0001
0000
1000
0000
0001
0100
,
0000
0010
1000
0000
0001
0010
0000
0100
1000
0000
0100
0000
1000
0010
0100
0001
,
0000
0000
0000
0000
0000
0000
1000
0000
0000
0100
0000
0000
0010
0000
0000
0001
0000
0000
0000
0000
0000
0000
0000
0000
1000
0000
0000
0100
0000
0000
1000
0000
0000
0100
0000
0000
0010
0000
0000
0000
0001
0000
0000
0000
0010
0000
0000
0000
,
0001
1000
0100
0001
0100
0010
0100
1000
0001
1000
1000
0001
,
0001
1000
0010
0001
0010
0100
0001
1000
0100
1000
0010
1000
,
0001
1000
0100
0001
0100
0010
0100
1000
0001
1000
1000
0100
,
0100
1000
0100
0001
0100
1000
0100
0010
0001
1000
0010
1000
,
0001
0100
0010
0001
0010
1000
0001
0010
0100
1000
1000
0001
,
0001
1000
0010
0001
0010
1000
0001
0010
0100
1000
0010
1000
,
0001
1000
0100
0001
0100
0010
0001
1000
0010
1000
1000
0001
,
0001
0000
0000
0000
1000
0000
0000
0000
0010
0000
0000
0000
0001
0000
0000
0000
0010
0000
0000
0000
1000
0000
0000
0000
0100
0000
0000
0000
0010
0000
0000
0000
0001
0000
0000
0000
1000
0000
0000
0000
0000
0000
0001
0000
0000
0100
0000
0000
,
0000
0001
0100
0000
0010
1000
0000
0010
1000
0000
0001
0000
1000
0000
0001
0000
,
1000
0100
0000
0010
0001
0000
1000
0010
1000
0000
0001
0000
1000
0000
0001
0100
,
0000
0100
0010
0000
0010
1000
0000
1000
0001
0000
1000
0000
0001
0100
0010
1000
,
0000
0000
0001
0010
0100
1000
0000
0000
0001
1000
0001
0010
0100
0000
1000
0010
,
0000
0100
0001
0000
1000
0100
0000
0010
0001
0000
1000
0000
0010
0000
1000
0001
,
0000
1000
0100
0010
0001
1000
0000
0001
0100
0000
0010
0000
1000
0000
0001
1000
,
0000
1000
0100
0000
0010
0001
0000
0001
1000
0000
0001
0000
1000
0100
0010
0001
,
0000
0000
1000
0010
0100
0001
0000
0000
1000
0001
1000
0001
0010
0000
0001
0100
,
0000
0010
1000
0000
0010
0100
0000
0001
1000
0000
0100
0000
1000
0010
0100
0001
,
0000
0000
0000
0000
0000
0000
1000
0000
0000
0100
0000
0000
0010
0000
0000
0001
0000
0000
0000
0000
0000
0000
0000
0000
1000
0000
0000
0001
0000
0000
1000
0000
0000
0001
0000
0000
1000
0000
0000
0000
0010
0000
0000
0000
1000
0000
0000
0000
,
0000
0001
0100
0001
0000
1000
0001
1000
0000
0001
0100
0001
,
1000
0100
0010
1000
0010
0100
1000
0001
1000
0001
0010
0100
,
1000
0000
0001
0000
0100
0000
1000
0000
0100
0000
0010
0000
1000
0000
0001
0000
0100
00M0
0100
0000
1000
0000
0100
0000
,
1000
0010
0100
1000
0100
0001
1000
0010
0100
0001
0010
0001
,
1000
0000
0100
0000
0010
0000
1000
0000
0010
0000
0100
0000
1000
0000
0001
0000
0010
0M00
0010
0000
1000
0000
0001
0000
,
0100
0010
0100
1000
0100
0001
0100
0010
1000
0001
0010
0100
,
1000
0000
0001
0000
0100
0000
1000
0000
0100
0000
0001
0000
1000
0000
0001
0000
0100
00M0
0100
0000
1000
0000
0001
0000
,
0100
0001
0100
1000
0100
0010
1000
0010
0100
0001
0010
0001
,
1000
0000
0000
0000
0100
0000
0000
0000
0010
0000
0000
0000
0012
0000
0000
0000
0000
0000
0000
0000
0000
0000
0000
0000
1003
0000
0000
0000
0000
0000
0001
0000
0000
0000
0000
0000
0001
0000
0000
0000
0000
0000
1000
0000
0000
0010
0000
0000
,
1000
0000
0001
0100
0001
0000
1000
0100
1000
0000
0001
0010
0001
0000
1000
0010
,
0100
0000
0001
0100
0010
0000
1000
0001
1000
0000
0010
0100
0010
0000
1000
0001
,
0100
0000
0001
1000
0010
0000
1000
0001
1000
0000
0001
0100
0010
0000
1000
0100
,
0010
0000
0000
0000
0000
0000
0001
0000
0000
1000
0000
0000
0010
0000
0000
0000
0000
0000
1000
0000
0000
0001
0000
0000
0100
0000
0000
0000
0000
0000
0010
0000
0000
0000
0000
0000
0010
0000
0000
0000
0000
0000
1000
0000
0010
0000
0000
0000
,
0000
0000
0000
1000
0000
0001
0000
0000
0000
0000
0000
0000
0010
0000
0100
0000
0000
0000
0000
0000
0000
0010
0000
0001
0000
0000
0000
0000
0000
0000
1000
0000
0000
0000
0000
0000
0001
0000
0000
0000
0000
0000
1000
0000
0010
0000
0000
0000
,
0000
0000
0000
0100
0000
0001
0000
0000
0000
0000
0000
0000
1000
0000
0100
0000
0000
0000
0000
0000
0000
0010
0000
0001
0000
0000
0000
0000
0000
0000
1000
0000
0000
0000
0000
0000
0001
0000
0000
0000
0000
0000
0100
0000
0000
0000
0000
0000
,
0010
1000
0000
1000
0001
0100
0001
0000
,
1MM1
0000
0000
0000
1000
0000
0000
0000
M11M
0000
0010
0000
0010
0000
0001
0100
,
0001
0000
0010
0100
1000
0000
0010
0100
0001
0000
1000
0100
1000
0000
0001
0100
,
0010
0000
1000
0001
0010
0000
0100
1000
0100
0000
1000
0000
1000
0000
0001
0100
,
0010
0000
1000
0010
0100
0000
0001
1000
0001
0000
1000
0100
1000
0000
0001
0100
,
0010
0000
1000
0010
0100
0000
0001
1000
0001
0000
1000
0000
1000
0000
0100
0010
,
1000
0000
0010
0100
1000
0000
0001
0100
0010
0000
1000
0001
1000
0000
0100
0010
,
1000
0000
0010
0100
1000
0000
0001
0100
0010
0000
1000
0000
1000
0000
0001
0100
,
1000
0000
0100
0010
1000
0000
0001
0010
0100
0000
1000
0010
1000
0000
0001
0100
,
1000
0000
0100
0010
1000
0000
0001
0010
0001
0000
1000
0000
1000
0000
0001
0000
,
1000
0100
00M0
0100
0000
0001
0010
0100
1000
0000
0001
0100
0001
0000
1000
0000
,
0001
0010
0M00
0010
0000
1000
0001
0010
0001
0000
1000
0010
0100
0000
0010
0000
,
1000
0100
00M0
0100
0000
0001
1000
0010
1000
0000
0001
0100
0010
0000
1000
0000
,
0001
0100
00M0
0100
0000
1000
0001
0010
0001
0000
1000
0010
0100
0000
0001
0000
,
1000
0001
1000
0010
0M00
0010
0001
1000
0001
0000
0010
0100
1000
0000
0010
0000
,
1000
0001
1000
0100
00M0
0100
0001
1000
0001
0000
0100
0010
1000
0000
0001
0000
,
1000
0001
1000
0010
0M00
0010
0001
1000
0001
0000
0010
0001
1000
0000
0010
0000
,
1000
0001
1000
0100
00M0
0100
0001
1000
0010
0000
1000
0000
0001
0000
1000
0000
,
0010
1000
0001
0100
00M0
0100
1000
0001
0010
0000
0001
0100
0010
0000
1000
0000
,
0010
1000
0001
0010
0M00
0010
1000
0001
0100
0000
0010
1000
0001
0000
1000
0000
,
0001
1000
0010
0100
000M
0100
1000
0001
1000
0000
0010
0100
0001
0000
1000
0000
,
0010
1000
0010
0100
000M
0100
1000
0000
0001
0000
1000
0000
0100
0000
0010
0000
,
0100
0000
0000
1000
0000
0000
0000
0000
1001
0000
0000
0000
0000
0000
0000
0000
0000
0000
0000
0000
0000
0000
0000
0000
;

//--------------- dance-double - ----------------
#NOTES:
     dance-double:
     :
     Easy:
     9:
     0,0,0,0,0:
00000000
00000000
00000000
00000000
,
00000000
00000000
00000000
00000000
,
00000000
00000000
00000000
00000000
,
00000000
00000000
00000000
00000000
,
00010000
00000000
00000000
00001000
00000000
00000000
00010000
00000000
00001000
00000000
00000000
00000000
01001000
00000000
00000000
00000000
,
01000000
00000000
00000000
00010000
00000000
00000000
01000000
00000000
00010000
00000000
00000000
00000000
01010000
00000000
00000000
00000000
,
00010000
00000000
00000000
00100000
00000000
00000000
01000000
00000000
10000000
00000000
00000000
00000000
11000000
00000000
00000000
00000000
,
01000000
00000000
00000000
00100000
00000000
00000000
00010000
00000000
00100000
00000000
00000000
00000000
00101000
00000000
00000000
00000000
,
00001000
00000000
00000000
00010000
00000000
00000000
00000100
00000000
00010000
00000000
00000000
00000000
00010100
00000000
00000000
00000000
,
00000100
00000000
00000000
00001000
00000000
00000000
00000100
00000000
00001000
00000000
00000000
00000000
00001001
00000000
00000000
00000000
,
00000000
00000001
00000000
00000000
00001000
00000000
00001010
00000000
,
00000010
00000000
00000000
00010000
00000000
00000000
00001000
00000000
00010000
00000000
00000000
00000000
00000010
00000000
00000010
00000000
,
00000000
00001000
00000000
00000001
00000001
00000000
00001001
00000000
,
00001000
00000000
00000000
00000100
00000000
00000000
00000010
00000000
00000001
00000000
00000000
00000000
00002001
00000000
00000000
00000000
,
00000000
00000010
00000000
00000000
00003100
00000000
00001100
00000000
,
00000100
00000000
00000000
00010000
00000000
00000000
00001000
00000000
00010000
00000000
00000000
00000000
00001000
00000000
00001000
00000000
,
00000000
00000000
01000000
00000000
00000000
00000000
00100000
00000000
00100000
00000000
00000000
00000000
10000000
00000000
00000000
01000000
,
00000000
00000000
10000000
00000000
00000000
01000000
00000000
00000000
10000000
00000000
00000000
00000000
00000000
00000000
00010000
00000000
,
00000000
00100000
00000000
00000000
00010000
00000000
00000000
00100000
00000000
00000000
00000000
00000000
00001000
00000000
00000000
00010000
,
00000000
00000000
00001000
00000000
00000000
00010000
00000000
00000000
00001000
00000000
00000000
00000000
00000000
00000000
00010000
00000000
,
00000000
00000100
00000000
00000000
00010000
00000000
00000000
00000100
00000000
00000000
00000000
00000000
00001000
00000000
00000000
00000001
,
00000000
00000000
00001000
00000000
00000000
00000010
00000000
00000000
00001000
00000000
00000000
00000000
00000001
00000000
00000000
00000010
,
00000000
00000000
00000100
00000000
00000000
00001000
00000000
00000000
00000100
00000000
00000000
00000000
00010000
00000000
00000000
00001000
,
00000000
00000000
00010000
00000000
00000000
00000100
00000000
00000000
00010000
00000000
00000000
00000000
00012000
00000000
00000000
00000000
,
01003000
00000000
00000000
00000000
01010000
00000000
00000000
00000000
00010000
00000000
00000000
00000000
01000000
00000000
00000000
00100000
,
00000000
10000000
01000000
00000000
10000000
00000000
10020000
00000000
,
01030000
00000000
00000000
01010000
00000000
00000000
01000000
00000000
00000000
00001000
00000000
00010000
,
00000000
00000100
00000000
00001000
00000000
00000000
00000001
00000000
00000000
00002001
00000000
00000000
,
00003010
00000000
00000000
00001001
00000000
00000000
00000001
00000000
00000000
00001000
00000000
00000100
,
00000000
00001000
00000000
00000100
00000000
00000000
00010000
00000000
00000000
00012000
00000000
00000000
,
00103000
00000000
00000000
00110000
00000000
00000000
00010000
00000000
00000000
10000000
00000000
01000000
,
00000000
00100000
00000000
00010000
00000000
00000000
00100000
00000000
00000000
00020000
00000000
00000000
,
00000000
10000000
00000000
00000000
00230000
00000000
00000000
00001000
,
00000000
00000000
00000000
00000000
00002000
00000000
00000000
00000000
00303000
00000000
00000000
00000000
00010000
00000000
00000000
00000100
,
00000000
00000000
00001000
00000000
00000000
00000100
00000000
00000000
00010000
00000000
00000000
00000000
00000010
00000000
00000000
00001000
,
00000000
00000000
00000100
00000000
00000000
00001000
00000000
00000000
00000001
00000000
00000000
00000000
00002000
00000000
00000000
00000000
,
00000000
00000100
00000000
00000000
00003020
00000000
00000000
00000130
,
00000000
00000000
00000000
00000000
00000010
00000000
00000000
00000000
00000000
00000000
00000000
00000000
00001000
00000000
00000000
00000100
,
00000000
00000000
00010000
00000000
00000000
00001000
00000000
00000000
00010000
00000000
00000000
00000000
00001000
00000000
00000000
01000000
,
00000000
00000000
00100000
00000000
00000000
10000000
00000000
00000000
00010000
00000000
00000000
00000000
10000000
00000000
00000000
01000000
,
00000000
00000000
00100000
00000000
00000000
00010000
00000000
00000000
00100000
00000000
00000000
00000000
00001000
00000000
00000000
00010000
,
00000000
00000000
00000000
00000000
00000000
00000000
00000100
00000000
00000000
00000000
00000000
00000000
00000000
00000000
00000000
00001000
00000000
00000000
00000000
00000000
00000000
00000000
00000000
00000000
00000010
00000000
00000000
00000000
00000000
00000000
00000000
00000000
00000000
00000000
00000000
00000000
00001000
00000000
00000000
00000000
00000000
00000000
00000000
00000000
00000100
00000000
00000000
00000000
,
00000000
00001000
00000000
00000001
00000000
00001000
00000000
00000000
00000000
00001010
00000000
00000000
,
00000100
00000001
00000100
00001000
,
00010000
00100000
10000000
01010000
,
00100000
00001000
00010000
00001000
,
00000010
00001000
00010000
00010100
,
00000100
00010000
00001000
00010000
,
00001000
01000000
00100000
10010000
,
10000000
01000000
00010000
00001000
,
00000010
00000001
00000000
00001000
,
00001000
00001000
00001000
00000010
,
00000010
00000010
00000010
00010000
,
00010000
00010000
00010000
00001000
,
00001000
00000000
00001000
00000000
00001000
00100000
00010000
10000000
,
00000000
00100000
00000000
00000000
01000000
00000000
00000000
00001000
00000000
00000000
00010000
00000000
00010000
00000000
00000100
00000000
,
00000000
00001000
00000000
00000000
00000100
00000000
00000000
00001000
00000000
00000000
00000001
00000000
00001000
00000000
00000100
00000000
,
00000010
00000001
00000000
00001000
00000100
00001000
00000000
00000000
,
000M0010
00000000
0001M000
00011000
,
00001000
00001000
01000000
01000000
,
00100000
00000000
00100000
00000000
10000000
00010000
10000000
00000000
,
01000000
00010000
00001000
00010000
,
00000100
00000000
00001000
00000000
00000010
00001000
00000002
00000000
,
00001000
00000100
00001000
00000023
,
00000100
00000000
00000001
00000000
00000130
00010000
00001000
00000000
,
01000000
00100000
10000000
00010000
,
10000000
00000000
00100000
00000000
01000000
00010000
01000000
00000000
,
00010000
00000000
00000000
01000000
00000000
00000000
00100000
00000000
01000000
00000000
00000000
00000000
00002000
00000000
00000000
00000000
,
00010000
00000000
00013000
00000010
,
00001000
00000000
00000000
00000001
00000000
00000000
00000100
00000000
00000001
00000000
00000000
00000000
00001000
00000000
00000000
00000000
,
00000010
00000000
00000000
00010000
00000000
00000000
00001000
00000000
00010000
00000000
00000000
00000000
00002000
00000000
00000000
00000000
,
00100000
00000000
01003000
00001000
,
01000000
00000000
00000000
00100000
00000000
00000000
10000000
00000000
00010000
00000000
00000000
00000000
10000000
00000000
00000000
00000000
,
00100000
00000000
00000000
01000000
00000000
00000000
00001000
00000000
00010000
00000000
00000000
00000000
00000010
00000000
00000000
00000000
,
00001000
00000000
00000000
00000100
00000000
00000000
00000010
00000000
00000001
00000000
00000000
00000000
00002000
00000000
00000000
00000000
,
00000010
00000000
00003001
00001000
,
00000100
00000000
00000000
00010000
00000000
00000000
00000100
00000000
00010000
00000000
00000000
00000000
00001000
00000000
00000000
00000000
,
00100000
00000000
00000000
01000000
00000000
00000000
10000000
00000000
00010000
00000000
00000000
00000000
00100000
00000000
00000000
00000000
,
00001000
00000000
00000000
00010000
00000000
00000000
00000100
00000000
00001000
00000000
00000000
00000000
00000100
00000000
00000000
00000000
,
00010000
00000000
00000000
00000000
00001010
00000000
00000000
00000000
00000000
00000000
00000000
00000000
;

//--------------- dance-double - ----------------
#NOTES:
     dance-double:
     :
     Medium:
     14:
     0,0,0,0,0:
00000000
00000000
00000000
00000000
,
00000000
00000000
00000000
00000000
,
00000000
00000000
00000000
00000000
,
00000000
00000000
00000000
00000000
,
00010000
00001000
00000000
00001000
00000000
00001000
01000000
00000000
00100000
00000000
10000000
00000000
00020000
00000000
00000000
00000000
,
00130000
00001000
00000000
00001000
00000000
00001000
00010000
00000000
00000010
00000000
00001000
00000000
00000002
00000000
00000000
00000000
,
00001003
00000100
00000000
00000100
00000000
00000100
00000010
00000000
00000100
00000000
00001000
00000000
00000200
00000000
00000000
00000000
,
00010300
00001000
00000000
00001000
00000000
00001000
01000000
00000000
00100000
00000000
10000000
00000000
00020000
00000000
00000000
00000000
,
10030000
00100000
00000000
00100000
00000000
00100000
01000000
00000000
00010000
00000000
10000000
00000000
10020000
00000000
00000000
00000000
,
10030000
01000000
00000000
00100000
00000000
00010000
10000000
00000000
00010000
00000000
01000000
00000000
01010000
00000000
00000000
00000000
,
00000000
00110000
00000000
00000000
00011000
00000000
00010100
00000000
,
00000100
00010000
00000000
00001000
00000000
00010000
00000100
00000000
00001000
00000000
00000001
00000000
00000010
00000000
00000010
00000000
,
00000000
00000110
00000000
00000100
00000100
00000000
00001100
00000000
,
00001000
00010000
00000000
00001000
00000000
00100000
00010000
00000000
00100000
00000000
00001000
00000000
00021000
00000000
00000000
00000000
,
00030000
00020200
00000000
00030300
00001010
00000000
00001001
00000000
,
00000001
00001000
00000000
00000010
00000000
00001000
00000001
00000000
00000010
00000000
00000001
00000000
00001000
00000000
00001000
00000000
,
00000000
00000000
00001100
00000000
00000000
00000000
00000100
00000000
00000100
00000000
00000000
00000000
00010100
00000000
00000000
00010000
,
00000000
00000000
00001000
00000000
00000000
00000100
00000000
00000000
00001000
00000000
00010000
00000000
00001000
00000000
01000000
00000000
,
00000000
00100000
00000000
00000000
00010000
00000000
00000000
00100000
00000000
00000000
01000000
00000000
00010000
00000000
00000000
00100000
,
00000000
00000000
00001000
00000000
00000000
00000010
00000000
00000000
00001000
00000000
00010000
00000000
00001000
00000000
00010000
00000000
,
00000000
00001000
00000000
00000000
00000100
00000000
00000000
00001000
00000000
00000000
00010000
00000000
00000010
00000000
00000000
00000100
,
00000000
00000000
00001000
00000000
00000000
00000100
00000000
00000000
00000001
00000000
00001000
00000000
00000001
00000000
00000000
00000100
,
00000000
00000000
00001000
00000000
00000000
00010000
00000000
00000000
00001000
00000000
00000000
00000000
00100000
00010000
00100000
00010000
,
00000000
00000000
00000000
00000000
00000000
00000000
10000000
00000000
00000000
01000000
00000000
00000000
10000000
00000000
00000000
01000000
00000000
00000000
00000000
00000000
00000000
00000000
00000000
00000000
10000000
00000000
00000000
00010000
00000000
00000000
10000000
00000000
00000000
00010000
00000000
00000000
10000000
00000000
00000000
00000000
01000000
00000000
00000000
00000000
00100000
00000000
00000000
00000000
,
00010000
00100000
00001000
00010000
00000010
00001000
00000001
00000100
00000010
00001000
00000000
00000001
,
00000000
00001000
00000010
00000001
00000010
00000100
00000001
00001000
00000100
00001000
00000100
00010000
,
00001000
00100000
00010000
01000000
00100000
10000000
01000000
00100000
00010000
10000000
00000000
00010000
,
00000000
10000000
00100000
00010000
00100000
01000000
00010000
00100000
00001000
00010000
00000100
00001000
,
00000100
00000010
00000001
00001000
00000010
00000100
00000010
00010000
00001000
00100000
00000000
00001000
,
00000000
00010000
00001000
00000100
00001000
00010000
00000100
00001000
00000010
00001000
00000001
00000010
,
00000100
00001000
00000100
00010000
00001000
00010000
00001000
01000000
00100000
10000000
00000000
00010000
,
00000000
00000000
00000000
00000000
00010000
00000000
00000000
00000000
01000000
00000000
00000000
00000000
10000000
00000000
00000000
00000000
01000000
00000000
00000000
00000000
00100000
00000000
00000000
00000000
10000000
00000000
00000000
00000000
00010000
00000000
00000000
00000000
10000000
00000000
00000000
00000000
00002000
00000000
00000000
00000000
00000000
00000000
00000000
00000000
00000000
01000000
00000000
00000000
,
00000000
00000000
00010000
00000000
00000000
01000000
00000000
00000000
00023000
00000000
00000000
00000000
00000000
00000000
00000100
00000000
,
00000000
00001000
00000000
00000000
00000100
00000000
00000000
00001000
00030000
00000000
00000000
00000000
00000100
00000000
00000000
00001000
,
00000000
00000000
00000001
00000000
00000000
00000010
00000000
00000000
00000100
00000000
00000000
00000000
00001000
00000100
00000010
00000001
,
00000000
00000000
00001000
00000010
00000100
00000001
00000000
00000000
00001000
00000010
00001000
00000010
00002000
00000000
00000000
00000001
,
00000000
00000000
00000010
00000000
00000000
00000001
00000000
00000000
00003200
00000000
00000000
00000000
00000000
00000000
00010000
00000000
,
00000000
00001000
00000000
00000000
00010000
00000000
00000000
00001000
00000300
00000000
00000000
00000000
00010000
00000000
00000000
00001000
,
00000000
00000000
01000000
00000000
00000000
00100000
00000000
00000000
10000000
00000000
00000000
00000000
00010000
00100000
01000000
10000000
,
00000000
00000000
00010000
01000000
00100000
10000000
00000000
00000000
00010000
10000000
00010000
10000000
01000000
00000000
00000000
00010000
,
00000000
00000000
01000000
00000000
00000000
10000000
00000000
00000000
00010000
00000000
00000000
00000000
00100000
00001000
00100000
00001000
,
00000000
00000000
00000000
00000000
00000000
00000000
00010000
00000000
00000000
00000100
00000000
00000000
00010000
00000000
00000000
00000100
00000000
00000000
00000000
00000000
00000000
00000000
00000000
00000000
00001000
00000000
00000000
00000001
00000000
00000000
00001000
00000000
00000000
00000001
00000000
00000000
00001000
00000000
00000000
00000000
00000100
00000000
00000000
00000000
00001000
00000000
00000000
00000000
,
00000000
00000001
00001000
00000100
00000000
00010000
00001000
00010000
00000000
00011000
00001000
01000000
,
00010000
10000000
01000000
00100000
00010000
00100000
00001000
00010000
00001000
00010000
00000010
00000100
,
00000010
00001000
00000001
00000010
00000100
00001000
00000001
00000100
00000010
00010000
00001000
00010000
,
00001000
00100000
00010000
00100000
00001000
00100000
00010000
01000000
00100000
10000000
01000000
00100000
,
00010000
00100000
00001000
00010000
00001000
00010000
00000100
00001000
00000100
00001000
00000100
00000010
,
00000001
00000010
00000100
00001000
00000010
00000100
00000001
00000100
00000010
00001000
00000001
00001000
,
00000010
00000100
00000010
00010000
00001000
00010000
00000100
00010000
00001000
00100000
00010000
00100000
,
00001000
00010000
00001000
01000000
00100000
01000000
00010000
00100000
01000000
10000000
00100000
01000000
,
00010000
00000000
01000000
00000000
00100000
00000000
10000000
00000000
00000000
00000000
00000000
00000000
00000000
00000000
00000000
00010000
00000000
00000000
00010000
00000000
00000000
01000000
00000000
00000000
,
00100000
01000000
00100000
01000000
00001000
01000000
00001000
00010000
,
00000100
00010000
00000100
00001000
00000001
00001000
00000001
00000010
,
00000100
00001000
00000100
00000010
00000001
00001000
00000010
00000100
,
00000001
00001000
00000100
00010000
00001000
00010000
00010000
00004000
,
00000000
00000000
00000000
00000000
00000000
00103000
00100000
00040000
,
00000000
00000000
00000000
00000000
00030000
10000000
00010000
00100000
,
00001000
00010000
00000000
00000001
00001000
00000001
00000000
00000000
,
MMMM1000
00000000
00000000
00000000
0001MMMM
00000000
00001000
01000000
,
00100000
00010000
00100000
01000000
00010000
10000000
01000000
00100000
,
01000000
10000000
00010000
00100000
00001000
00010000
00010000
00000010
,
00001000
00000010
00001000
00000001
00000010
00000001
00000010
00000001
,
00001000
00000100
00010000
00001000
00010000
00001000
00002000
00000000
,
00100000
01000000
00100000
02003000
,
00001000
00000000
00010000
00000000
03001000
00010000
00010000
00000010
,
00000100
00000001
00001000
00000100
00000010
00000100
00001000
00000100
,
00000010
00000100
00001000
00000100
00010000
00001000
00002000
00000000
,
01000000
00000000
00000000
00010000
00000000
00000000
00100000
00000000
00103000
00000000
00001000
00000000
02000000
00000000
00000000
00000000
,
00010000
00000000
00000000
00001000
00000000
00000000
00010000
00000000
03010000
00000000
00100000
00000000
00001000
00000000
00000000
00000000
,
00010000
00000100
00000000
00010000
00000000
00000100
00001000
00000000
00000001
00000000
00000100
00000000
00001000
00000000
00000000
00000000
,
00000100
00000010
00000000
00001000
00000000
00000001
00000010
00000000
00000100
00000000
00001000
00000000
00000200
00000000
00000000
00000000
,
00010000
00000000
00000000
00001000
00000000
00000000
00010000
00000000
00010300
00000000
00001000
00000000
02000000
00000000
00000000
00000000
,
00010000
00000000
00000000
00100000
00000000
00000000
00001000
00000000
03001000
00000000
00100000
00000000
00010000
00000000
00000000
00000000
,
10000000
01000000
00000000
00100000
00000000
00010000
00100000
00000000
00001000
00000000
00010000
00000000
00100000
00000000
00000000
00000000
,
00010000
00001000
00000000
00010000
00000000
00000010
00001000
00000000
00000100
00000000
00000001
00000000
00000200
00000000
00000000
00000000
,
00001000
00000000
00000000
00001000
00000000
00000000
00001000
00000000
00001300
00000000
00000100
00000000
00020000
00000000
00000000
00000000
,
00001000
00000000
00000000
00000100
00000000
00000000
00001000
00000000
00031000
00000000
01000000
00000000
00100000
00000000
00000000
00000000
,
10000000
01000000
00000000
00100000
00000000
00010000
10000000
00000000
01000000
00000000
00010000
00000000
00001000
00000000
00000000
00000000
,
00010000
00000100
00000000
00001000
00000000
00000001
00001000
00000000
00000010
00000000
00010000
00000000
00001000
00000000
00001000
00000000
,
10000000
00000000
00000000
10000000
00000000
00000000
00000000
00000000
10010000
00000000
00000000
00000000
00000000
00000000
00000000
00000000
00000000
00000000
00000000
00000000
00000000
00000000
00000000
00000000
;

//--------------- dance-double - ----------------
#NOTES:
     dance-double:
     :
     Hard:
     17:
     0,0,0,0,0:
00000000
00000000
00000000
00000000
,
00000000
00000000
00000000
00000000
,
00000000
00000000
00000000
00000000
,
00000000
00000000
00000000
00000000
,
00010000
00001000
00000000
01000000
00000000
00100000
10000000
00000000
00010000
00000000
10000000
00000000
00020000
00000000
01000000
00000000
,
01030000
00001000
00000000
00010000
00000000
00000010
00001000
00000000
00000001
00000000
00000010
00000000
00000002
00000000
00001000
00000000
,
00001003
00000100
00000000
00000010
00000000
00000001
00001000
00000000
00000010
00000000
00010000
00000000
00002000
00000000
01000000
00000000
,
01003000
00100000
00000000
10000000
00000000
00010000
00100000
00000000
01000000
00000000
10000000
00000000
00020000
00000000
01000000
00000000
,
01030000
00001000
00000000
00010000
00000000
00000100
00001000
00000000
00000100
00000000
00000010
00000000
00000011
00000000
00000001
00000000
,
00001000
00000100
000000M0
00000100
00000000
00000001
00001000
00000000
00000010
00000000
00001000
00000000
00001100
00000000
00000100
00000000
,
00010000
00011000
00001000
00100000
00110000
00010000
20000000
00000000
,
30010000
01000000
00M00000
01000000
00000000
10000000
00010000
00000000
00100000
00000000
00001000
00000000
00010000
00000000
00010000
00000000
,
00001000
00011000
00010000
00000100
00000100
00001000
00001100
00000100
,
00001000
00000100
000000M0
00000100
00000000
00000001
00001000
00000000
00000010
00000000
00000010
00000000
00001010
00000000
00001000
00000000
,
00000100
00000110
00000010
00000001
00001000
00000010
00020010
00000000
,
00031000
01000000
00M00000
01000000
00000000
10000000
00010000
00000000
01000000
00000000
00100000
00000000
10000000
00000000
10000000
00000000
,
00010000
00000000
01010000
00000000
01000000
00000000
00001000
00000000
00001000
00000000
00011000
00000000
00010000
00001000
00010000
00000100
,
00001000
00000100
00001000
00000001
00001000
00000100
00000010
00000001
00001000
00000010
00000100
00000001
00001000
00000001
00010000
00001000
,
00010000
00001000
01000000
00010000
10000000
01000000
10000000
00100000
01000000
00010000
01000000
00001000
00010000
00001000
00010000
00000100
,
00001000
00000100
00010000
00000010
00010000
00000010
00001000
00000100
00001000
00000010
00000100
00000001
00000010
00000100
00001000
00000100
,
00001000
00000100
00010000
00000100
00010000
00001000
00010000
00001000
01000000
00100000
10000000
00010000
10000000
00010000
00100000
00001000
,
00010000
00001000
00100000
00010000
00100000
00001000
00010000
00000100
00010000
00000100
00001000
00000010
00010000
00001000
00010000
00000010
,
00001000
00000001
00000010
00000100
00001000
00000010
00010000
00000010
00010000
00001000
00100000
00010000
10000000
01000000
01000000
00010000
,
01000000
00000000
00000000
00000000
00000000
00000000
00001000
00000000
00000000
00000000
00000000
00000000
00100000
00000000
00000000
00000000
00000000
00000000
00010000
00000000
00000000
0M000000
00000000
00000000
00010000
00000000
00000000
00000000
00000000
00000000
00001000
00000000
00000000
00000000
00000000
00000000
00010000
00000000
00000000
00000000
00000000
00000000
00000100
00000000
00000000
00000000
00000000
00000000
00001000
00000000
00000000
00000000
00000000
00000000
00000100
00000000
00000000
000000M0
00000000
00000000
00000100
00000000
00000000
00000000
00000000
00000000
00000001
00000000
00000000
00000000
00000000
00000000
00001000
00000000
00000000
00000000
00000000
00000000
00000000
00000000
00000010
00000000
00000000
00000000
00000000
00000000
00000000
00000000
00000100
00000000
00000000
00000000
00000000
00000000
00000000
00000000
,
00000001
00000000
00000100
00000000
00000010
00000000
00000001
00000000
00000010
00000000
00000100
00000000
00000010
00000000
00001000
00000000
00000100
00000000
00010000
00001000
00010000
00000000
00001000
00100000
,
00001000
00100000
00010000
00001000
00010000
00100000
00001000
10000000
00100000
10100000
10000000
01000000
,
00100000
00000000
00010000
00000000
01000000
00000000
10000000
00000000
01000000
00000000
00100000
00000000
01000000
00000000
00001000
00000000
00010000
00000000
00000100
00001000
00000100
00000000
00001000
00000001
,
00001000
00000001
00000100
00001000
00000100
00000010
00010000
00001000
00010000
00010100
00000100
00010000
,
00001000
00000000
00010000
00000000
00001000
00000000
00000100
00000000
00001000
00000000
00010000
00000000
00001000
00000000
01000000
00000000
00100000
00000000
10000000
00010000
10000000
00000000
00010000
00100000
,
00010000
10000000
01000000
00010000
01000000
00100000
00001000
00100000
00001000
00011000
00010000
00000010
,
00000100
00000000
00000001
00000000
00000100
00000000
00001000
00000000
00000100
00000000
00000010
00000000
00001000
00000000
00000100
00000000
00010000
00000000
00001000
00100000
00001000
00000000
01000000
00010000
,
01000000
00000000
00000000
00000000
00010000
00000000
00000000
00000000
01000000
00000000
00000000
00000000
10000000
00000000
00000000
00000000
01000000
00000000
00000000
00000000
00100000
00000000
00000000
00000000
10000000
00000000
00000000
00000000
00010000
00000000
00000000
00000000
10000000
00000000
00000000
00000000
00010000
00000000
00000000
00100000
00000000
00000000
00010000
00000000
00000000
01000000
00000000
00000000
,
00001000
01000000
00001000
00010000
00001000
00010000
00000100
00001000
00000020
00000000
00000000
00000000
00000000
00000000
00001030
00000010
,
00000100
00000001
00000010
00000100
00001000
00000100
00010000
00001000
02000000
00000000
00000000
00000000
03100000
10000000
00100000
10000000
,
01000000
00000000
00100000
00000000
00010000
00000000
00100000
00000000
00001000
00000000
00010000
00000000
00000100
00000000
00010000
00000000
00000200
00000000
00000000
00000000
00000000
00000000
00000000
00000000
00001300
00000000
00000100
000000M0
00000100
00000000
00000001
00000000
,
00001000
00000000
00000000
00000000
00000001
00000000
00000100
000000M0
00000100
00000000
00001000
00000000
00000001
00000000
00000000
00000000
00001000
00000000
00000100
00000000
00001000
00000000
00000010
00000000
00001000
00000000
00000100
00000000
00000010
00000000
00000100
00000000
,
00001000
00000100
00010000
00001000
00010000
00001000
00100000
00010000
02000000
00000000
00000000
00000000
00000000
00000000
03100000
10000000
,
00100000
10000000
01000000
00100000
00010000
01000000
00001000
01000000
00002000
00000000
00000000
00000000
00013000
00000010
00001000
00000010
,
00000100
00000000
00000010
00000000
00001000
00000000
00000001
00000000
00000100
00000000
00000001
00000000
00000010
00000000
00000100
00000000
00002000
00000000
00000000
00000000
00000000
00000000
00000000
00000000
00003001
00000000
00000100
000000M0
00000100
00000000
00001000
00000000
,
00000100
00000000
00000000
00000000
00010000
00000000
00001000
000000M0
00001000
00000000
00000100
00000000
00001000
00000000
00000000
00000000
00010000
00000000
00001000
00000000
00100000
00000000
00010000
00000000
10000000
00000000
01000000
00000000
00100000
00000000
00010000
00000000
,
00100000
00001000
00010000
00001000
00010000
00000100
00001000
00000010
00001000
00000100
00000010
00000001
00001000
00000100
00000100
00000001
,
00001000
00000000
00000000
00000001
00000000
00000000
00001000
00000000
00000000
00000100
00000000
00000000
00000100
00000000
00000000
00000001
00000000
00000000
00001000
00000000
00000000
00000010
00000000
00000000
00001000
00000000
00000000
00000100
00000000
00000000
00010000
00000000
00000000
00001000
00000000
00000000
00100000
00000000
00000000
00000000
00100000
00000000
00000000
00000000
00100000
00000000
00000000
00000000
,
00000000
00000010
00000010
00000010
00000000
00001000
00001000
00001000
00000000
00001010
00000010
00010000
,
00001000
01000000
00100000
00010000
00100000
01000000
00010000
00100000
01000000
10000000
00010000
00100000
,
00001000
00010000
00001000
00000100
00001000
00010000
00000010
00001000
00000100
00000110
00000010
00000001
,
00001000
00000100
00000010
00001000
00000010
00000100
00001000
00000100
00010000
00001000
00100000
00010000
,
10000000
01000000
00100000
10000000
00100000
00010000
10000000
00010000
01000000
01001000
00001000
00010000
,
00001000
00010000
00001000
00000100
00001000
00010000
00000100
00001000
00000001
00001000
00000100
00000010
,
00000001
00000100
00000010
00000001
00000010
00001000
00000010
00010000
00001000
01001000
01000000
00100000
,
10000000
00100000
01000000
10000000
01000000
00100000
01000000
00010000
00100000
00001000
00010000
00000010
,
00000100
00000000
00000000
00000000
00000010
00000000
00000000
00000000
00001000
00000000
00000000
00000000
00001001
00000000
00000000
00000000
00000000
00000000
00000000
00000000
00000000
00000000
00000000
00000000
00000000
00000000
00000000
00000000
00000000
00000000
00001000
00000000
00000000
00000000
00000000
00000000
00001000
00000000
00000000
00000000
00000000
00000000
00000010
00000000
00000000
00001000
00000000
00000000
,
00000010
00000000
00010000
00001000
00010000
00000000
00001000
00100000
00001000
00000000
01000000
00010000
01000000
00000000
00100000
10000000
,
00100000
00000000
10000000
00010000
10000000
00000000
00100000
01000000
00100000
00000000
10000000
01000000
00100000
00000000
00010000
00100000
,
01000000
00000000
00100000
00010000
00100000
00000000
00001000
00010000
00000100
00000000
00001000
00000001
00000010
00000000
00000100
00010000
,
00000100
00000000
00010000
00001000
01000000
00000000
00010000
10000000
00010000
00000000
10000000
00000000
10000000
00000000
00040000
00000000
,
00000000
00000000
00000000
00000000
00030000
01000000
00001000
00040000
,
00000000
00000000
00000000
00000000
00000000
00000000
00000000
00000000
00000000
00000000
00000000
00000000
00000000
00000000
00000000
00031000
00000000
00000000
00010000
00000100
00010000
00000100
00010000
00000100
,
00010000
00000000
00000000
00000010
00000000
00000000
00000000
00000000
00000000
00000100
00000001
00000100
00000001
00000100
00000001
00000100
00000000
00000000
00000000
00000000
00000000
00000000
00000000
00000000
,
00000MM1
00000000
00000000
00000000
00000000
00000000
00000000
00000000
MM011000
00000000
00001000
00000000
00001000
00000000
01000000
00100000
,
10000000
00000000
01000000
00100000
00010000
00000000
01000000
00001000
01000000
00000000
00001000
00010000
00001000
00000000
00010000
00000010
,
00010000
00000000
00000010
00001000
00000010
00000000
00001000
00000001
00001000
00000000
00000010
00000000
00000010
00000000
00001000
00000100
,
00000010
00000000
00000001
00001000
00000010
00000000
00000100
00000010
00010000
00000000
00001000
00010000
00001000
00000000
01000000
00100000
,
01000000
00000000
00100000
10000000
00010000
00000000
10000000
01000000
00100000
00000000
00010000
00000000
00010000
00000000
10000000
00010000
,
01000000
00M00000
01000000
10000000
00010000
00000000
00100000
00001000
00010000
0000M000
00010000
00100000
00001000
00000000
00010000
00000100
,
00010000
00000000
00000010
00010000
00000010
00000000
00001000
00000001
00001000
00000000
00000010
00000000
00000010
00000000
00001000
00000001
,
00000100
000000M0
00000100
00001000
00000010
00000000
00010000
00000100
00001000
000M0000
00001000
00010000
00000100
00000000
00010000
00001000
,
00100000
00000000
00010000
10000000
00010000
00000000
10000000
00100000
10000000
00000000
00010000
00000000
00010000
00000000
10000000
00010000
,
10000000
00100000
01000000
10000000
01000000
00100000
10000000
00010000
00100000
00001000
00010000
00001000
00010000
00000000
00000010
00000100
,
00000010
00001000
00000100
00000001
00000100
00000010
00000100
00001000
00000100
00010000
00000010
00001000
00000100
00000000
00010000
00001000
,
01000000
00010000
01000000
10000000
01000000
00100000
01000000
00010000
00100000
00010000
00100000
00001000
00100000
00000000
00001000
00010000
,
00000100
00001000
00000100
00000001
00000100
00000010
00000100
00001000
00000010
00001000
00000010
00000100
00000020
00000000
00001030
00000001
,
00001000
00000000
00000001
00000000
00000100
000000M0
00000100
00000000
00001000
00000000
00000100
00000000
00010000
00000000
00001000
00000000
00010000
00000000
00001000
00000000
00100000
00000000
00010000
00000000
00100000
00000000
00000000
00000000
00010000
00000000
10000000
00000000
,
00010000
00000000
01000000
00000000
00100000
M0000000
00100000
00000000
00010000
00000000
00100000
00000000
00001000
00000000
00010000
00000000
00000100
00000000
00001000
00000000
00000001
00000000
00000010
00000000
00000100
00000000
00000000
00000000
00001000
00000000
00000100
00000000
,
00010000
00000000
00000100
00000000
00001000
00M00000
00001000
00000000
00010000
00000000
00001000
00000000
00100000
00000000
00010000
00000000
00100000
00000000
00010000
00000000
00100000
00000000
01000000
00000000
10000000
00000000
00000000
00000000
00010000
00000000
10000000
00000000
,
01000000
00000000
00100000
000M0000
00100000
00000000
10000000
00000000
00010000
00000000
00100000
00000000
00001000
00000000
00010000
00000000
00001000
00000000
00010000
00000000
00000100
00000000
00001000
00000000
00000001
00000000
00001000
00000000
00000010
00000000
00000100
00000000
,
00000001
00000000
00001000
00000000
00000100
000000M0
00000100
00000000
00000001
00000000
00000100
00000000
00000010
00000000
00001000
00000000
00000100
00000000
00001000
00000000
00000010
00000000
00001000
00000000
00000010
00000000
00010000
00000000
00001000
00000000
00010000
00000000
,
00001000
00000000
00M00000
00001000
00000000
00000000
00000100
00000000
00000000
00010000
00000000
00000000
00001000
00000000
00000000
00100000
00000000
00000000
00010000
00000000
00000000
10000000
00000000
00000000
01000000
00000000
00000000
00100000
00000000
00000000
00010000
00000000
00000000
01000000
00000000
00000000
00100000
00000000
00000000
10000000
00000000
00000000
00100000
00000000
00000000
01000000
00000000
00000000
,
00010000
00000000
01000000
M0000000
01000000
00000000
00100000
00000000
00010000
00000000
00100000
00000000
00001000
00000000
00010000
00000000
00000010
00000000
00001000
00000000
00000010
00000000
00001000
00000000
00000100
00000000
00000000
00000000
00000010
00000000
00000001
00000000
,
00001000
00000000
00000100
0000000M
00000100
00000000
00000010
00000000
00001000
00000000
00000100
00000000
00010000
00000000
00001000
00000000
00100000
00000000
00010000
00000000
00100000
00000000
00000000
00000000
00001000
00000000
00000000
00000000
00010000
00000000
00000000
00000000
,
00001000
00000000
00000000
01000000
00000000
00000000
00000000
00000000
10001000
00000000
00000000
00000000
00000000
00000000
00000000
00000000
00000000
00000000
00000000
00000000
00000000
00000000
00000000
00000000
;
