#VERSION:0.83;
#TITLE:Boundary;
#SUBTITLE:;
#ARTIST:SPARKER;
#TITLETRANSLIT:;
#SUBTITLETRANSLIT:;
#ARTISTTRANSLIT:;
#GENRE:;
#CREDIT:;
#MUSIC:Boundary.ogg;
#BANNER:bn.png;
#BACKGROUND:bg.png;
#CDTITLE:;
#SAMPLESTART:60.394;
#SAMPLELENGTH:15.000;
#SELECTABLE:YES;
#OFFSET:-0.394;
#BPMS:0.000=160.000;
#STOPS:143.500=4.500;
#BGCHANGES:;
#FGCHANGES:;

//--------------- dance-single - eataninja ----------------
#NOTEDATA:;
#STEPSTYPE:dance-single;
#DESCRIPTION:eataninja;
#DIFFICULTY:Beginner;
#METER:4;
#RADARVALUES:0,0,0,0,0;
#NOTES:
0000
0000
0000
0000
,
0000
0000
0000
0000
,
0000
0000
0000
0000
,
0000
0000
0000
0000
,
0000
0000
0000
0000
,
0000
0000
0000
0000
,
0000
0001
0000
0001
,
0000
1000
0000
1000
,
0000
0010
0000
0010
,
0000
0100
0000
0100
,
0000
0001
0000
0001
,
0000
1000
0000
1000
,
0000
0100
0000
0100
,
0010
0000
0000
0000
,
0000
0010
0000
0001
,
0000
1000
0000
0010
,
0000
0100
0000
0001
,
0000
1000
0000
0100
,
0100
0000
0001
0000
,
0100
0000
1000
0000
,
0010
0000
0100
0000
,
0001
1000
0001
0000
,
0000
1000
0000
0000
0000
0000
0000
0010
,
0000
0000
0000
0000
0000
0100
0000
0000
,
0000
0000
0000
0001
0000
0000
0000
0000
,
0000
1000
0000
1000
0000
0001
0000
0000
,
0000
0000
0000
0010
0000
0000
0000
0000
,
0000
0100
0000
0000
0000
0000
0000
1000
,
0000
0000
0000
0000
0000
0001
0000
0001
,
0000
1000
0000
0000
0000
0000
0000
0100
,
0000
0000
0000
0000
0000
0010
0000
0000
,
0000
0000
0000
0001
0000
0000
0000
0000
,
0000
1000
0000
1000
0000
0001
0000
0000
,
0000
0000
0000
0100
0000
0000
0000
0000
,
0000
0010
0000
0000
0000
0000
0000
1000
,
0000
0000
0000
0000
0000
0001
0000
1000
,
0000
0000
0000
0000
,
0000
1000
0000
0001
,
0000
0100
0100
0100
,
0000
0001
0000
1000
,
0000
0100
0100
0100
,
0000
0010
0000
0001
,
0000
1000
1000
1000
,
0000
0010
0000
0100
,
0001
0000
0000
0010
,
0000
0100
0000
0010
,
0000
0001
1000
0001
,
0000
0100
0000
0010
,
0000
1000
0100
1000
,
0001
0000
0100
0000
,
1000
0000
0100
0000
,
0010
0000
1000
0000
,
0001
1000
0001
0000
,
0010
0000
0000
0000
,
0100
0000
0000
0000
,
1000
0000
0000
0000
,
0001
0000
0000
0000
,
1001
0000
0000
0000
,
1001
0000
0000
0000
,
1001
0000
0110
0000
,
2002
0000
3003
0000
,
1000
1000
0000
0010
,
0010
0000
1000
1000
,
0000
0001
0001
0000
,
0010
0010
0000
0100
,
0100
0000
1000
1000
,
1000
0001
0001
0001
,
0200
0000
0000
0000
,
0000
0000
0000
0000
,
0000
0000
0000
0000
,
0000
0000
0000
0000
0000
0000
0000
0300
;

//--------------- dance-single - eataninja ----------------
#NOTEDATA:;
#STEPSTYPE:dance-single;
#DESCRIPTION:eataninja;
#DIFFICULTY:Easy;
#METER:8;
#RADARVALUES:0,0,0,0,0;
#NOTES:
0000
0000
0000
0000
,
0000
0000
0000
0000
,
0000
0000
0000
0000
,
0000
0000
0000
0000
,
0000
0000
0000
0000
,
0000
0000
0000
0000
,
1001
1000
0100
0100
,
1001
0001
0100
0010
,
1001
1000
0010
0010
,
1001
0001
0010
0100
,
0110
0010
0001
1000
,
1001
0001
0100
0010
,
0110
0100
0001
1000
,
0100
0100
0000
0000
0000
0010
0010
0000
,
0100
0110
0001
1000
,
0010
0001
0010
0100
,
0010
0110
1000
0001
,
0010
1000
0010
0001
,
1000
0010
1000
0000
0001
0100
0001
0000
,
1000
0100
1000
0000
0001
0010
0001
0000
,
1000
0010
0100
0000
0001
0010
0100
0000
,
0001
0100
1000
0001
,
0000
0100
0000
0000
0100
0000
0000
0010
,
0000
0000
0010
0000
0000
1000
0000
0000
,
1000
0000
0000
0000
0000
0000
0002
0000
0000
0003
0000
0000
0002
0000
0000
0003
,
0000
0011
0000
1100
0000
1000
0000
0000
,
1000
0000
0000
0001
0000
0000
0001
0000
,
0000
0000
0200
0000
0000
0300
0000
0000
0200
0000
0000
0300
0000
0000
0020
0000
,
0000
0030
0000
0000
0020
0000
0000
0030
0000
0000
1010
0000
0000
0000
0101
0000
,
0000
0100
0000
0000
0100
0000
0000
0001
,
0000
0000
0001
0000
0000
1000
0000
0000
,
1000
0000
0000
0000
0000
0000
0200
0000
0000
0300
0000
0000
0200
0000
0000
0300
,
0000
1100
0000
0011
0000
0001
0000
0000
,
0001
0000
0000
1000
0000
0000
1000
0000
,
0000
0000
0020
0000
0000
0030
0000
0000
0020
0000
0000
0030
0000
0000
0200
0000
,
0000
0300
0000
0000
0200
0000
0000
0300
0000
0000
0101
0000
0000
0000
2020
0000
,
0000
0000
0000
3030
,
1000
1001
0001
1001
,
0100
0000
0010
0000
0001
1000
1000
0000
,
0001
1001
1000
1001
,
0010
0000
0100
0000
0001
1000
1000
0000
,
0100
1100
1000
1100
,
0001
0000
1000
0000
0010
1000
1000
0000
,
0001
0101
0100
0101
,
0010
0010
0000
0000
0000
0100
0100
0000
,
1001
1000
0100
0001
,
0100
0000
0010
0000
0001
1000
1000
0000
,
1001
1000
0010
0001
,
0010
0000
0100
0000
0010
0100
0001
0000
,
1000
0100
1000
0000
0001
0010
0001
0000
,
1000
0010
1000
0000
0001
0100
0001
0000
,
1000
0100
0010
0000
0001
0100
0010
0000
,
0001
0010
1000
0001
,
2000
0100
0000
3001
,
0002
0100
0000
1003
,
2000
0010
0000
3001
,
0002
0010
0000
1003
,
0001
0010
1000
0010
,
0100
0010
0001
1000
,
0010
0100
0010
0100
,
1000
0001
0010
0100
,
0001
0010
0001
0000
1000
0000
0001
0010
,
0001
0000
1000
0000
0001
0100
0010
0000
,
1000
0000
0001
0100
0010
0000
1000
0000
,
0001
0010
1000
0000
0010
0000
0001
0010
,
1000
0000
0010
0000
0100
0100
0100
0000
,
0100
0000
0100
0100
0100
0000
0100
0000
,
2002
0000
0000
0000
,
0000
0000
0000
0000
,
0000
0000
0000
0000
,
0000
0000
0000
0000
0000
0000
0000
3003
;

//--------------- dance-single - eataninja ----------------
#NOTEDATA:;
#STEPSTYPE:dance-single;
#DESCRIPTION:eataninja;
#DIFFICULTY:Medium;
#METER:11;
#RADARVALUES:0,0,0,0,0;
#NOTES:
0000
0000
0000
0000
,
0000
0000
0000
0000
,
0000
0000
0000
0000
,
0000
0000
0000
0000
,
0000
0000
0000
0000
,
0000
0000
0000
0000
,
1001
1000
0100
0100
,
1001
0000
0001
0000
0100
0010
0100
0000
,
1001
1000
0010
0010
,
1001
0000
0001
0000
0010
0100
0010
0000
,
0011
1000
0010
0100
,
0101
0000
1000
0000
0001
0010
0100
0000
,
1100
0001
1000
0010
,
0100
0100
0000
0000
0000
0010
0010
0010
,
0100
0001
0010
0000
0100
1000
0010
0000
,
0100
0000
1000
0000
0100
0001
0100
0000
,
0010
1000
0100
0000
0010
0100
1000
0000
,
0010
0000
0001
0000
0010
1000
0010
0000
,
0100
0001
1000
0001
0010
0100
1000
0000
,
0001
0100
0001
1000
0010
0100
0001
0000
,
1000
0100
1000
0001
0010
0100
1000
0000
,
0001
0100
1000
0000
0001
0010
1000
0000
,
0000
0000
0001
0000
0000
0001
0000
0000
1000
0000
0000
1000
0000
0000
0100
0000
,
0000
0100
0000
0000
0010
0000
0000
0010
0000
0000
0001
0000
0000
0001
0000
0000
,
1000
0000
0000
1000
0000
0000
0010
0000
0000
0001
0000
0000
0010
0000
0000
1000
,
0000
0000
1001
0000
0000
0000
0101
0000
0000
0000
0100
0000
0000
0100
0000
0000
,
0010
0000
0000
0010
0000
0000
1000
0000
0000
1000
0000
0000
0001
0000
0000
0001
,
0000
0000
0010
0000
0000
1000
0000
0000
0010
0000
0000
0001
0000
0000
0100
0000
,
0000
1000
0000
0000
0100
0000
0000
0001
0000
0000
1001
0000
0000
0000
1100
0000
,
0000
0000
1000
0000
0000
1000
0000
0000
0001
0000
0000
0001
0000
0000
0010
0000
,
0000
0010
0000
0000
0100
0000
0000
0100
0000
0000
1000
0000
0000
1000
0000
0000
,
0001
0000
0000
0001
0000
0000
0100
0000
0000
1000
0000
0000
0100
0000
0000
0001
,
0000
0000
1001
0000
0000
0000
1010
0000
0000
0000
0010
0000
0000
0010
0000
0000
,
0100
0000
0000
0100
0000
0000
0001
0000
0000
0001
0000
0000
1000
0000
0000
1000
,
0000
0000
0100
0000
0000
0001
0000
0000
0100
0000
0000
1000
0000
0000
0010
0000
,
0000
0001
0000
0000
0010
0000
0000
1000
0000
0000
1001
0000
0000
0000
0022
0000
,
0000
0000
0000
0033
,
1001
1000
0100
0000
0010
0001
1000
0000
,
1010
0010
0100
0000
0010
1000
1000
0000
,
1001
0001
0010
0000
0100
0010
0001
0000
,
0011
0001
1000
0000
0010
0001
0010
0000
,
0110
0100
0001
0000
0010
0100
1000
0000
,
1100
1000
0001
0000
0100
0010
0010
0000
,
0110
0100
0001
0000
1000
0001
0010
0000
,
0100
0100
0000
0000
0000
0010
0010
0010
,
0001
1000
0010
0000
0001
0010
1000
0000
,
0100
0010
0001
1000
0010
0100
0100
0000
,
0001
0100
1000
0000
0100
0010
0010
0000
,
0100
0001
1000
0100
0001
0100
1000
0000
,
0010
0100
0001
0010
0100
1000
0001
0000
,
1000
0010
1000
0001
0010
0100
1000
0000
,
0001
0100
0001
0000
1000
0100
0010
0000
,
0001
0100
1000
0000
0001
0010
1000
0000
,
1002
0000
0103
0000
,
2001
0000
3100
0000
,
1002
0000
0013
0000
,
2001
0000
3010
0000
,
0001
0010
1000
0001
,
0010
1000
0001
0100
,
0110
0001
0110
1000
,
0001
0000
0100
0000
1000
0100
0001
0000
,
0100
0010
0100
0010
1000
0000
0010
0100
,
0010
0100
0001
0000
1000
0001
1000
0100
,
0010
0000
0001
1000
0001
0100
0010
0000
,
1000
0010
0001
0010
0100
0000
0001
0010
,
1000
0010
0100
0000
1000
0001
0001
0100
,
1000
0100
0001
1000
1000
0100
0001
0100
,
0020
0000
0000
0000
,
0000
0000
0000
0000
,
0000
0000
0000
0000
,
0000
0000
0000
0000
0000
0000
0000
0030
;

//--------------- dance-single - eataninja ----------------
#NOTEDATA:;
#STEPSTYPE:dance-single;
#DESCRIPTION:eataninja;
#DIFFICULTY:Hard;
#METER:14;
#RADARVALUES:0,0,0,0,0;
#NOTES:
0000
0000
0000
0000
,
0000
0000
0000
0000
,
0000
0000
0000
0000
,
0000
0000
0000
0000
,
0000
0000
0000
0000
,
0000
0000
0000
0000
,
1000
0000
0001
0000
0100
0001
0000
0100
0000
0000
0010
0000
1000
0010
0000
1000
,
0000
0000
0001
0000
0010
0001
0000
0010
0000
0000
0100
0000
0100
0000
1000
0000
,
0001
0000
1000
0000
0010
1000
0000
0010
0000
0000
1000
0000
0001
1000
0000
0001
,
0000
0000
0010
0000
0001
0010
0000
0001
0000
0000
0010
0000
0010
0000
0100
0000
,
1000
0000
0001
0000
0100
0001
0000
0100
0000
0000
0010
0000
0100
0010
0000
0100
,
0000
0000
0010
0000
1000
0010
0000
1000
0000
0000
0001
0000
0001
0000
0001
0000
,
0010
0000
0100
0000
1000
0100
0000
1000
0000
0000
0001
0000
1000
0000
0010
0000
,
0101
0101
0000
0000
0000
1000
1000
1000
,
0001
0000
0010
0000
0100
0000
1000
0001
0000
1000
0001
0000
0100
0000
1000
0100
,
0000
1000
0100
0000
0010
0000
1000
0001
0000
1000
0001
0000
0010
0000
0010
0000
,
0000
0000
0100
0000
0010
0000
0001
1000
0000
0001
1000
0000
0100
0000
0001
0100
,
0000
0001
0100
0000
0010
0000
0001
0000
0100
0000
0010
0000
0100
0000
0001
0000
,
0000
0000
1000
0000
0010
0000
1000
0001
0000
1000
0001
0000
0010
0000
1000
0010
,
0000
1000
0010
0000
0100
0000
0010
0001
0000
0010
0001
0000
1000
0000
1000
0000
,
0000
0000
0010
0000
0100
0000
0001
1000
0000
0010
1000
0000
0001
0000
0010
0000
,
0100
0001
1000
0010
0100
1000
0001
0100
,
0000
0000
0010
0000
0000
0010
0000
0000
1000
0000
0000
1000
0000
0000
0001
0000
,
0000
0001
0000
0000
0010
0000
0000
0010
0000
0000
0100
0000
0000
0100
0000
0000
,
1000
0000
0000
1000
0000
0000
1010
0000
0000
1010
0000
0000
0011
0000
0000
0011
,
0000
0000
1001
0000
0000
0000
0110
0000
0000
0000
0001
0000
0000
0001
0000
0000
,
1000
0000
0000
1000
0000
0000
0100
0000
0000
0100
0000
0000
0010
0000
0000
0010
,
0000
0000
0011
0000
0000
0011
0000
0000
0101
0000
0000
0101
0000
0000
1100
0000
,
0000
1100
0000
0000
1010
0000
0000
1010
0000
0000
0110
0000
0000
0000
1001
0000
,
0000
0000
1000
0100
0000
1000
0000
0000
0001
1000
0000
0001
0000
0000
0010
0001
,
0000
0010
0000
0000
0100
1000
0000
0100
0000
0000
1000
0010
0000
1000
0000
0000
,
0010
0100
0000
0010
0000
0000
0100
0001
0000
0101
0000
0000
1000
0001
0000
1001
,
0000
0000
0011
0000
0000
0000
1100
0000
0000
0000
0100
0010
0000
0100
0000
0000
,
0010
0001
0000
0010
0000
0000
0001
1000
0000
0001
0000
0000
1000
0010
0000
1000
,
0000
0000
0001
0100
0000
0101
0000
0000
1000
0010
0000
1010
0000
0000
0001
0010
,
0000
0011
0000
0000
1000
0100
0000
1100
0000
0000
0110
0000
0000
0000
2002
0000
,
0000
0000
0000
0000
0000
0000
0000
3003
,
1000
0000
0001
0000
0001
0000
0100
0010
0000
0100
0001
0000
0001
0000
1000
0010
,
0000
1000
0100
0000
0100
0000
0010
0001
0000
0010
0100
0000
0100
0000
1000
0000
,
0001
0000
0100
0000
0100
0000
0010
1000
0000
0010
0100
0000
0100
0000
0001
1000
,
0000
0001
0010
0000
0010
0000
0100
1000
0000
0001
1000
0000
1000
0000
0010
0000
,
0100
0000
0001
0000
0001
0000
0100
0010
0000
0100
1000
0000
1000
0000
0100
0010
,
0000
0100
0001
0000
0001
0000
1000
0100
0000
1000
0001
0000
0001
0000
0010
0000
,
0100
0000
0001
0000
0001
0000
0100
0010
0000
0100
1000
0000
0001
0000
0100
0000
,
1010
1010
0000
0000
0000
0001
0001
0001
,
1000
0000
0100
0000
0001
0000
0100
0010
0100
0000
0010
0000
0001
0000
1000
0010
,
0100
0000
1000
0000
0100
0000
0010
0100
0010
0000
1000
0000
1000
0000
0001
0000
,
0010
0000
0100
0000
1000
0000
0010
0100
0010
0000
0001
0000
0010
0000
0100
0010
,
1000
0001
0010
0100
0001
0100
1000
0010
,
0100
0000
0001
0000
1000
0000
0010
1000
0010
0000
0100
0000
0001
0000
0010
0100
,
1000
0000
0001
0000
0010
0000
0100
0010
0100
0000
1000
0000
0001
0000
0100
0000
,
0010
0000
0100
0000
0001
0000
0010
0001
0010
0000
0100
0000
1000
0000
0001
0100
,
0010
0001
1000
0100
0010
1000
0001
0010
,
0200
0001
0000
0301
,
0200
1000
0000
1300
,
0020
0001
0000
0031
,
0020
0100
0001
1030
,
0110
0010
1000
0000
0001
0010
0100
0000
,
0110
0010
0001
0000
1000
0010
0100
0000
,
0101
0001
1000
0000
0101
0001
1000
0000
,
0001
0010
1000
0010
0100
0010
0001
0000
,
1000
0000
0010
0000
0100
0000
0010
0100
0010
0000
1000
0000
0001
0000
0010
0000
,
0100
0000
0010
0100
0010
0000
0001
0000
1000
0000
0010
0000
0100
0000
0001
0100
,
0001
0000
1000
0000
0001
0000
0010
0000
0100
0000
1000
0100
1000
0000
0001
0000
,
1000
0000
0010
0000
0001
0000
0010
0100
0010
0000
1000
0000
0001
0000
0010
0000
,
1000
0000
0010
0100
0010
0000
0001
0000
1000
0010
1000
0000
0001
0000
1000
0010
,
0100
0000
0001
0000
1000
0100
1000
0000
0001
0000
1000
0100
0010
0000
0001
0000
,
0200
0000
0000
0000
,
0000
0000
0000
0000
,
0000
0000
0000
0000
,
0000
0000
0000
0000
0000
0000
0000
0300
;
