#TITLE:Bluey Theme Tune;
#SUBTITLE:(Instrument Parade);
#ARTIST:Joff Bush;
#TITLETRANSLIT:;
#SUBTITLETRANSLIT:;
#ARTISTTRANSLIT:;
#GENRE:;
#CREDIT:;
#BANNER:banner.png;
#BACKGROUND:bg.png;
#LYRICSPATH:;
#CDTITLE:;
#MUSIC:Bluey Theme Tune.ogg;
#OFFSET:-0.384000;
#SAMPLESTART:17.521698;
#SAMPLELENGTH:11.657143;
#SELECTABLE:YES;
#BPMS:0.000000=175.000000
;
#STOPS:
;
#BGCHANGES:;
#KEYSOUNDS:;
#ATTACKS:;

//---------------dance-single - DS FS XO----------------
#NOTES:
     dance-single:
     :
     Challenge:
     14:
     0.619184,0.823957,0.247674,0.681103,0.314015,490.000000,462.000000,28.000000,77.000000,21.000000,0.000000,0.619184,0.823957,0.247674,0.681103,0.314015,490.000000,462.000000,28.000000,77.000000,21.000000,0.000000:
0000
0000
0000
0000
,
0000
0000
0000
0000
,
0000
0000
0000
0000
,
0000
0000
0000
0000
,
1000
0000
0100
00M0
0100
0000
0002
0000
0000
0000
0100
0000
0000
0000
2003
0000
,
0000
0000
0000
0000
0010
0000
0000
0000
3001
0000
0010
0100
1000
0000
0000
0000
,
0001
0000
0100
00M0
0100
0000
2000
0000
0000
0000
0100
0000
0000
0000
3001
0000
,
0100
0010
1010
0000
0000
0000
0000
0000
,
0000
0000
1001
0000
1000
0010
0000
0100
,
0001
0000
1000
0100
0001
0000
0100
0000
,
1000
0001
0100
0000
0001
0010
0000
0100
,
1000
0000
0001
0100
1000
0000
0000
0000
,
0000
0000
0000
0000
1010
0010
0100
0002
,
0000
0103
0000
210M
0000
0000
3010
0000
,
M012
0000
0000
0000
2003
0000
0000
0000
3001
0000
0100
00M0
0100
0000
2000
0000
,
0000
0100
0000
3001
0100
0010
1000
0000
,
0000
0000
0000
0000
0000
0000
0011
0010
,
0100
2000
0000
3100
0000
M102
0000
0000
,
0013
0000
0000
101M
0000
0000
0001
0000
0000
1000
0100
1000
,
0001
0100
0001
1000
0010
1000
0001
0010
0001
1000
0100
0010
,
0001
2002
0000
3003
,
1000
0100
1000
0001
0100
0001
0010
0000
,
0100
1000
0001
0100
1000
0000
1000
0100
,
0001
1000
0001
0000
1000
0100
1000
0000
0001
0010
0001
0000
1000
0001
1000
0001
,
1000
0100
0001
0000
0001
0100
1000
0000
,
0001
0100
0010
1000
0100
0010
0001
1000
,
0100
00M0
0100
0000
0001
0000
0100
0000
0020
0000
0000
0000
1030
0000
0001
0000
,
1000
0000
0100
00M0
0100
0000
0002
0000
0000
0000
0100
0000
0000
0000
1003
0000
,
0100
0010
0001
0000
2002
0000
0000
0000
,
3003
0000
0000
0000
1000
0000
0100
00M0
0100
0000
0002
0000
0000
0000
0100
0000
,
0000
0000
2003
0000
0000
0000
0000
3001
0010
0000
0000
0000
0100
0000
0000
0100
,
1000
0000
0000
0000
0001
0000
0100
00M0
0100
0000
2000
0000
0000
0000
0100
0000
,
0000
0000
3002
0000
0000
0000
0000
0103
0040
0000
0000
0000
0030
0000
0000
0000
,
1000
0001
1000
0001
1000
0000
0100
0000
1000
0000
0001
0000
0100
0000
0001
0000
,
2000
0000
3001
0100
1000
0100
0002
0000
,
1003
0100
0010
0001
0100
0001
1000
0200
,
0000
1300
0100
0001
0100
2000
0000
0000
,
3001
1000
0001
1000
0001
0000
0100
00M0
0100
0000
1000
0200
0010
0000
0000
0000
,
0000
0000
1300
0001
1000
0000
0100
00M0
0100
0000
0001
0200
0010
0000
0000
0000
,
0000
0000
0000
0000
0000
0000
0301
0000
0000
0100
0000
0000
0001
0000
0000
0000
0000
0000
1000
0000
0000
0100
0000
0000
1000
0000
0000
0000
0000
0000
0010
0000
0000
0000
0000
0000
0100
0000
0000
0000
0001
0000
0000
0000
0100
0000
0000
0000
,
0010
1000
0001
1000
0100
0010
0001
0000
0000
0000
0000
0000
,
2002
0000
3003
0000
1010
0010
0100
0002
,
0000
0100
0000
2003
0000
0000
0010
0000
,
3002
0000
0013
0000
0011
0010
0100
2000
,
0000
0000
0100
0000
0000
0000
3002
0000
0000
0000
1003
0000
0010
0M00
0010
0000
,
0001
1000
0001
0100
2000
0000
3100
0001
,
0000
1000
0100
0002
0000
0103
1000
0000
,
1001
0000
0002
0020
0030
2000
3000
0200
,
0300
2000
3003
1001
0000
1000
0100
0010
,
0001
0100
0001
2000
0000
3100
0001
0100
,
1000
0000
0100
00M0
0100
0000
0002
0000
0000
0000
0103
0000
0010
0000
2000
0000
,
0000
0000
3100
0000
0010
0000
0001
0000
1000
0000
0001
0000
0100
00M0
0100
0000
,
1000
0100
0002
0000
0103
1000
0002
0000
,
1003
0000
0000
0000
0100
0000
0000
0000
1000
0000
0000
0000
0001
0000
0000
0000
0100
0000
0000
0000
0001
0000
0000
0000
1000
0000
0000
0000
0010
0000
0000
0000
0100
0000
0000
0000
0001
0000
0000
0000
0000
0000
0100
0000
0000
00M0
0000
0000
,
0100
2000
0000
0100
0000
3002
0000
0000
,
0010
0000
0000
0000
1003
0000
0000
0000
0001
0100
0001
0000
1000
0100
1000
0000
,
0001
2000
0000
0100
0000
0002
0000
3003
,
0220
0000
0000
0000
0000
0330
1001
0000
,
1000
0010
0000
0100
0001
2000
0000
3200
,
0000
0000
0310
0000
0001
0000
0000
0000
1000
0000
0001
0100
0001
0100
0001
0000
,
1000
0100
0010
0001
0100
0001
1000
0020
,
0000
0000
0230
0000
0000
0000
0300
0001
1000
0000
0001
0010
0001
0000
1000
0100
,
1000
0000
0001
0100
0001
0000
1000
0010
1000
0000
0001
0010
0100
0000
1000
0000
,
0001
0000
0100
0000
0010
0000
1000
0000
0000
0100
0000
0000
1000
0000
0000
0002
0000
0000
0000
0000
0000
0103
0000
0000
,
1000
0100
0010
0100
0001
1000
0100
1000
,
2002
0000
0000
0000
3003
0000
0011
0010
,
0100
2000
0000
0100
0000
3002
0000
0000
,
0010
0000
0000
0000
1003
0010
0100
0000
0001
0000
0000
0000
1010
0000
0010
0000
,
0100
0002
0000
0100
0000
2003
0000
0000
,
3001
0000
1002
0000
0000
0203
0000
1300
,
0100
0002
0000
1003
0100
0001
0100
0010
,
0001
0000
1001
0000
1000
0010
0000
0100
,
0001
0100
1000
0100
0001
0100
0010
2000
,
0000
0000
3000
0000
2002
0000
0000
0000
3003
0000
0000
0000
0001
0000
0100
00M0
,
0100
2000
0000
0100
0000
3002
0000
0000
,
0100
0000
0000
0000
1000
0000
0000
0000
0010
0000
0000
0000
1003
0000
0100
00M0
,
0100
0002
0000
0100
0000
2000
0000
3003
,
0220
0000
0000
0000
0330
0000
0000
0001
1000
0000
0001
0000
0011
0000
0010
0000
,
0100
2000
0000
3100
0000
M102
0000
0000
,
0013
0000
201M
0000
3001
0000
0011
0010
,
0100
0000
1000
0000
0100
0000
0001
0000
0100
0000
1000
0000
0001
1000
0001
1000
,
0001
0000
0000
0000
;

//---------------dance-single - ----------------
#NOTES:
     dance-single:
     :
     Hard:
     11:
     0.521884,0.609012,0.123837,0.840321,0.039805,413.000000,399.000000,14.000000,95.000000,0.000000,0.000000,0.521884,0.609012,0.123837,0.840321,0.039805,413.000000,399.000000,14.000000,95.000000,0.000000,0.000000:
0000
0000
0000
0000
,
0000
0000
0000
0000
,
0000
0000
0000
0000
,
0000
0000
0000
0000
,
1000
0100
0010
0001
0000
0010
0000
2000
,
0000
0000
3010
0000
0001
1000
0020
0000
,
1030
0010
0100
0002
0000
0203
0000
1300
,
0100
0001
1000
0000
0000
0000
0000
0000
,
0000
0000
1001
0000
0000
0001
0000
0000
,
0001
0000
1000
0100
0010
0000
0001
0000
,
0100
0010
1000
0000
0000
1000
0000
0000
,
1000
0000
0001
1000
0001
0000
0000
0000
,
0000
0000
0000
0000
0001
0100
0010
2000
,
0000
3020
0000
0032
0000
0000
0013
0000
,
1000
0001
0020
0000
0031
0010
0100
2000
,
0000
3200
0000
0302
0000
0103
1000
0000
,
0000
0000
0000
0000
0000
0000
0001
0100
,
0010
2000
0000
3020
0000
0032
0000
0000
,
0013
0000
0000
1000
0000
0000
0001
0000
0000
1000
0000
1000
,
0100
0000
0100
0010
0000
0010
0001
0000
0001
1000
0000
0000
,
0110
1001
0000
0000
,
0110
0000
0001
1000
0000
0001
1000
0000
,
0000
0000
0100
0010
0001
0000
0100
0010
,
1000
0001
1000
0001
0010
0100
0010
0100
,
2000
3200
0302
0203
,
1300
0100
1000
0001
0100
0001
0010
0100
,
1000
0100
0010
0001
2000
0000
3010
0100
,
0001
0100
0010
2000
0000
3200
0000
0302
,
0000
0103
1000
0000
2002
0000
0000
0000
,
3003
0000
0001
0100
0010
2000
0000
3020
,
0000
0032
0000
0000
0023
0000
1030
0001
,
0010
0000
0001
0010
0100
2000
0000
3200
,
0000
0302
0000
0103
0010
0001
1000
0000
,
0001
0100
0020
0000
1030
0001
0000
1000
,
0001
0000
0010
0100
1000
0100
0010
0000
,
0001
0100
0001
0000
1000
0000
0100
0001
,
0000
0100
1000
0100
0010
0001
0000
0000
,
1000
0010
0001
0010
1000
0010
0002
0000
,
0013
0100
1000
0100
0001
0100
2000
0000
,
3100
0000
0000
0010
0000
0000
1000
0000
0000
0001
0000
0000
0010
0000
0000
1000
0000
0000
0010
0000
0000
0000
0001
0000
,
1000
0000
1000
0001
0000
0000
1001
0000
0000
0000
0000
0000
,
0220
0000
0330
0000
1000
0100
0010
0002
,
0000
0023
0000
2030
0000
0000
3020
0000
,
0031
1000
0010
0000
1000
0010
0100
0002
,
0000
0203
0000
2300
0000
0000
3100
0001
,
0100
0010
1000
0010
0001
0010
0100
0002
,
0000
1003
0100
0020
0000
0000
0031
0000
,
1001
0000
1000
0200
0000
0320
0000
0032
,
0000
0203
0000
0302
0000
2003
0000
3020
,
0000
0230
0000
0302
0000
1003
0100
0010
,
0100
1000
0010
0200
0000
0000
0301
1000
,
0000
0100
1000
0010
0000
0100
0001
1000
,
0001
0010
2000
0000
3020
0000
0031
0000
,
1000
0000
0000
0000
1000
0000
0010
0000
0000
0000
0010
0000
0100
0000
0000
0000
0100
0000
0001
0000
0000
0100
0000
0000
,
0010
2000
0000
3020
0000
0032
0000
0000
,
0013
0000
1000
0000
0001
0010
0001
0010
,
0100
2000
0000
3200
0000
0302
0000
0003
,
0220
0000
0000
0000
0000
0330
1000
0000
,
0001
1000
0000
0001
1000
0020
0000
0230
,
0000
0301
1000
0000
0100
0010
0001
0100
,
0001
1000
0100
1000
0010
0100
0001
2000
,
0000
3200
0000
0000
1300
0100
0001
1000
,
0010
0001
1000
0010
0001
1000
0100
0001
,
0100
0010
1000
0001
0010
0200
0000
2300
,
0000
0000
3002
0000
0103
0010
2000
0000
,
0002
0000
0000
0000
3003
0000
1000
0100
,
0010
0002
0000
0023
0000
2030
0000
0000
,
3010
0000
0001
1000
0020
0000
1030
0010
,
0100
0002
0000
0203
0000
2300
0000
0000
,
3100
0000
0110
0000
0000
0002
0000
1003
,
0100
0010
0000
0001
0100
0010
1000
0100
,
1000
0000
1001
0000
0001
0100
0000
0001
,
0010
0100
1000
1000
0001
0001
0100
0010
,
1000
0000
1001
0000
0000
0000
0001
0010
,
0100
2000
0000
3200
0000
0302
0000
0000
,
0203
0000
0320
0000
2030
0000
3010
0001
,
0010
0200
0000
2300
0000
3002
0000
0003
,
1001
0000
0000
0000
1000
0001
1000
0100
,
0010
0002
0000
0023
0000
2030
0000
0000
,
3020
0000
0031
1000
0010
0000
1000
0010
,
0100
0001
0010
0100
1000
0010
0100
0001
,
1001
0000
0000
0000
;

//---------------dance-single - ----------------
#NOTES:
     dance-single:
     :
     Medium:
     9:
     0.424583,0.573188,0.114991,0.283056,0.000000,336.000000,323.000000,13.000000,32.000000,0.000000,0.000000,0.424583,0.573188,0.114991,0.283056,0.000000,336.000000,323.000000,13.000000,32.000000,0.000000,0.000000:
// measure 0
0000
0000
0000
0000
,  // measure 1
0000
0000
0000
0000
,  // measure 2
0000
0000
0000
0000
,  // measure 3
0000
0000
0000
0000
,  // measure 4
1000
0000
0100
1000
0000
1000
0000
0002
,  // measure 5
0000
0103
0010
1000
,  // measure 6
0001
0000
0100
0001
0000
0001
0000
2000
,  // measure 7
0000
3100
0000
0000
,  // measure 8
0000
0000
1001
0000
0000
0001
0000
0000
,  // measure 9
0001
0000
0100
0010
,  // measure 10
0000
0000
1000
0000
0000
1000
0000
0000
,  // measure 11
1000
0100
0010
0000
,  // measure 12
0000
0000
0000
0000
1001
0000
1000
0100
,  // measure 13
0000
0100
0000
0020
0000
0000
0031
0000
,  // measure 14
0100
0000
0010
0000
1001
0000
0001
0100
,  // measure 15
0000
0100
0000
0020
0000
0000
1030
0000
,  // measure 16
0000
0000
0000
1001
,  // measure 17
0001
0010
0000
0010
0000
0200
0000
0000
,  // measure 18
1300
0000
0001
0000
1000
0000
0010
0100
,  // measure 19
0010
0100
0001
1000
0001
1000
0100
0010
,  // measure 20
0100
1001
0000
0000
,  // measure 21
0001
0000
0100
0001
0000
0000
0001
0000
,  // measure 22
0000
0000
1000
0100
1000
0000
0001
0100
,  // measure 23
0001
0000
0010
0000
0100
0000
1000
0001
,  // measure 24
1000
0010
0100
0001
,  // measure 25
1000
0000
0100
0010
0100
0000
1000
0010
,  // measure 26
1000
0000
0001
0000
0100
0000
0001
0010
,  // measure 27
0001
0000
1000
0100
0000
0100
0000
0020
,  // measure 28
0000
0031
2002
0000
,  // measure 29
3003
0000
1000
0000
0010
0100
0000
0100
,  // measure 30
0000
0002
0000
0000
0013
0000
0100
0000
,  // measure 31
1000
0000
0001
0000
0010
0100
0000
0100
,  // measure 32
0000
2000
0000
0000
3001
1000
0001
0000
,  // measure 33
0100
0020
0000
0000
,  // measure 34
0000
0000
0000
1030
0001
1000
0001
0000
,  // measure 35
0010
0100
2000
0000
0000
0000
0000
3001
,  // measure 36
0000
0100
0010
0000
0100
0010
0000
0000
,  // measure 37
1000
0100
1000
0100
1000
0100
0010
0000
,  // measure 38
0001
0100
0001
0100
0001
0100
0010
0000
,  // measure 39
1000
0001
1000
0000
0100
0000
0010
0001
,  // measure 40
1000
0001
1000
0001
1000
0000
0000
0000
,  // measure 41
1001
0000
0000
0000
0001
0000
0100
0010
,  // measure 42
0000
0010
0000
2000
0000
0000
3001
0000
,  // measure 43
0100
0000
0010
0000
1000
0000
0100
0010
,  // measure 44
0000
0010
0000
0002
0000
0000
1003
0010
,  // measure 45
1000
0010
0100
0001
2000
0000
0000
3100
,  // measure 46
0000
0010
0000
0002
0000
0000
0000
0000
,  // measure 47
1003
0000
0000
0010
0000
0010
0000
0100
,  // measure 48
0000
0100
0000
0001
0000
1000
0000
0001
,  // measure 49
0000
1000
0000
0100
0000
0010
0001
0000
,  // measure 50
1000
0000
0010
0100
0000
0010
0100
0000
,  // measure 51
0001
1000
0100
0010
,  // measure 52
0001
1000
0001
0000
0200
0000
0020
0000
,  // measure 53
0000
0000
0330
1001
,  // measure 54
1000
0100
0000
0010
0000
0002
0000
0000
,  // measure 55
0103
0010
1000
1001
,  // measure 56
0001
0100
0000
0010
0000
2000
0000
3000
,  // measure 57
2002
0000
3003
0220
,  // measure 58
0000
0000
0000
0330
0000
1000
0000
0001
,  // measure 59
0000
1000
0001
0000
0100
0010
1000
0000
,  // measure 60
0001
0010
0001
0000
1000
0100
0010
0001
,  // measure 61
0000
1000
0000
0010
0100
0001
0010
0001
,  // measure 62
0100
0010
1000
0100
1000
0001
0100
0000
,  // measure 63
0010
1000
0010
1000
0001
0010
0000
0100
,  // measure 64
1000
0000
0001
0000
0100
0010
0100
0000
,  // measure 65
0002
2000
0000
0000
0000
3003
1000
0000
,  // measure 66
0001
0100
0000
0100
0000
0020
0000
0000
,  // measure 67
1030
0100
1000
0001
,  // measure 68
1000
0100
0000
0100
0000
0020
0000
0000
,  // measure 69
0031
0000
1001
0000
0000
1000
0000
0001
,  // measure 70
0100
0001
0000
1000
0100
1000
0100
0000
,  // measure 71
0010
0000
0001
0000
1000
0010
0000
1000
,  // measure 72
0010
0000
0100
0001
1000
0000
0100
0020
,  // measure 73
0000
0031
0000
1000
,  // measure 74
0010
0100
0000
0100
0000
0002
0000
0000
,  // measure 75
0013
0100
1000
0001
,  // measure 76
0010
0100
0000
0100
0000
2000
0000
0000
,  // measure 77
3001
0000
1001
0000
0000
0000
1000
0100
,  // measure 78
1000
0001
0000
0001
0000
0200
0000
0000
,  // measure 79
0310
0000
1000
0000
1000
0000
0001
0100
,  // measure 80
0001
1000
0000
1000
0000
0100
0010
0001
,  // measure 81
1000
0000
0000
0000
;
