#VERSION:0.83;
#TITLE:Bling-Bang-Bang-Born;
#SUBTITLE:;
#ARTIST:Creepy Nuts;
#TITLETRANSLIT:;
#SUBTITLETRANSLIT:;
#ARTISTTRANSLIT:;
#GENRE:;
#CREDIT:;
#MUSIC:Bling-Bang-Bang-Born.ogg;
#BANNER:;
#BACKGROUND:;
#JACKET:;
#DISCIMAGE:;
#CDIMAGE:;
#SELECTABLE:YES;
#LYRICSPATH:;
#CDTITLE:;
#SAMPLESTART:62.103;
#SAMPLELENGTH:12.229;
#OFFSET:1.528;
#BPMS:0.000=157.000;
#STOPS:;
#WARPS:374.000=42.000;
#DELAYS:;
#SPEEDS:;
#SCROLLS:;
#TICKCOUNTS:;
#TIMESIGNATURES:;
#LABELS:;
#COMBOS:;
#FAKES:374.000=999.000;
#BGCHANGES:;
#FGCHANGES:0=lua=1.000=0=0=1=====;
#ATTACKS:;

//---------------dance-single - XO DS- FS- JU----------------
#NOTEDATA:;
#CHARTNAME:;
#CHARTSTYLE:;
#CREDIT:Talkion;
#MUSIC:Bling-Bang-Bang-Born [TV Size].ogg;
#STEPSTYPE:dance-single;
#DESCRIPTION:XO DS- FS- JU-;
#DIFFICULTY:Hard;
#METER:13;
#METERF:13;
#RADARVALUES:0,0,0,0,0;
#BPMS:0.000=157.000;
#WARPS:238.000=42.000;
#FAKES:238.000=42.000;
#NOTES:
// measure 0
0000
0000
0000
0000
,  // measure 1
0000
0000
0000
0000
,  // measure 2
1000
0000
0100
0000
1000
0000
0100
0000
0020
0000
0030
0010
0001
0000
1000
0000
,  // measure 3
0010
0000
0100
0000
0010
0000
0100
0000
0002
0000
0003
0001
1000
0000
0100
0000
,  // measure 4
0010
0000
0001
0000
0100
0000
0010
0000
2000
0000
3000
1000
0001
0000
0010
0000
,  // measure 5
0100
0000
1000
0000
0010
0000
0100
0000
0002
0000
0003
0001
2000
0000
0100
0000
,  // measure 6
3001
0000
0000
0000
0010
0000
0100
0000
1000
0001
0000
1000
0002
0000
0100
0000
,  // measure 7
1003
0000
0000
0000
0010
0000
0100
0000
0001
1000
0000
0001
1000
0000
0100
0000
,  // measure 8
0010
0001
0010
0001
0100
0010
1000
0100
,  // measure 9
1001
0000
0000
0000
,  // measure 10
1020
0000
0000
1000
0000
0000
0130
0000
0000
0000
0001
0000
0001
0000
0010
0000
,  // measure 11
0200
0000
0000
1000
0000
0000
0310
0000
0000
0000
0001
0000
0001
0000
0100
0000
,  // measure 12
0010
0000
0100
0000
0001
1000
0002
0000
0000
0000
0013
0000
0001
1000
0001
0000
,  // measure 13
0100
0010
1000
0010
0100
0001
0020
0000
,  // measure 14
0130
0000
0000
1000
0000
0000
0010
0M00
0010
0000
0001
0000
1000
0000
0100
0000
,  // measure 15
0110
0000
0000
0010
0000
0000
0100
M000
0100
0000
0001
0000
1000
0000
0010
0000
,  // measure 16
0100
0000
0000
0001
0000
0000
0010
0M00
0010
0000
1000
0000
0001
0000
0100
0000
,  // measure 17
0110
0000
0000
0010
0000
0000
0100
000M
0100
0000
1000
0000
0001
0000
0010
0000
,  // measure 18
0100
0010
0001
1000
0020
0100
2030
3001
,  // measure 19
0010
0001
1000
0010
2000
0100
3002
1003
,  // measure 20
0010
0100
0001
1000
0200
0010
0310
0001
,  // measure 21
0100
0001
1000
0100
1000
0010
0100
0001
,  // measure 22
0010
0100
0001
0100
1000
0000
1010
0000
,  // measure 23
0000
0000
0011
0000
0000
0000
1010
0010
,  // measure 24
0200
0000
0000
1000
0000
0000
0010
0000
0000
0302
0000
0000
1003
0000
0100
0000
,  // measure 25
0020
0000
0000
1000
0000
0000
0032
0000
0010
0000
0203
0000
0320
0000
1030
0000
,  // measure 26
0001
0010
0001
0100
0010
0001
0010
0100
,  // measure 27
0001
1000
0100
1000
0020
0100
0130
0001
,  // measure 28
1000
0010
1000
0100
0010
1000
0010
0100
,  // measure 29
1000
0001
0100
0001
0020
0100
0130
1000
,  // measure 30
0001
0010
0001
0100
0010
1000
0100
1000
,  // measure 31
0010
0000
0100
0000
1000
0000
0100
0000
0001
0000
0000
0001
0000
0000
0001
0000
,  // measure 32
1000
0100
0010
0100
1000
0010
0200
0010
,  // measure 33
0301
1000
0010
1000
0100
0000
2000
0000
,  // measure 34
3001
0100
0010
0100
0001
0010
0100
1000
,  // measure 35
0100
0010
0001
0000
1001
0000
1010
0010
,  // measure 36
0100
0000
0011
0010
0100
0000
1010
0000
,  // measure 37
0120
0000
0031
0010
2000
0000
3001
0000
,  // measure 38
1000
0100
0010
0100
1000
0010
0100
0001
,  // measure 39
0100
0010
1000
0000
1001
0000
0011
0010
,  // measure 40
0100
0000
0000
0000
1010
0000
0010
0000
0100
0000
0000
0001
0000
0000
0010
0000
,  // measure 41
0110
0000
0000
0000
0000
1000
0010
0100
,  // measure 42
0201
0000
0000
0310
0000
0000
0100
000M
1200
0000
0000
0310
0000
0000
0100
M000
,  // measure 43
0201
0000
0000
0310
0000
0000
0100
0000
0002
0000
0010
0000
1003
0000
0001
0000
,  // measure 44
0021
0000
0000
0130
0000
0000
0010
000M
1020
0000
0000
0130
0000
0000
0010
M000
,  // measure 45
0021
0000
0000
0130
0000
0000
0010
0000
0002
0000
0100
0000
1003
0000
0001
0000
,  // measure 46
0201
0000
0000
0310
0000
0000
0100
000M
1200
0000
0000
0310
0000
0000
0100
M000
,  // measure 47
0201
0000
0000
0310
0000
0000
0100
0000
0001
0000
0000
0000
0011
0000
0010
0000
,  // measure 48
0100
0000
0000
0000
1010
0000
0010
0000
0100
0000
0000
0001
0010
0000
0010
0000
,  // measure 49
0200
0000
1300
0000
0100
0010
0010
0000
,  // measure 50
0011
0000
0000
0000
1010
0000
0000
0000
0010
0100
000M
0100
0000
1000
0001
0000
,  // measure 51
1000
0100
0010
0100
0001
0110
1001
0000
,  // measure 52
1010
0000
0000
0000
0011
0000
0000
0000
0010
0100
M000
0100
0000
0001
1000
0000
,  // measure 53
0001
0100
0010
0100
2000
0100
3100
0000
,  // measure 54
0101
0000
0000
0000
1100
0000
0000
0000
0100
0010
000M
0010
0000
1000
0001
0000
,  // measure 55
1000
0010
0100
0010
0001
0110
1001
0000
,  // measure 56
1100
0000
0000
0000
0101
0000
0000
0000
0100
0010
M000
0010
0000
0001
1000
0000
,  // measure 57
0001
0010
0100
0010
2000
0010
3010
0000
,  // measure 58
0001
1000
0001
1000
0001
1000
0001
1000
,  // measure 59
0001
1000
0001
1000
0001
1000
0001
1000
,  // measure 60
0001
1000
0001
1000
0001
1000
0001
1000
,  // measure 61
0001
1000
0001
1000
0001
1000
0001
1000
,  // measure 62
0001
1000
0001
1000
0001
1000
0001
1000
,  // measure 63
0001
1000
0001
1000
0001
1000
0001
1000
,  // measure 64
0001
1000
0001
1000
0001
1000
0001
1000
,  // measure 65
0001
1000
0001
1000
0001
1000
0001
1000
,  // measure 66
0001
1000
0001
1000
0001
1000
0001
1000
,  // measure 67
0001
1000
0001
1000
0001
1000
0001
1000
,  // measure 68
0000
0000
0000
0000
,  // measure 69
0000
0000
0000
0000
,  // measure 70
000M
0000
0000
0000
;

//---------------dance-single - FS XO DS- JU----------------
#NOTEDATA:;
#CHARTNAME:;
#CHARTSTYLE:;
#CREDIT:Talkion;
#STEPSTYPE:dance-single;
#DESCRIPTION:FS XO DS- JU-;
#DIFFICULTY:Challenge;
#METER:17;
#METERF:17;
#RADARVALUES:0,0,0,0,0;
#NOTES:
// measure 0
0000
0000
0000
0000
,  // measure 1
0000
0000
0000
0000
,  // measure 2
1100
0000
0001
0000
0101
0000
1000
0000
0001
0010
0100
0010
0001
0000
1000
0000
,  // measure 3
1010
0000
0001
0000
0011
0000
1000
0010
0100
0001
0100
0010
1000
0000
0001
0000
,  // measure 4
0011
0000
0010
0100
1000
0100
0010
0000
0001
1000
0010
1000
0001
0000
0010
0001
,  // measure 5
0100
0000
0001
0000
1000
0010
0100
0000
0001
1000
0100
1000
0001
0000
0100
0000
,  // measure 6
0011
0000
0000
0000
0001
0000
0010
0001
1000
0010
0100
0001
1000
0000
0100
0000
,  // measure 7
1010
0000
0000
0000
1000
0000
0010
1000
0001
0010
0100
1000
0001
0000
0100
0000
,  // measure 8
0010
0100
0001
0000
0010
0100
1000
0000
0010
0100
0010
1000
0100
0000
1000
0000
,  // measure 9
1001
0000
0001
0000
0010
0100
0010
0001
0100
0000
1000
0100
0010
1000
0001
0000
,  // measure 10
0021
0000
0000
0001
0000
0000
0130
0000
0000
0000
1000
0001
1000
0000
0010
0000
,  // measure 11
1020
0000
0000
1000
0000
0000
0130
0000
0000
0000
0001
1000
0001
0000
0010
0000
,  // measure 12
0001
0000
0100
M000
0100
0010
0002
0000
0000
0000
0103
M000
0100
0010
0001
0000
,  // measure 13
2000
3000
0000
0000
0001
0000
0000
0000
0020
0000
0030
0000
0001
0000
0000
0000
2000
0000
0000
3000
0001
0000
0000
0000
0200
0000
0000
0000
0310
0000
0000
0000
,  // measure 14
1020
0000
0000
0130
0000
0000
0010
M000
0010
0000
0001
1000
0001
0000
0100
0000
,  // measure 15
0101
0000
0000
0110
0000
0000
0100
000M
0100
0000
1000
0001
1000
0000
0100
0000
,  // measure 16
1200
0000
0000
0310
0000
0000
0100
M000
0100
0000
0001
1000
0001
0000
0010
0000
,  // measure 17
0011
0000
0000
0110
0000
0000
0010
000M
0010
0000
1000
0010
0100
0000
0001
1000
,  // measure 18
0001
0000
0010
0000
0100
0010
0001
0000
0002
0000
1000
0000
0103
0010
0100
0001
,  // measure 19
0010
0000
0100
0010
0100
1000
0010
0000
0020
0000
0100
0000
1030
0001
1000
0100
,  // measure 20
0010
0000
0001
1000
0001
0100
0010
0000
0020
0000
0100
0000
1030
0001
0100
0001
,  // measure 21
0010
0000
0001
1000
0100
1000
0010
0000
0020
0000
0100
0000
1030
0100
1000
0000
,  // measure 22
0001
0000
0000
0000
0010
0000
0000
0000
0100
0000
0001
0000
0100
0000
0000
0000
0010
0000
0000
0000
0000
0000
0010
0000
0004
0003
0000
0000
0000
0000
0000
0000
,  // measure 23
0000
0000
0000
0000
0000
0000
0000
0000
4000
3000
0000
0000
0000
0000
0000
0000
0000
0000
0000
0000
0000
0000
0000
0000
0004
0003
0100
0000
0010
0000
2000
0000
,  // measure 24
0100
0000
3002
0010
0000
2003
0010
0000
3002
0100
0000
1003
0100
0010
0100
2000
,  // measure 25
0010
0000
3002
0100
0000
2003
0100
0000
3020
0000
0100
0000
0032
0000
0013
0100
,  // measure 26
0001
0000
1000
0001
1000
0100
0010
0000
0010
0000
1000
0010
0100
0000
1000
0001
,  // measure 27
1000
0000
0010
0100
0001
0100
0010
0000
0020
0000
0001
0000
0130
0010
0100
0001
,  // measure 28
1000
0000
0100
0010
0001
0010
0100
0000
0100
0000
0001
0100
0010
0001
1000
0010
,  // measure 29
0100
0000
0001
1000
0001
0100
0010
0000
0020
0000
0001
0000
0130
0000
0010
0000
,  // measure 30
1000
0000
0001
1000
0001
0010
0100
0000
0100
0000
1000
0001
0100
0010
0100
0001
,  // measure 31
0010
0000
0001
0000
1000
0010
0200
0000
1000
0000
0000
0010
0000
0000
0301
0000
,  // measure 32
1001
0000
1000
0100
0010
0000
0100
0000
1001
0000
0001
0100
0010
0000
0100
0000
,  // measure 33
1001
0000
1000
0100
0010
0001
0100
0000
0110
0000
0000
0000
4000
0000
0000
0000
,  // measure 34
3100
0000
0010
0001
0010
0000
0100
0000
1000
0000
0010
0000
0100
0000
0010
0000
,  // measure 35
1000
0000
0100
0010
0100
0000
1000
0000
0001
0000
0000
0000
0102
0000
0100
0000
,  // measure 36
1003
0000
2100
0100
3001
0000
0101
0000
,  // measure 37
0120
0000
0001
0100
2030
0000
3001
0000
,  // measure 38
0010
0000
0100
1000
0100
0000
0010
0000
0001
0000
0100
0000
0010
0000
0100
0000
,  // measure 39
0001
0000
0010
0100
0010
0000
0001
0000
1000
0000
0000
0000
2010
0000
0010
0000
,  // measure 40
3001
0000
0000
0000
0012
0000
0010
0000
1003
0000
0000
0010
0100
0000
0100
0000
,  // measure 41
0001
0000
0000
0000
0000
1000
0100
0010
,  // measure 42
0014
0003
0000
0000
0000
0000
0010
0000
0100
0000
0000
0000
0010
0000
000M
0000
4010
3000
0000
0000
0000
0000
0010
0000
0100
0000
0000
0000
0010
0000
M000
0000
,  // measure 43
0014
0003
0000
0000
0000
0000
0010
0000
0100
0000
0000
0000
0010
0000
0000
0000
1000
0000
0000
0000
0010
0000
0100
0000
0010
0000
0000
0000
0001
0000
0000
0000
,  // measure 44
0104
0003
0000
0000
0000
0000
0100
0000
0010
0000
0000
0000
0100
0000
000M
0000
4100
3000
0000
0000
0000
0000
0100
0000
0010
0000
0000
0000
0100
0000
M000
0000
,  // measure 45
0104
0003
0000
0000
0000
0000
0100
0000
0010
0000
0000
0000
0100
0000
0000
0000
1000
0000
0000
0000
0100
0000
0010
0000
0100
0000
0000
0000
0001
0000
0000
0000
,  // measure 46
0014
0003
0000
0000
0000
0000
0010
0000
0100
0000
0000
0000
0010
0000
000M
0000
4010
3000
0000
0000
0000
0000
0010
0000
0100
0000
0000
0000
0010
0000
M000
0000
,  // measure 47
0014
0003
0000
0000
0000
0000
0010
0000
0100
0000
0000
0000
0010
0000
0000
0000
1000
0000
0000
0000
0000
0000
0000
0000
0012
0000
0000
0000
0010
0000
0000
0000
,  // measure 48
1003
0000
0000
0000
2010
0000
0010
0000
3001
0000
0000
0010
0100
0000
0100
0000
,  // measure 49
2000
0000
0000
0000
3001
0000
0000
0000
0100
0000
0010
1000
0010
0000
0100
0000
,  // measure 50
0001
1000
0001
1000
0001
1000
0001
1000
,  // measure 51
0001
0000
0000
1000
0000
0000
0001
0000
0000
1000
0000
0000
000M
0000
0000
0000
0000
0000
0100
0000
0010
0000
0100
0000
,  // measure 52
0000
0000
0000
0000
0000
0000
1000
0000
0000
0001
0000
0000
0100
0000
0000
0000
0020
0000
0000
0000
0100
0000
0000
0000
2030
0000
0000
0000
0000
0000
0000
0000
0000
0000
0000
0000
3100
0000
0000
0000
0020
0000
0000
0000
0100
0000
0000
0000
,  // measure 53
0032
0000
0000
0000
0000
0000
0000
0000
0000
0000
0000
0000
0000
0000
0000
0000
1003
0000
0000
0000
0000
0000
0000
0000
0020
0000
0000
0000
0000
0000
0000
0000
0000
0000
0000
0000
0000
0000
0000
0000
0130
0000
0000
0000
0000
0000
0000
0000
0004
0000
0000
0003
0000
0000
0000
0000
0000
0000
0000
0000
0000
0000
0000
0000
0000
0000
0000
0000
0000
0000
0000
0000
4000
0000
0000
3000
0000
0000
0000
0000
0000
0000
0000
0000
0000
0000
0000
0000
0000
0000
0000
0000
0000
0000
0000
0000
,  // measure 54
0010
0000
0000
0000
0000
0000
1000
0000
0000
0001
0000
0000
1000
0000
0000
0000
0200
0000
0000
0000
0010
0000
0000
0000
2300
0000
0000
0000
0000
0000
0000
0000
3001
0000
0000
0000
0200
0000
0000
0000
0000
0000
0000
0000
0310
0000
0000
0000
,  // measure 55
2000
0000
0000
0000
0000
0000
0000
0000
0000
0000
0000
0000
0000
0000
0000
0000
3001
0000
0000
0000
0000
0000
0000
0000
0010
0000
0000
0000
0000
0000
0000
0000
0100
0000
0000
0000
0000
0000
0000
0000
0010
0000
0000
0000
0000
0000
0000
0000
0004
0000
0000
0003
0000
0000
0000
0000
0000
0000
0000
0000
0000
0000
0000
0000
0000
0000
0000
0000
0000
0000
0000
0000
4000
0000
0000
3000
0000
0000
0000
0000
0000
0000
0000
0000
0000
0000
0000
0000
0000
0000
0000
0000
0000
0000
0000
0000
,  // measure 56
0010
0000
0100
0010
2000
0100
3002
0000
0013
0100
2000
0010
,  // measure 57
3002
0000
0000
0000
0000
0000
0000
0000
0000
0000
0000
0000
0000
0000
0000
0000
0000
0000
0000
0000
0000
0000
0000
0000
0203
0000
0000
0000
0000
0000
0000
0000
0000
0000
0000
0000
0000
0000
0000
0000
0310
0000
0000
0000
0000
0000
0000
0000
4000
0000
0000
3000
0000
0000
0000
0000
0000
0000
0000
0000
0000
0000
0000
0000
0000
0000
0000
0000
0000
0000
0000
0000
0004
0000
0000
0003
0000
0000
0000
0000
0000
0000
0000
0000
0000
0000
0000
0000
0000
0000
0000
0000
0000
0000
0000
0000
,  // measure 58
1000
0100
0010
0100
1000
0001
0400
0310
0100
1000
0000
0110
,  // measure 59
0000
0000
0000
0000
0000
0000
0000
0000
0000
0000
0000
0000
1000
0000
0000
0000
0000
0000
0001
0000
0000
0000
0000
0000
0010
0000
0000
0000
0000
0000
0000
0000
0100
0000
0000
0000
0000
0000
0000
0000
0010
0000
0000
0000
0000
0000
0000
0000
4000
0000
0000
3000
0000
0000
0000
0000
0000
0000
0000
0000
0000
0000
0000
0000
0000
0000
0000
0000
0000
0000
0000
0000
0004
0000
0000
0003
0000
0000
0000
0000
0000
0000
0000
0000
0000
0000
0000
0000
0000
0000
0000
0000
0000
0000
0000
0000
,  // measure 60
0200
0000
0000
0000
1300
0001
0000
0001
0100
0010
1000
0000
0011
0000
0000
0000
,  // measure 61
0001
0000
1000
0000
0010
0100
0010
0000
1000
0001
0010
0100
0010
0001
0100
0000
,  // measure 62
1001
0000
0000
0000
0001
0000
0010
0000
0100
0000
1000
0000
0010
0100
0010
0000
,  // measure 63
1000
0001
1000
0000
0100
0010
0000
0010
0002
0000
0100
0000
2003
0000
0100
0000
,  // measure 64
3001
0000
0000
0000
0001
0000
1000
0010
1000
0000
0100
0000
0010
0000
0001
0100
,  // measure 65
0001
0000
1000
0100
0010
0100
1000
0000
0001
0100
0010
0000
1000
0100
0010
0000
,  // measure 66
1001
0000
0000
0000
0101
0000
1100
0000
1000
0001
0010
0100
0001
0000
0100
1000
,  // measure 67
0001
0000
0100
0010
1000
0001
0010
0100
0002
0000
0000
0103
0000
0000
0010
0100
,  // measure 68
1000
0002
0100
0000
1003
0001
0200
0000
0001
0000
0320
0000
0031
0000
0010
0100
,  // measure 69
0001
2000
0100
0000
3001
1000
0200
0000
1000
0000
0320
0000
1030
0000
0010
0100
,  // measure 70
1000
0000
0010
0100
0001
0000
0100
0010
1000
0010
0200
0000
1300
0000
0100
0010
,  // measure 71
1000
0000
0001
0000
0010
0000
0100
0010
0001
0010
0200
0000
0301
0000
0000
0000
,  // measure 72
2400
0300
0000
0000
0000
0000
0001
0000
0000
0000
0000
0000
3010
0000
0000
0000
0042
0030
0000
0000
0000
0000
1000
0000
0000
0000
0000
0000
0103
0000
0000
0000
,  // measure 73
2400
0300
0000
0000
0000
0000
0001
0000
0000
0000
0000
0000
3010
0000
0000
0000
0110
0000
0000
0000
1000
0000
0001
0000
0010
0000
0001
0000
1000
0000
0100
0000
,  // measure 74
0001
0000
0100
1000
0001
0000
1000
0100
0001
0000
0100
1000
0001
1000
0010
0000
,  // measure 75
0110
0000
0100
0001
1000
0001
0010
0000
2000
3000
0000
0000
0040
0000
0000
0000
,  // measure 76
0034
0003
0000
0000
0000
0000
0100
0000
0010
0000
0000
0000
0100
0000
000M
0000
4100
3000
0000
0000
0000
0000
0100
0000
0010
0000
0000
0000
0100
0000
M000
0000
,  // measure 77
0104
0003
0000
0000
0000
0000
0100
0000
0010
0000
0000
0000
0100
0000
0000
0000
1000
0000
0000
0000
0100
0000
0010
0000
0100
0000
0000
0000
0001
0000
0000
0000
,  // measure 78
0014
0003
0000
0000
0000
0000
0010
0000
0100
0000
0000
0000
0010
0000
000M
0000
4010
3000
0000
0000
0000
0000
0010
0000
0100
0000
0000
0000
0010
0000
M000
0000
,  // measure 79
0014
0003
0000
0000
0000
0000
0010
0000
0100
0000
0000
0000
0010
0000
0000
0000
1000
0000
0000
0000
0010
0000
0100
0000
0010
0000
0000
0000
0001
0000
0000
0000
,  // measure 80
0104
0003
0000
0000
0000
0000
0100
0000
0010
0000
0000
0000
0100
0000
000M
0000
4100
3000
0000
0000
0000
0000
0100
0000
0010
0000
0000
0000
0100
0000
M000
0000
,  // measure 81
0104
0003
0000
0000
0000
0000
0100
0000
0010
0000
0000
0000
0100
0000
0000
0000
1000
0000
0000
0000
0000
0000
0000
0000
0102
0000
0000
0000
0100
0000
0000
0000
,  // measure 82
1003
0000
0000
0000
2100
0000
0100
0000
3001
0000
0000
0100
0010
0000
0010
0000
,  // measure 83
2000
0000
0000
0000
3001
0000
0000
0000
0010
0000
0100
1000
0100
0000
0010
0000
,  // measure 84
0011
0000
0000
0000
1010
0000
0000
0000
0010
0100
000M
0100
0000
1000
0100
0010
,  // measure 85
1000
0010
0001
0100
1000
0110
1001
0000
,  // measure 86
1010
0000
0000
0000
0011
0000
0000
0000
0010
0100
M000
0100
0000
0001
0100
0010
,  // measure 87
0001
0010
1000
0200
0001
0010
1300
0000
,  // measure 88
1100
0000
0000
0000
0101
0000
0000
0000
0100
0010
M000
0010
0000
0001
0010
0100
,  // measure 89
0001
0100
1000
0010
0001
0110
1001
0000
,  // measure 90
0101
0000
0000
0000
1100
0000
0000
0000
0100
0010
000M
0010
0000
1000
0010
0100
,  // measure 91
1000
0100
0001
0020
1000
0100
0031
0000
,  // measure 92
1000
0001
1000
0001
1000
0001
1000
0001
,  // measure 93
1000
0001
1000
0001
1000
0001
1000
0001
,  // measure 94
1000
0001
1000
0001
1000
0001
1000
0001
,  // measure 95
1000
0001
1000
0001
1000
0001
1000
0001
,  // measure 96
1000
0001
1000
0001
1000
0001
1000
0001
,  // measure 97
1000
0001
1000
0001
1000
0001
1000
0001
,  // measure 98
1000
0001
1000
0001
1000
0001
1000
0001
,  // measure 99
1000
0001
1000
0001
1000
0001
1000
0001
,  // measure 100
1000
0001
1000
0001
1000
0001
1000
0001
,  // measure 101
1000
0001
1000
0001
1000
0001
1000
0001
,  // measure 102
0000
0000
0000
0000
,  // measure 103
0000
0000
0000
0000
,  // measure 104
M000
0000
0000
0000
;
easure
98
1000
0001
1000
0001
1000
0001
1000
0001
,  // measure 99
1000
0001
1000
0001
1000
0001
1000
0001
,  // measure 100
1000
0001
1000
0001
1000
0001
1000
0001
,  // measure 101
1000
0001
1000
0001
1000
0001
1000
0001
,  // measure 102
0000
0000
0000
0000
,  // measure 103
0000
0000
0000
0000
,  // measure 104
M000
0000
0000
0000
;
