#VERSION:0.83;
#TITLE:Bleep Bloop;
#SUBTITLE:;
#ARTIST:Tokyo Machine;
#TITLETRANSLIT:;
#SUBTITLETRANSLIT:;
#ARTISTTRANSLIT:;
#GENRE:;
#ORIGIN:;
#CREDIT:;
#BANNER:;
#BACKGROUND:;
#PREVIEWVID:;
#JACKET:;
#CDIMAGE:;
#DISCIMAGE:;
#LYRICSPATH:;
#CDTITLE:;
#MUSIC:Bleep Bloop.ogg;
#OFFSET:-0.055000;
#SAMPLESTART:30.267683;
#SAMPLELENGTH:14.220007;
#SELECTABLE:YES;
#BPMS:0.000=135.021;
#STOPS:;
#DELAYS:;
#WARPS:;
#TIMESIGNATURES:0.000=4=4;
#TICKCOUNTS:0.000=4;
#COMBOS:0.000=1;
#SPEEDS:0.000=1.000=0.000=0;
#SCROLLS:0.000=1.000;
#FAKES:;
#LABELS:0.000=Song Start;
#BGCHANGES:;
#KEYSOUNDS:;
#ATTACKS:
;

//---------------dance-single - ----------------
#NOTEDATA:;
#CHARTNAME:;
#STEPSTYPE:dance-single;
#DESCRIPTION:;
#CHARTSTYLE:;
#DIFFICULTY:Hard;
#METER:13;
#RADARVALUES:0.617325,0.659977,0.280603,0.224482,0.482636,385.000000,360.000000,25.000000,20.000000,0.000000,0.000000,0.000000,0.000000,0.000000,0.617325,0.659977,0.280603,0.224482,0.482636,385.000000,360.000000,25.000000,20.000000,0.000000,0.000000,0.000000,0.000000,0.000000;
#CREDIT:Kingly;
#NOTES:
// measure 0
0000
0000
0000
0000
,  // measure 1
0000
0000
0000
0000
,  // measure 2
0000
0000
0000
0000
,  // measure 3
0000
0000
0000
0000
,  // measure 4
1100
0100
0110
0010
,  // measure 5
0011
0001
1001
1000
,  // measure 6
0010
0100
0010
0100
0001
1000
0001
1000
,  // measure 7
0100
0000
0010
0000
0001
0000
1000
0000
0010
0100
0010
0000
1000
0001
1000
0002
,  // measure 8
1000
0000
1000
0000
1003
0000
0010
0100
,  // measure 9
1001
0000
0000
0001
0010
0000
0100
0000
0001
0000
0100
0000
1000
0000
0100
0000
,  // measure 10
0001
0100
1000
0100
0001
0100
0010
0001
,  // measure 11
0011
0000
0000
1000
0010
0000
0100
0000
1000
0000
0100
0000
0001
0000
0100
0000
,  // measure 12
1000
0100
0001
0100
1000
0100
0010
1000
,  // measure 13
1010
0000
0000
0001
0010
0000
0100
0000
1100
0000
0000
1000
0001
0000
0010
0000
,  // measure 14
0011
0000
0000
1000
0010
0000
0100
0000
0101
0000
0000
0001
1000
0000
0010
0000
,  // measure 15
1010
0000
0000
0001
0010
0000
0100
0000
1100
0000
0000
1000
0001
0000
0010
0000
,  // measure 16
0200
0000
0000
0000
1300
0001
0000
0100
0000
0001
0000
0100
0010
0000
1000
0001
,  // measure 17
0010
0000
0100
0000
0001
0000
0100
0000
0010
0000
0001
1000
0000
0001
1000
0000
,  // measure 18
0010
0000
0100
0000
1000
0000
0100
0000
0010
0000
1000
0001
0000
1000
0001
0000
,  // measure 19
0010
0000
0100
0000
0001
0000
0100
0000
0010
0000
0001
1000
0000
0001
1000
0000
,  // measure 20
0010
0000
0100
0000
1000
0000
0100
0000
0010
0000
1000
0001
2000
0000
0000
0000
,  // measure 21
3100
0000
0010
0000
1000
0000
0010
0000
0100
0000
1000
0001
0000
1000
0001
0000
,  // measure 22
0100
0000
0010
0000
0001
0000
0010
0000
0100
0000
0001
1000
0000
0001
1000
0000
,  // measure 23
0100
0000
0010
0000
1000
0000
0010
0000
0100
0000
1000
0001
0000
1000
0001
0000
,  // measure 24
0200
0000
0000
0000
0000
0000
0000
0000
0000
0000
0310
0000
1000
0001
1000
0001
,  // measure 25
2000
0000
3100
0010
0001
0010
0100
0010
,  // measure 26
0001
0010
0100
0010
0001
2000
0020
3030
,  // measure 27
0102
0000
0103
0010
1000
0010
0100
0010
,  // measure 28
1000
0010
0100
0010
1000
0002
0020
0033
,  // measure 29
1100
0000
0001
0100
0010
1000
0100
0010
,  // measure 30
0001
0100
0010
1000
0100
0010
0001
1000
,  // measure 31
1001
0000
1000
0100
0010
0001
0100
0010
,  // measure 32
1000
0000
0100
0000
0010
0001
0000
1000
0000
0001
0000
1000
0010
0000
0100
0000
,  // measure 33
0102
0000
0000
1003
0000
0000
0100
0000
0010
0001
0000
0010
0001
0000
1000
0000
,  // measure 34
2100
0000
0000
3001
0000
0000
0100
0000
0010
1000
0000
0010
1000
0000
0001
0000
,  // measure 35
0012
0000
0000
1003
0000
0000
0010
0000
0100
0001
0000
0100
0001
0000
1000
0000
,  // measure 36
2010
0000
0000
0000
3001
0010
0000
0100
0000
1000
0000
0100
0010
0000
0001
1000
,  // measure 37
0001
0000
0100
0000
0010
0000
1000
0000
0100
0000
1000
0001
0000
1000
0001
0000
,  // measure 38
0010
0000
0100
0000
1000
0000
0010
0000
0100
0000
0001
1000
0000
0001
1000
0000
,  // measure 39
0010
0000
0000
0220
0000
0000
0330
0000
0001
0000
0000
1000
0000
0000
2002
0000
,  // measure 40
0000
0000
0000
0000
0000
0000
0000
0000
0000
0000
3003
0000
0001
1000
0001
1000
,  // measure 41
0001
0000
0100
0010
0000
0100
0001
0000
1000
0000
0100
0010
0000
0100
1000
0000
,  // measure 42
0001
0000
0010
0100
0000
0010
0001
0000
1000
0000
0010
0100
0000
0010
1000
0000
,  // measure 43
1002
0000
1003
0010
0000
1000
0100
0000
0010
0000
0001
0100
0000
0001
0010
0000
,  // measure 44
0001
0000
1000
0100
0000
1000
0010
0000
0100
0000
0001
0010
0001
0000
1000
0000
,  // measure 45
1001
0000
0001
0000
1000
0010
0000
1000
0100
0000
1000
0001
0000
1000
0010
0000
,  // measure 46
0110
0000
1000
0000
0001
0010
0000
0001
0100
0000
0001
1000
0000
0001
0010
0000
,  // measure 47
0110
0000
0001
0000
1000
0010
0000
1000
0100
0000
1000
0001
0000
1000
0010
0000
,  // measure 48
0200
0000
0000
0000
0000
0000
0000
0000
0000
0000
0000
0000
0301
1000
0001
1000
,  // measure 49
0001
0000
0000
0000
;

//---------------dance-single - FSDS----------------
#NOTEDATA:;
#CHARTNAME:;
#STEPSTYPE:dance-single;
#DESCRIPTION:FSDS;
#CHARTSTYLE:;
#DIFFICULTY:Challenge;
#METER:17;
#RADARVALUES:0.756825,0.769973,0.303051,0.291827,0.942824,472.000000,445.000000,27.000000,26.000000,33.000000,0.000000,0.000000,0.000000,0.000000,0.756825,0.769973,0.303051,0.291827,0.942824,472.000000,445.000000,27.000000,26.000000,33.000000,0.000000,0.000000,0.000000,0.000000;
#CREDIT:Kingly;
#NOTES:
0000
0000
0000
0000
,
0000
0000
0000
0000
,
0000
0000
0000
0000
,
0000
0000
0000
0000
,
0102
1003
1200
0310
,
0012
1003
1020
0130
,
0001
1000
0100
1000
0010
0100
0001
1000
,
0001
0010
0001
0010
0100
1000
0100
1000
0001
0100
0001
1000
0010
1000
0100
0020
,
0001
0000
0000
0000
0000
0000
0000
0000
0031
0000
0000
0000
1000
0000
0001
0000
0100
00M0
0100
0000
1000
0000
0100
0000
0010
0000
0000
0000
0001
0000
0000
0000
,
1100
0000
0000
M100
0001
0000
1000
0000
0100
00M0
0100
0000
0001
0000
0100
0000
,
0010
0000
1000
0000
0010
0M00
0010
0000
0001
0000
2000
0000
0100
0000
3001
0000
,
0101
0000
0000
010M
1000
0000
0001
0000
0100
00M0
0100
0000
1000
0000
0100
0000
,
0010
0000
0001
0000
0010
0M00
0010
0000
1000
0000
0002
0000
0100
0000
1003
0000
,
1100
0000
0000
M100
0001
0100
0000
0000
1010
0000
0000
M010
0001
0000
0100
0000
,
0101
0000
0000
010M
1000
0100
0000
0000
0011
0000
0000
001M
1000
0000
0100
0000
,
1100
0000
0000
M100
0001
0100
0000
0000
1010
0000
0000
M010
0001
0000
0010
0000
,
0200
0000
0000
1300
0001
0100
00M0
0100
1000
0100
00M0
0100
0001
0100
0010
1000
,
0002
0000
0000
0013
0001
1000
0001
1000
0100
0000
1000
0010
0000
1000
0100
0010
,
0001
0000
0100
0010
1000
0001
1000
0001
0100
0000
0001
0010
0000
0001
0100
0010
,
1000
0000
0100
0010
0001
1000
0001
1000
0100
0000
1000
0010
0000
1000
0100
0010
,
0001
0000
0100
0010
1000
0001
1000
0001
0100
0000
0001
0010
0200
0000
1300
0000
,
1001
0000
0001
1000
0010
1000
0010
0200
0001
0000
0300
010M
1000
0001
0010
0001
,
0100
0000
0001
1000
0100
1000
0100
0020
0001
0000
0030
001M
1000
0001
0100
0001
,
0010
0000
0001
1000
0010
0100
0010
0200
0001
0000
0300
010M
1000
0100
0010
0001
,
2000
0000
0000
0000
0000
0000
0000
0000
0000
0000
0000
0000
0000
0000
0000
0000
0000
0000
0000
0000
3001
0000
1000
0000
0100
00M0
0100
0000
0001
0000
0100
0000
,
0020
0000
1030
0001
0100
0001
1000
0001
,
0100
0000
0001
0000
1000
0000
0100
0000
0010
0000
0001
1000
0010
0000
0100
0000
,
0201
0000
0301
1000
0100
1000
0001
1000
,
0100
0000
1000
0000
0001
0000
0100
0000
0010
0000
1000
0001
0010
0000
0100
0000
,
1200
0000
0000
0000
1300
0000
0001
0000
0100
0001
0100
0000
0010
0000
1000
0000
,
0100
1000
0100
0000
0010
0000
0001
0000
0100
0001
0100
0000
0010
0000
1000
0000
,
2001
0000
0000
0000
3001
0000
0010
0000
0100
1000
0100
0000
0010
0000
0001
0000
,
0100
0001
0100
0000
0010
1000
0000
1010
0000
0001
0010
0100
1000
0000
0001
0000
,
0101
0000
0000
1100
0000
0000
0001
0000
1000
0010
0000
1000
0100
0000
0010
0000
,
0011
0000
0000
1010
0000
0000
0001
0000
1000
0100
00M0
0100
0001
0000
1000
0000
,
1100
0000
0000
0101
0000
0000
1000
0000
0001
0010
0000
0001
0100
0000
0010
0000
,
1010
0000
0000
0001
1000
0100
00M0
0100
0001
0100
00M0
0100
1000
0100
0010
0001
,
1000
0000
0010
0000
0100
0001
0100
0001
0000
1000
0100
0000
0010
0001
1000
0000
,
0001
0000
0010
0000
0100
1000
0100
1000
0000
0001
0100
0000
0010
1000
0001
0000
,
0101
0000
010M
2000
0000
0000
3010
0000
1010
0000
M010
0001
0000
1000
0200
0000
,
0000
0000
0000
0000
0000
0000
0000
0000
0000
0000
0000
0000
0000
0000
0000
0000
0000
0000
0000
0000
1300
0000
0001
0000
0100
00M0
0100
0000
1000
0000
0100
0000
,
0020
0000
0000
0130
1000
0001
1000
0001
0100
00M0
0100
1000
0000
0100
0010
0001
,
1000
0000
0010
0100
0001
1000
0001
1000
0100
00M0
0100
0001
0000
0100
0010
1000
,
0001
0000
0010
0100
1000
0001
1000
0001
0100
00M0
0100
1000
0000
0100
0010
0001
,
1000
0000
0010
0100
0001
1000
0001
1000
0100
00M0
0100
0001
2000
0000
3010
0000
,
1010
0000
1000
0001
0010
0001
0010
0200
1000
0000
0300
M100
0001
1000
0010
1000
,
0100
0000
1000
0001
0100
0001
0100
0020
1000
0000
0030
M010
0001
1000
0100
1000
,
0010
0000
1000
0001
0010
0100
0010
0200
1000
0000
0300
M100
0001
0100
0010
1000
,
0002
0000
0000
0000
0000
0000
0000
0000
0000
0000
0000
0000
0000
0000
0000
0000
0000
0000
0000
0000
1003
0000
0001
0000
0100
00M0
0100
0000
1000
0000
0100
0000
,
0010
0000
0000
0000
;
