#TITLE:Bingo Highway;
#SUBTITLE:;
#ARTIST:Keiichi Sugiyama;
#TITLETRANSLIT:;
#SUBTITLETRANSLIT:;
#ARTISTTRANSLIT:;
#GENRE:LUCKY RAVE;
#CREDIT:;
#BANNER:Bingo Highway.png;
#BACKGROUND:Bingo Highway-bg.png;
#LYRICSPATH:;
#CDTITLE:;
#MUSIC:Bingo Highway.ogg;
#OFFSET:-0.075880;
#SAMPLESTART:84.858002;
#SAMPLELENGTH:11.926000;
#SELECTABLE:YES;
#BPMS:0.000000=161.000000
;
#STOPS:
;
#BGCHANGES:;
#KEYSOUNDS:;
#ATTACKS:;

//---------------dance-single - ----------------
#NOTES:
     dance-single:
     :
     Hard:
     16:
     0.922731,0.960776,0.109015,0.199860,0.967505,711.000000,699.000000,12.000000,22.000000,0.000000,0.000000,0.922731,0.960776,0.109015,0.199860,0.967505,711.000000,699.000000,12.000000,22.000000,0.000000,0.000000:
0000
0000
0000
0000
,
0000
0000
0000
0000
,
0000
0000
0000
0000
,
0000
0000
0000
0000
,
0000
0000
0000
0000
,
1000
0000
0001
0000
0100
0001
0100
0001
0100
0000
0001
0000
1000
0100
1000
0100
,
1000
0000
0100
0000
0010
0100
0010
0100
0010
0000
0001
0000
1000
0010
0100
0010
,
1000
0000
0001
0000
0010
0100
0010
0001
0010
0000
0100
0000
1000
0001
1000
0001
,
0020
0000
0000
0000
0000
0000
0030
0000
0100
0010
0100
0010
0100
0010
0100
1000
,
0001
0000
0100
0000
0001
0000
0010
0000
0001
0000
0100
0010
0000
0000
1000
0001
,
1000
0000
0100
0000
1000
0000
0010
0000
1000
0000
0100
0010
0000
0000
0001
1000
,
0010
0000
0001
0000
0010
0000
1000
0000
0001
0000
0010
0100
0000
0000
1000
0001
,
0010
0000
1000
0000
0010
0000
0001
0000
0010
0100
0010
0100
1000
0001
1000
0001
,
0100
0000
1000
0000
0100
0000
0001
0000
0100
0000
0010
1000
0000
0000
0001
0010
,
0100
0000
0001
0000
0100
0000
1000
0000
0100
0000
0010
0001
0000
0000
1000
0010
,
0100
0000
0001
0000
0010
0000
0001
0000
0100
0000
0010
1000
0000
0000
0001
0010
,
0100
0000
1000
0000
0010
0000
1000
0000
0100
0010
0100
0010
0100
0010
0100
0010
,
0200
0000
1000
0000
1000
0000
1300
0000
1010
0000
1000
0001
0000
0000
0100
0001
,
0200
0000
0001
0000
0001
0000
0301
0000
0011
0000
0001
1000
0000
0000
0001
0100
,
0002
0000
0010
0000
0010
0000
0013
0000
1100
0000
1000
0001
0000
0000
1000
0100
,
2000
0000
0010
0000
0010
0000
3010
0000
0100
0001
0100
0001
1000
0100
1000
0100
,
0020
0000
1000
0000
1000
0000
1030
0000
0011
0000
0100
1000
0000
0000
0001
0100
,
0020
0000
0001
0000
0001
0000
0031
0000
1010
0000
0100
0001
0000
0000
1000
0100
,
0010
0000
1000
0000
0010
0000
0001
0000
0110
0000
1000
0001
0000
0000
0100
0010
,
1000
0001
1000
0001
1000
0001
1000
0001
0010
0100
0010
0100
0010
0100
0010
0100
,
0020
0000
0001
0001
0001
0000
0100
0100
,
0100
0000
1000
1000
1000
0000
0031
1000
,
0020
0000
0001
0001
0001
0000
0100
0100
,
0100
0000
0000
0000
1000
0000
1030
0000
1000
0010
1000
0010
0100
0001
0100
0001
,
0010
0000
0000
0000
0100
1000
0100
1000
0010
0000
0000
0000
0100
0001
0100
0001
,
0010
0000
0000
0000
1000
0010
1000
0010
0001
0000
0000
0000
1000
0100
1000
0100
,
0001
0000
0000
0000
0100
1000
0100
0010
0001
0000
0000
0000
0100
0001
0100
0010
,
1000
0001
1000
0001
1000
0001
1000
0001
0010
0100
0010
0100
0010
0100
0010
0100
,
1000
0000
0001
0100
0010
0000
0001
0000
0010
0000
1000
0100
0010
0000
1000
0000
,
0010
0000
0001
1000
0001
0000
1000
0001
1000
0000
0100
0000
0001
0000
0100
0000
,
1000
0100
1000
0000
1000
0010
1000
0000
0001
0100
0001
0000
0001
0010
0001
0000
,
0010
1000
0001
0100
1000
0001
0100
0010
,
1000
0100
0010
0000
0001
0100
0010
0000
1000
0001
0010
0000
0001
1000
0010
0000
,
1000
0100
1000
0100
0010
0000
1000
0000
0010
0001
0010
0001
0000
0000
0010
0100
,
1000
0000
0001
0100
0000
1000
0100
0000
0001
0000
1000
0100
0000
0001
0100
0000
,
1000
0000
0001
0000
0100
0000
0010
0000
1000
0001
1000
0001
1000
0001
1000
0001
,
1000
0000
0100
0001
0100
0001
0100
0000
1000
0000
0010
0001
0010
0001
0010
0000
,
0100
0010
0100
0000
0001
1000
0001
0000
0010
0100
1000
0000
0001
0100
0010
0000
,
1000
0000
0001
0010
0001
0000
1000
0001
1000
0000
0001
0100
0001
0000
0100
0010
,
1000
0001
0010
1000
0001
0100
1000
0001
,
1000
0000
0010
1000
0000
0010
1000
0000
0001
0000
0010
0001
0000
0010
0001
0000
,
1000
0001
1000
0000
0001
1000
0001
0000
0100
0010
1000
0000
0100
0010
0001
0000
,
1000
0010
0000
0001
0010
0000
1000
0000
0001
0010
0000
1000
0010
0000
0001
0000
,
1000
0001
1000
0001
1000
0001
1000
0001
0100
0010
0100
0010
0100
0010
0100
0010
,
0200
0000
0010
0010
0320
0000
1000
1000
,
2030
0000
0001
0001
3002
0000
0010
0010
,
0013
1000
0001
0100
1000
0001
0100
0010
,
1000
0000
0001
0000
0010
0000
0100
0000
1000
0100
1000
0100
1000
0010
1000
0010
,
0200
0000
0001
0001
0302
0000
1000
1000
,
2003
0000
0100
0100
3200
0000
0010
0010
,
0310
0001
1000
0010
0001
1000
0100
0001
,
0020
0000
0000
0000
0000
0000
0030
0000
0001
1000
0001
1000
0001
1000
0001
1000
,
0020
0000
1000
0000
1000
0000
1030
0000
1100
0000
0010
0001
0000
0000
1000
0100
,
0020
0000
0001
0000
0001
0000
0031
0000
0101
0000
0010
1000
0000
0000
0001
0100
,
0020
0000
0001
0000
0001
0000
0031
0000
1010
0000
1000
0010
0000
0000
0100
0001
,
0020
0000
1000
0000
1000
0000
1030
0000
0010
0001
0010
0001
1000
0100
1000
0100
,
0001
0000
0100
0000
1000
0000
0100
0000
0011
0000
0001
1000
0000
0000
0001
0100
,
1000
0000
0100
0000
0001
0000
0100
0000
1010
0000
1000
0001
0000
0000
1000
0100
,
0010
0000
0001
0000
0100
0000
0001
0000
0011
0000
0100
1000
0000
0000
0001
0100
,
0010
0000
1000
0000
0100
0000
1000
0000
0001
0010
0001
0010
0100
1000
0100
1000
,
0001
0100
0001
0000
1000
0100
1000
0000
0100
0010
0100
0010
0000
0000
0100
1000
,
0001
0010
0001
0000
1000
0010
1000
0000
0001
0010
0100
1000
0000
0000
0010
0100
,
0001
1000
0100
0000
1000
0001
0100
0000
0010
1000
0001
0010
0000
0000
0100
1000
,
0001
0100
0010
0000
1000
0100
0010
0000
0100
0010
0100
0010
0001
1000
0001
1000
,
0010
1000
0100
0000
0010
0001
0100
0000
0010
0001
0010
1000
0000
0000
0001
0010
,
0100
1000
0010
0000
0100
0001
0010
0000
0100
0001
0100
1000
0000
0000
0001
0100
,
0010
1000
0001
0000
0010
0001
1000
0000
0010
0100
0001
1000
0000
0000
0100
0010
,
0001
1000
0001
1000
0001
1000
0001
1000
0010
0100
0010
0100
0010
0100
0010
0100
;

//---------------dance-single - ----------------
#NOTES:
     dance-single:
     :
     Medium:
     13:
     0.569731,0.628935,0.018169,0.327044,0.131726,439.000000,437.000000,2.000000,36.000000,0.000000,0.000000,0.569731,0.628935,0.018169,0.327044,0.131726,439.000000,437.000000,2.000000,36.000000,0.000000,0.000000:
0000
0000
0000
0000
,
0000
0000
0000
0000
,
0000
0000
0000
0000
,
0000
0000
0000
0000
,
0000
0000
0000
0000
,
1010
0000
0001
0100
0001
0000
1000
0100
,
1000
0000
0100
0010
0001
0000
0100
0010
,
1000
0000
0001
0010
0100
0000
1000
0010
,
0200
0000
0000
0300
0001
1000
0001
1000
,
0100
0000
0001
0000
0100
0000
0000
0000
1000
0000
0001
0010
0000
0000
0001
0000
,
0100
0000
1000
0000
0100
0000
0000
0000
0001
0000
1000
0010
0000
0000
0100
0000
,
0001
0000
0010
0000
0001
0000
0000
0000
1000
0000
0100
0001
0000
0000
0100
0000
,
1000
0000
0010
0000
1000
0000
0000
0000
0001
0000
0100
1000
0000
0000
0100
0000
,
0010
0000
1000
0000
0100
0000
0000
0000
0010
0000
0001
1000
0000
0000
0100
0000
,
0010
0000
0001
0000
0100
0000
0000
0000
0010
0000
1000
0001
0000
0000
0100
0000
,
0010
0000
1000
0000
0001
0000
0000
0000
0010
0000
0100
1000
0000
0000
0001
0000
,
0100
0010
1000
0000
0001
0010
0001
0010
,
0002
0000
1000
0000
0103
0010
0100
0001
,
2000
0000
0001
0000
3100
0010
0100
1000
,
0200
0000
0001
0000
0310
0001
0100
0001
,
0200
0000
1000
0000
0310
1000
0100
1000
,
0002
0000
0100
0000
0013
0100
0001
0100
,
2000
0000
0100
0000
3010
0100
1000
0100
,
0002
0000
0010
0000
1003
0010
0100
0001
,
0010
0100
0010
0100
1000
0001
1000
0001
,
0200
0001
0001
0010
,
0010
0000
1000
0000
1300
0000
0010
1000
,
0200
0001
0001
0010
,
0010
0000
1000
0000
1300
0001
1000
0001
,
0010
0000
0001
0100
0001
0000
1000
0100
,
1000
0000
0001
0100
0010
0000
0001
0010
,
1000
0000
0001
0100
1000
0000
0100
0010
,
1000
0001
1000
0001
0010
0100
0010
0100
,
1000
0000
0001
0100
0010
0000
0001
0010
,
1000
0000
0001
1000
0000
0000
0001
1000
0000
0000
0001
0000
0010
0000
0100
0000
,
2000
3020
0032
0023
,
1030
0010
0100
0001
1000
0100
0010
0001
,
0200
2300
3200
0302
,
0103
0010
0100
0010
1000
0001
0010
0000
,
1000
0010
0001
0000
1000
0100
0001
0000
,
0100
1000
0100
1000
0001
0100
0010
1000
,
0001
0000
0010
0100
0010
0000
0100
0010
,
0100
0000
0000
0000
1000
0001
0000
0000
0001
1000
0000
0000
0001
0000
0100
0000
,
0010
1000
0001
0010
1000
0001
0100
1000
,
0001
0100
0001
0010
0100
1000
0010
1000
,
0001
0000
0000
0001
0000
0000
0001
0000
1000
0000
0000
1000
0000
0000
1000
0000
,
0010
0100
0000
0000
0010
1000
0000
0000
0001
0010
0000
0000
0100
1000
0000
0000
,
0001
0100
1000
0100
0001
0010
1000
0010
,
0001
1000
0001
1000
0010
0100
0010
0100
,
0002
0010
0023
0100
,
0230
1000
2300
0010
,
3010
0001
1000
0100
,
0001
0000
1000
0000
0100
0010
0100
0010
,
0002
1000
2003
0010
,
3020
0100
0230
1000
,
1300
0100
0001
0100
,
0220
0000
0330
0000
1000
0001
1000
0001
,
0200
0000
1000
0000
0301
0100
0001
0010
,
0200
0000
0001
0000
1300
0100
1000
0010
,
2000
0000
0001
0000
3010
0001
0010
0100
,
0002
0000
1000
0000
0013
1000
0010
0100
,
2000
0000
0010
0000
3100
0010
0100
1000
,
0002
0000
0010
0000
0103
0010
0100
0001
,
2000
0000
0100
0000
3001
0100
0010
1000
,
0002
0000
0100
0000
1003
0001
1000
0001
,
0100
0000
1000
0000
0100
0000
0001
0000
1000
0000
0100
0010
0000
0000
0100
1000
,
0100
0000
0001
0000
0100
0000
1000
0000
0001
0000
0100
0010
0000
0000
1000
0010
,
1000
0000
0100
0000
1000
0000
0010
0000
1000
0000
0100
0010
0000
0000
0001
0010
,
0001
0100
0001
0010
0100
1000
0100
1000
,
0010
0000
0001
0000
0010
0000
1000
0000
0001
0000
0010
0100
0000
0000
0010
0001
,
0010
0000
1000
0000
0010
0000
0001
0000
1000
0000
0010
0100
0000
0000
0001
0100
,
0001
0000
1000
0000
0100
0000
0010
0000
0001
0000
0100
0010
0000
0000
1000
0001
,
1000
0001
1000
0001
0010
0100
0010
0100
;

//---------------dance-single - ----------------
#NOTES:
     dance-single:
     :
     Easy:
     9:
     0.386742,0.430324,0.009085,0.063592,0.000000,298.000000,297.000000,1.000000,7.000000,0.000000,0.000000,0.386742,0.430324,0.009085,0.063592,0.000000,298.000000,297.000000,1.000000,7.000000,0.000000,0.000000:
// measure 0
0000
0000
0000
0000
,  // measure 1
0000
0000
0000
0000
,  // measure 2
0000
0000
0000
0000
,  // measure 3
0000
0000
0000
0000
,  // measure 4
0000
0000
0000
0000
,  // measure 5
1000
1000
0001
0001
,  // measure 6
0010
0010
0100
0100
,  // measure 7
1000
1000
0010
0010
,  // measure 8
0200
0000
0300
0000
,  // measure 9
0001
0000
0010
0000
0001
0100
0001
0000
,  // measure 10
1000
0000
0010
0000
1000
0100
1000
0000
,  // measure 11
0100
0000
0001
0000
0100
0010
0001
0000
,  // measure 12
0100
0000
1000
0000
0100
0010
1000
0000
,  // measure 13
0001
0000
0010
0000
1000
0010
0100
0000
,  // measure 14
1000
0000
0010
0000
0001
0010
0100
0000
,  // measure 15
0001
0000
1000
0000
0100
0010
0001
0000
,  // measure 16
0100
0000
0010
0000
1000
0001
1000
0001
,  // measure 17
1000
0000
0010
0000
1000
0100
1000
0000
,  // measure 18
0010
1000
0010
0000
1000
0100
0010
0000
,  // measure 19
0001
0000
0010
0000
0001
0100
0001
0000
,  // measure 20
0010
0001
0010
0000
0001
0100
0010
0000
,  // measure 21
1000
0010
0001
0010
,  // measure 22
0100
1000
0100
0001
,  // measure 23
1000
0100
0010
0001
,  // measure 24
1000
0001
1000
0001
1000
0001
1000
0001
,  // measure 25
0020
0000
0001
0000
,  // measure 26
0001
0000
0130
1000
,  // measure 27
0020
0000
1000
0000
,  // measure 28
1000
0000
1030
0001
,  // measure 29
0200
0000
0010
0000
,  // measure 30
0010
0000
0310
1000
,  // measure 31
0200
0000
0010
0000
,  // measure 32
0310
0001
1000
0001
,  // measure 33
0100
0100
0010
0010
,  // measure 34
1000
0100
0001
0100
,  // measure 35
1000
1000
0010
0010
,  // measure 36
0100
0001
0100
0001
0100
0001
0100
0000
,  // measure 37
0001
0001
1000
1000
,  // measure 38
0100
1000
0010
1000
,  // measure 39
0100
0100
0010
0010
,  // measure 40
0001
0100
0010
1000
,  // measure 41
0001
0001
1000
1000
,  // measure 42
0100
0001
0100
1000
,  // measure 43
0100
0010
0001
1000
,  // measure 44
0010
0010
0100
0100
,  // measure 45
0001
0100
0001
0100
0001
0100
0001
0000
,  // measure 46
1000
1000
0100
0100
,  // measure 47
0010
0001
0100
0001
,  // measure 48
1000
0010
1000
0010
1000
0010
1000
0010
,  // measure 49
0200
0000
0001
0000
,  // measure 50
0001
0000
0301
0000
,  // measure 51
1000
1000
0001
0001
,  // measure 52
0010
0000
0010
0000
0100
1000
0100
1000
,  // measure 53
0200
0000
1000
0000
,  // measure 54
1000
0000
1300
0000
,  // measure 55
0001
0001
1000
1000
,  // measure 56
0110
0000
0000
0000
,  // measure 57
1000
0000
0010
0000
1000
0100
1000
0000
,  // measure 58
0001
0000
0010
0000
0001
0100
0001
0000
,  // measure 59
0100
0000
1000
0000
0100
0010
1000
0000
,  // measure 60
0100
0000
0001
0000
0100
0010
0001
0000
,  // measure 61
1000
0000
0010
0000
0001
0010
0100
0000
,  // measure 62
0001
0000
0010
0000
1000
0010
0100
0000
,  // measure 63
1000
0000
0001
0000
0100
0010
1000
0000
,  // measure 64
0100
0000
0010
0000
0001
1000
0001
1000
,  // measure 65
0001
0000
0010
0000
0001
0100
0001
0000
,  // measure 66
0010
0001
0010
0000
0001
0100
0010
0000
,  // measure 67
1000
0000
0010
0000
1000
0100
1000
0000
,  // measure 68
0010
1000
0010
0000
1000
0100
0010
0000
,  // measure 69
0001
0010
1000
0010
,  // measure 70
0100
0001
0100
1000
,  // measure 71
0001
0100
0010
1000
,  // measure 72
0001
1000
0001
1000
0001
1000
0001
1000
;
