#TITLE:Be My Parachute;
#SUBTITLE:;
#ARTIST:Basixx;
#TITLETRANSLIT:;
#SUBTITLETRANSLIT:;
#ARTISTTRANSLIT:;
#GENRE:;
#CREDIT:;
#BANNER:banner.png;
#BACKGROUND:bg.png;
#LYRICSPATH:;
#CDTITLE:;
#MUSIC:Be My Parachute.ogg;
#OFFSET:0.656000;
#SAMPLESTART:32.509571;
#SAMPLELENGTH:15.609756;
#LASTBEATHINT:267.855377;
#SELECTABLE:YES;
#BPMS:0.000000=123.000000
;
#STOPS:
;
#BGCHANGES:;
#KEYSOUNDS:;
#ATTACKS:;

//---------------dance-single - XO DS- FS-----------------
#NOTES:
     dance-single:
     :
     Challenge:
     15:
     0.538485,0.638304,0.000000,0.430572,0.498557,499.000000,499.000000,0.000000,57.000000,8.000000,0.000000,0.538485,0.638304,0.000000,0.430572,0.498557,499.000000,499.000000,0.000000,57.000000,8.000000,0.000000:
0000
0000
0000
0000
,
1000
0000
0000
0100
0000
0000
2000
0000
0000
0000
3001
0010
0001
0000
1000
0000
,
0010
0000
0100
0000
0001
0000
0010
0000
0000
0000
0001
1000
0100
0000
0010
0000
,
0001
0000
0000
0100
0000
0000
0002
0000
0000
0000
1003
0010
1000
0000
0001
0000
,
0010
0100
1000
0020
0000
0000
0130
0000
,
0001
0010
0001
0100
0010
1000
0100
1000
,
0001
0100
1000
0200
0000
0000
0301
0000
,
1000
0000
0010
0000
1000
0000
0100
0000
0010
0000
0001
0000
0100
0000
0001
1000
,
0200
0000
0000
0000
0000
0000
0000
0000
0000
2300
0000
0000
0000
0000
0000
0000
0000
0000
3010
0000
1000
0000
0001
0000
,
0100
0000
0000
0000
0000
0000
0000
0000
0000
0100
0000
0000
0000
0000
0000
0000
0000
0000
0002
0000
0000
0000
0000
0000
0000
0000
0000
0000
0000
0000
0000
0000
0000
0000
0000
0000
0013
0000
0000
0000
0001
0000
0000
0000
1000
0000
0000
0000
,
0100
0000
0000
0000
0000
0000
0000
0000
0000
0100
0000
0000
0000
0000
0000
0000
0000
0000
2000
0000
0000
0000
0000
0000
0000
0000
0000
0000
0000
0000
0000
0000
3001
0000
0000
0000
0010
0000
0000
0000
0100
0000
0000
0000
1000
0000
0000
0000
,
0001
0000
0000
0001
0000
0000
0200
0000
0000
0000
1300
0000
0100
0000
0001
0000
,
2000
0000
0000
0000
0001
0000
3002
0000
0000
0000
0000
0000
0023
0000
0000
0130
,
1000
0000
0001
0100
0001
0000
0010
0000
0100
0000
1000
0000
0002
0000
0000
0000
,
1003
0000
0000
0010
0000
0000
1000
0000
0000
0000
0000
0000
0100
0000
0000
0000
0000
0000
0010
0000
0000
0000
0000
0000
0002
0000
0000
0000
0000
0000
0000
0000
0000
0000
0000
0000
0103
0000
0000
0000
0010
0000
0000
0000
1000
0000
0000
0000
,
0001
0010
0001
0010
0100
1000
0100
1000
0001
0100
0001
0100
0010
1000
0010
1000
,
0002
0000
0000
0000
1000
0000
2003
0000
0000
0000
3100
0000
1000
0100
00M0
0100
,
0001
0000
0100
0000
1000
0000
0100
0010
0000
2000
0000
0000
3001
0100
00M0
0100
,
1000
0000
0100
0000
0001
0000
0100
0000
0010
0000
0002
1000
0000
0203
0000
0000
,
0310
0000
0001
0000
0010
0000
1000
0001
0000
0020
0000
0000
0130
1000
0100
0000
,
0010
0000
1000
0000
0010
0000
0001
0000
1000
0000
0010
0100
0000
0002
0000
0000
,
1003
0000
0100
0000
0001
0000
0100
0010
0000
0002
0000
0000
1003
0100
00M0
0100
,
0001
0000
0100
0000
1000
0000
0100
0000
0010
0000
2000
0001
0000
3200
0000
0000
,
0310
0000
1000
0000
0010
0000
0001
1000
0000
0020
0000
0000
0130
0001
0100
0000
,
1000
0001
0010
1000
0002
0000
2003
0000
,
3100
0000
0001
0000
0100
0000
0010
0001
0000
0001
0000
0000
1000
0010
0M00
0010
,
0001
0000
0010
0000
1000
0000
0010
0000
0100
0000
2000
0010
0000
3001
0000
0000
,
0100
0000
1000
0000
0100
0000
0010
1000
0000
1000
0000
0000
0100
1000
0100
0000
,
0001
1000
0010
0001
2000
0000
0000
0000
,
3001
0000
0000
0100
0001
0000
1000
0000
0100
0000
1000
0000
0010
0000
1000
0000
,
0001
0000
0010
0000
0100
0000
1000
0000
0000
0000
0001
0100
0001
0000
0010
0000
,
0200
0000
0000
1300
0000
0000
0002
0000
0000
0000
0103
0000
0010
0000
1000
0000
,
0001
1000
0100
0020
0000
0000
0032
0000
,
0103
1000
0100
0010
0001
0010
1000
0001
,
0010
1000
0010
0002
0000
0000
1003
0000
,
0100
0000
0001
0000
0100
0000
0010
0000
1000
0000
0010
0000
0001
0000
1000
0010
,
0200
0000
0000
0000
0000
0000
0000
0000
0000
0302
0000
0000
0000
0000
0000
0000
0000
0000
0013
0000
0001
0000
1000
0000
,
0100
0000
0000
0000
0000
0000
1000
0000
0000
0010
0000
0000
1000
0000
0000
0000
0000
0000
0001
0000
0000
0000
0000
0000
0100
0000
0000
0000
0000
0000
0000
0000
0000
0000
0000
0000
0010
0000
0000
0000
1000
0000
0000
0000
0001
0000
0000
0000
,
0100
0000
0000
0000
0000
0000
0001
0000
0000
0010
0000
0000
0001
0000
0000
0000
0000
0000
1000
0000
0000
0000
0000
0000
0100
0000
0000
0000
0000
0000
0000
0000
0010
0000
0000
0000
0001
0000
0000
0000
1000
0000
0000
0000
0010
0000
0000
0000
,
0100
0000
0001
1000
0001
0000
0010
0000
0100
0000
0001
0000
0100
0000
1000
0000
,
0001
0000
0100
0000
0010
0000
2000
0000
0000
0000
0000
0000
3001
0000
0000
0100
,
0001
0000
1000
0100
1000
0000
0010
0000
0100
0000
0001
0000
2000
0000
0000
0000
,
3001
0000
0000
0010
0000
0000
0001
0000
0000
0000
0000
0000
0100
0000
0000
0000
0000
0000
0010
0000
0000
0000
0000
0000
2000
0000
0000
0000
0000
0000
0000
0000
0000
0000
0000
0000
3100
0000
0000
0000
1000
0000
0000
0000
0001
0000
0000
0000
,
0010
0000
0000
0000
0000
0000
0001
0000
0000
0100
0000
0000
0001
0000
0000
0000
0000
0000
1000
0000
0000
0000
0000
0000
0010
0000
0000
0000
0000
0000
0000
0000
0000
0000
0000
0000
0100
0000
0000
0000
0001
0000
0000
0000
1000
0000
0000
0000
,
0010
0000
1000
0100
1000
0000
0001
0000
0020
0000
0000
0000
0230
0000
0000
0000
,
1300
1000
0001
0001
,
0100
0100
0010
0010
,
1000
0000
0000
1000
0100
0000
0010
0000
0001
0000
0000
0000
0001
0000
1000
0000
,
0001
0000
0000
0000
0000
0000
0000
0000
0000
0001
0000
0000
0100
0000
0000
0000
0000
0000
0010
0000
0000
0000
0000
0000
1000
0000
0000
0000
0000
0000
0000
0000
0000
0000
0000
0000
0001
0000
0000
0000
0010
0000
0000
0000
0100
0000
0000
0000
,
1000
0000
0000
0000
0000
0000
0000
0000
0000
0001
0000
0000
0100
0000
0000
0000
0000
0000
0010
0000
0000
0000
0000
0000
0100
0000
0000
0000
0000
0000
0001
0000
0000
0000
0000
0000
1000
0000
0000
0000
0010
0000
0000
0000
0100
0000
0000
0000
,
0001
0000
0000
0000
0000
0000
0000
0000
0000
1000
0000
0000
0100
0000
0000
0000
0000
0000
0010
0000
0000
0000
0000
0000
0100
0000
0000
0000
0000
0000
1000
0000
0000
0000
0000
0000
0100
0000
0000
0000
0010
0000
0000
0000
0001
0000
0000
0000
,
1000
0010
1000
0010
0100
0001
0100
0001
1000
0100
1000
0100
0010
0001
0010
0001
,
2000
0000
0000
0000
0001
0000
3002
0000
0000
0000
0103
0000
0001
0100
00M0
0100
,
1000
0000
0100
0000
0001
0000
0100
0010
0000
0002
0000
0000
1003
0100
00M0
0100
,
0001
0000
0100
0000
1000
0000
0100
0000
0010
0000
2000
0001
0000
3200
0000
0000
,
0310
0000
1000
0000
0010
0000
0001
1000
0000
0020
0000
0000
0130
0001
0100
0000
,
0010
0000
0001
0000
0010
0000
1000
0000
0001
0000
0010
0100
0000
2000
0000
0000
,
3001
0000
0100
0000
1000
0000
0100
0010
0000
2000
0000
0000
3001
0100
00M0
0100
,
1000
0000
0100
0000
0001
0000
0100
0000
0010
0000
0002
1000
0000
0203
0000
0000
,
0310
0000
0001
0000
0010
0000
1000
0001
0000
0020
0000
0000
0130
1000
0100
0000
,
0001
1000
0010
0001
2000
0000
3002
0000
,
0103
0000
1000
0000
0100
0000
0010
1000
0000
1000
0000
0000
0001
0010
0M00
0010
,
1000
0000
0010
0000
0001
0000
0010
0000
0100
0000
0002
0010
0000
1003
0000
0000
,
0100
0000
0001
0000
0100
0000
0010
0001
0000
0001
0000
0000
0100
0001
0100
0000
,
1000
0001
0010
1000
0001
0020
0200
0000
,
0330
0000
0000
0000
;

//---------------dance-single - ----------------
#NOTES:
     dance-single:
     :
     Hard:
     12:
     0.457550,0.466453,0.067985,0.460788,0.305933,424.000000,415.000000,9.000000,61.000000,0.000000,0.000000,0.457550,0.466453,0.067985,0.460788,0.305933,424.000000,415.000000,9.000000,61.000000,0.000000,0.000000:
// measure 0
0000
0000
0000
0000
,  // measure 1
1000
0000
0000
0100
0000
0000
2000
0000
0000
0000
3001
0000
0100
0000
0010
0000
,  // measure 2
1000
0100
1000
0002
0000
1003
0100
0010
,  // measure 3
0001
0000
0000
0100
0000
0000
0002
0000
0000
0000
1003
0000
0100
0000
0010
0000
,  // measure 4
0001
0100
0001
2000
0000
0000
3002
0000
,  // measure 5
0103
1000
0100
0010
1000
0001
0010
0100
,  // measure 6
1000
0100
0001
0200
0000
0000
1300
0000
,  // measure 7
0010
0000
0001
0000
0010
0000
0100
0000
0001
0000
0010
0000
0100
0000
1000
0001
,  // measure 8
2000
0000
0000
0000
0000
0000
0000
0000
0000
3001
0000
0000
0000
0000
0000
0000
0000
0000
0001
0000
0010
0000
0100
0000
,  // measure 9
2000
0000
0000
0000
0000
0000
0000
0000
0000
3001
0000
0000
0000
0000
0000
0000
0000
0000
1000
0000
0010
0000
0100
0000
,  // measure 10
0002
0000
0000
0000
0000
0000
0000
0000
0000
1003
0000
0000
0000
0000
0000
0000
0000
0000
0001
0000
0010
0000
0100
0000
,  // measure 11
2000
0000
0000
3001
0000
1000
0100
0001
,  // measure 12
0200
0000
0310
0002
0000
0000
2003
0000
,  // measure 13
3010
0000
1000
0001
1000
0000
0100
0000
0010
0000
0100
0000
0010
0000
0000
0000
,  // measure 14
0001
0000
0000
1000
0000
0000
0001
0000
0000
0000
0000
0000
0100
0000
0000
0000
0000
0000
0010
0000
0000
0000
0000
0000
0100
0000
0000
0000
0000
0000
0000
0000
0000
0000
0000
0000
0001
0000
0000
0000
1000
0000
0000
0000
0001
0000
0000
0000
,  // measure 15
1000
0000
0000
0100
0000
0000
0010
0000
0000
0001
0000
0000
0010
0000
0000
0100
0000
0000
1000
0000
0001
0000
1000
0000
,  // measure 16
0002
0000
0000
0000
0000
0000
0203
0000
0000
0000
0000
0000
0310
1000
0000
0010
,  // measure 17
1000
0000
0001
0000
0020
0000
0000
0100
0000
0130
0000
0000
1000
0000
0010
0000
,  // measure 18
1000
0000
0001
0000
0010
0000
0100
0000
2000
0000
0000
3001
0000
1001
0000
0000
,  // measure 19
0001
0000
1000
0000
0020
0000
0000
0100
0000
0130
0000
0000
0001
0000
0010
0000
,  // measure 20
0001
0000
1000
0000
0010
0000
0100
0000
0002
0000
0000
1003
0000
1001
0000
0000
,  // measure 21
1000
0000
0100
0000
0020
0000
0000
0001
0000
0031
0000
0000
1000
0000
0010
0000
,  // measure 22
1000
0000
0100
0000
1000
0000
0001
0000
0200
0000
0000
0310
0000
0110
0000
0000
,  // measure 23
0001
0000
0100
0000
0020
0000
0000
1000
0000
1030
0000
0000
0001
0000
0100
0000
,  // measure 24
1000
0100
0010
0100
0002
0000
2003
0000
,  // measure 25
3100
0000
0010
0000
0002
0000
0000
1000
0000
1003
0000
0000
0001
0000
0100
0000
,  // measure 26
0010
0000
1000
0000
0100
0000
1000
0000
0002
0000
0000
0103
0000
0101
0000
0000
,  // measure 27
0100
0000
0010
0000
2000
0000
0000
0001
0000
3001
0000
0000
1000
0000
0100
0000
,  // measure 28
0001
0100
0010
0100
2000
0000
3002
0000
,  // measure 29
1003
0000
0000
0010
1000
0000
0001
0000
0100
0000
0001
0000
0010
0000
0100
0000
,  // measure 30
1000
0001
0100
0002
0000
1003
0100
0010
,  // measure 31
0001
0000
0000
1000
0000
0000
2001
0000
0000
0000
3100
0000
0010
0000
0001
0000
,  // measure 32
0100
0001
0010
0200
0000
0000
1300
0000
,  // measure 33
0100
0001
0100
0010
0001
1000
0010
0100
,  // measure 34
0001
0100
1000
0200
0000
0000
0301
0000
,  // measure 35
0010
0000
1000
0000
0010
0000
0100
0000
1000
0000
0010
0000
0100
0000
0001
1000
,  // measure 36
0002
0000
0000
0000
0000
0000
0000
0000
0000
1003
0000
0000
0000
0000
0000
0000
0000
0000
1000
0000
0010
0000
0100
0000
,  // measure 37
0001
0000
0000
1000
0000
0000
0100
0000
0000
2000
0000
0000
0000
0000
0000
0000
0000
0000
3001
0000
0010
0000
0100
0000
,  // measure 38
1000
0000
0000
0001
0000
0000
0100
0000
0000
0002
0000
0000
0000
0000
0000
0000
0000
0000
1003
0000
0100
0000
0010
0000
,  // measure 39
0001
1000
0001
0200
0000
1300
0100
0001
,  // measure 40
2000
0000
0000
0000
0000
0000
3200
0000
0000
0000
0000
0000
0310
0000
0000
0001
,  // measure 41
1000
0010
1000
0100
0010
0001
1000
0000
,  // measure 42
0001
0000
0000
0100
0000
0000
1000
0000
0000
0100
0000
0000
0001
0000
0000
0000
0000
0000
1000
0000
0100
0000
0010
0000
,  // measure 43
0001
0000
0000
1000
0000
0000
0010
0000
0000
2000
0000
0000
0000
0000
0000
0000
0000
0000
3001
0000
0100
0000
0010
0000
,  // measure 44
1000
0001
0010
0002
0000
0000
2003
0000
,  // measure 45
3010
0010
0100
0100
,  // measure 46
0001
0001
1000
1000
,  // measure 47
0010
0000
0000
0100
0000
0000
0020
0000
0000
0000
0000
0000
0000
0000
1030
0000
,  // measure 48
0100
0000
0000
0000
0000
0000
0000
0000
0000
0010
0000
0000
0000
0000
0000
0000
0000
0000
0200
0000
0000
0000
0000
0000
0000
0000
0000
0000
0000
0000
0000
0000
0000
0000
0000
0000
1300
0000
0000
0000
0100
0000
0000
0000
0010
0000
0000
0000
,  // measure 49
0002
0000
0000
0000
0000
0000
1000
0000
0000
1003
0000
0000
0000
0000
0000
0000
0000
0000
0001
0000
0100
0000
0010
0000
,  // measure 50
2000
0000
0000
0000
0000
0000
0001
0000
0000
3001
0000
0000
0000
0000
0000
0000
0000
0000
1000
0000
0100
0000
0010
0000
,  // measure 51
0001
1000
0001
0010
0100
0001
0100
1000
,  // measure 52
0002
0000
0000
0000
1003
0000
0200
0000
0000
0000
0000
0000
0310
0001
0000
0010
,  // measure 53
0001
0000
1000
0000
0020
0000
0000
0100
0000
0130
0000
0000
0001
0000
0010
0000
,  // measure 54
0001
0000
1000
0000
0010
0000
0100
0000
0002
0000
0000
1003
0000
1001
0000
0000
,  // measure 55
1000
0000
0001
0000
0020
0000
0000
0100
0000
0130
0000
0000
1000
0000
0010
0000
,  // measure 56
1000
0000
0001
0000
0010
0000
0100
0000
2000
0000
0000
3001
0000
1001
0000
0000
,  // measure 57
0001
0000
0100
0000
0020
0000
0000
1000
0000
1030
0000
0000
0001
0000
0010
0000
,  // measure 58
0001
0000
0100
0000
0001
0000
1000
0000
0200
0000
0000
0310
0000
0110
0000
0000
,  // measure 59
1000
0000
0100
0000
0020
0000
0000
0001
0000
0031
0000
0000
1000
0000
0100
0000
,  // measure 60
0001
0100
0010
0100
2000
0000
3002
0000
,  // measure 61
0103
0000
0010
0000
2000
0000
0000
0001
0000
3001
0000
0000
1000
0000
0100
0000
,  // measure 62
0010
0000
0001
0000
0100
0000
0001
0000
2000
0000
0000
3100
0000
1100
0000
0000
,  // measure 63
0100
0000
0010
0000
0002
0000
0000
1000
0000
1003
0000
0000
0001
0000
0100
0000
,  // measure 64
1000
0100
0010
0100
0001
1000
0200
0000
,  // measure 65
0300
0000
0000
0000
;
