#VERSION:0.83;
#TITLE:Batida;
#SUBTITLE:;
#ARTIST:Rawtek & TropKillaz Ft. Heavy Baile;
#TITLETRANSLIT:;
#SUBTITLETRANSLIT:;
#ARTISTTRANSLIT:;
#GENRE:;
#ORIGIN:;
#CREDIT:;
#BANNER:Batida.png;
#BACKGROUND:Batida-bg.png;
#PREVIEWVID:;
#JACKET:Batida-jacket.png;
#CDIMAGE:;
#DISCIMAGE:;
#LYRICSPATH:;
#CDTITLE:cdtitle.png;
#MUSIC:Batida.ogg;
#OFFSET:-0.022000;
#SAMPLESTART:49.891998;
#SAMPLELENGTH:12.468000;
#SELECTABLE:YES;
#BPMS:0.000=154.000;
#STOPS:124.000=1.169,
281.000=1.169;
#DELAYS:;
#WARPS:;
#TIMESIGNATURES:0.000=4=4;
#TICKCOUNTS:0.000=4;
#COMBOS:0.000=1;
#SPEEDS:0.000=1.000=0.000=0;
#SCROLLS:0.000=1.000;
#FAKES:;
#LABELS:0.000=Song Start;
#LASTSECONDHINT:142.619003;
#BGCHANGES:;
#KEYSOUNDS:;
#ATTACKS:
;

//---------------dance-single - Pilgrimsito----------------
#NOTEDATA:;
#CHARTNAME:;
#STEPSTYPE:dance-single;
#DESCRIPTION:Pilgrimsito;
#CHARTSTYLE:;
#DIFFICULTY:Challenge;
#METER:16;
#RADARVALUES:0.712118,0.755939,0.664178,0.510368,0.384524,713.000000,618.000000,95.000000,73.000000,62.000000,0.000000,4.000000,0.000000,0.000000,0.712118,0.755939,0.664178,0.510368,0.384524,713.000000,618.000000,95.000000,73.000000,62.000000,0.000000,4.000000,0.000000,0.000000;
#CREDIT:Pilgrimsito;
#OFFSET:-0.022000;
#BPMS:0.000000=154.000000
;
#STOPS:124.000000=1.169000
,281.000000=1.169000
;
#DELAYS:;
#WARPS:;
#TIMESIGNATURES:0.000000=4=4
;
#TICKCOUNTS:0.000000=4
;
#COMBOS:0.000000=1
;
#SPEEDS:0.000000=1.000000=0.000000=0
;
#SCROLLS:0.000000=1.000000
,125.000000=0.500000
,125.500000=0.750000
,126.000000=1.000000
,126.500000=1.500000
,127.000000=1.000000
,133.000000=0.500000
,133.500000=0.750000
,134.000000=1.000000
,134.500000=1.500000
,135.000000=1.000000
,141.000000=0.500000
,141.500000=0.750000
,142.000000=1.000000
,142.500000=1.500000
,143.000000=1.000000
,149.000000=0.500000
,149.500000=0.750000
,150.000000=1.000000
,150.500000=1.500000
,151.000000=1.000000
,157.000000=0.500000
,157.500000=0.750000
,158.000000=1.000000
,158.500000=1.500000
,159.000000=1.000000
,165.000000=0.500000
,165.500000=0.750000
,166.000000=1.000000
,166.500000=1.500000
,167.000000=1.000000
,173.000000=0.500000
,173.500000=0.750000
,174.000000=1.000000
,174.500000=1.500000
,175.000000=1.000000
,181.000000=0.500000
,181.500000=0.750000
,182.000000=1.000000
,185.000000=1.500000
,185.500000=0.500000
,186.000000=1.000000
,282.000000=2.000000
,282.500000=1.000000
,283.000000=0.500000
,284.000000=1.000000
,298.000000=2.000000
,298.500000=1.000000
,299.000000=0.500000
,300.000000=1.000000
,314.000000=2.000000
,314.500000=1.000000
,315.000000=0.500000
,316.000000=1.000000
,330.000000=2.000000
,330.500000=1.000000
,331.000000=0.500000
,331.500000=1.000000
,342.000000=1.500000
,342.500000=0.500000
,343.000000=1.000000
;
#FAKES:;
#LABELS:0.000000=Song Start
;
#NOTES:
// measure 0
0000
0000
0000
0000
,  // measure 1
0000
0000
0000
0000
,  // measure 2
0000
0000
0000
0000
,  // measure 3
0000
0000
0000
0000
0000
0000
1000
0001
,  // measure 4
0100
0100
0001
1000
0100
0000
1000
0001
,  // measure 5
0010
0010
0001
1000
0010
0000
1000
0001
,  // measure 6
0100
0100
0001
1000
0100
0000
1000
0001
,  // measure 7
0010
0010
0001
1000
0010
0000
1000
0001
,  // measure 8
0100
0000
0100
0000
0001
0000
1000
0010
0100
0000
0001
0000
1000
0000
0001
0010
,  // measure 9
0100
0000
0100
0010
0001
0000
1000
0000
0001
0000
0100
0000
1000
0000
0100
0000
,  // measure 10
0002
0000
0003
0000
1000
0000
0100
0010
0001
0000
1000
0000
0001
0000
0100
0010
,  // measure 11
1000
0001
1000
0100
0001
0100
1000
0010
,  // measure 12
0200
0000
0300
0000
0001
0000
1000
0100
0010
0000
0001
0000
1000
0000
0001
0100
,  // measure 13
0010
0000
0010
0100
0001
0000
1000
0000
0001
0000
0010
0000
1000
0000
0010
0000
,  // measure 14
0002
0000
0003
0000
1000
0000
0010
0100
0001
0000
1000
0000
0001
0000
0010
0100
,  // measure 15
1000
0100
0040
0000
0000
0000
0000
0030
,  // measure 16
1001
0000
1000
0010
0001
0010
0100
0010
,  // measure 17
1000
0000
1000
0000
0001
0000
0010
0000
1000
0000
0010
0000
0001
0000
0100
0010
,  // measure 18
0100
0001
1000
0100
0001
0100
0010
0100
,  // measure 19
1000
0000
0010
0000
0002
0000
0000
0000
0013
0000
1000
0000
0001
0000
0010
0100
,  // measure 20
0010
0001
1000
0010
0001
0010
0100
0010
,  // measure 21
1000
0000
0100
0000
0000
MMMM
0000
0000
0001
0000
0010
0000
0001
0000
0100
0010
,  // measure 22
0100
0001
1000
0100
0001
0100
0010
0100
,  // measure 23
1000
0000
0010
0000
0002
0000
0000
0000
0013
0000
1000
0000
0001
0000
0010
0100
,  // measure 24
0010
0001
1000
0010
0200
0000
230M
310M
,  // measure 25
200M
0000
310M
0000
200M
0000
310M
0000
200M
0000
310M
0000
0010
0000
1000
0001
,  // measure 26
1000
0010
0100
0001
0020
0000
203M
301M
,  // measure 27
200M
0000
301M
0000
200M
0000
301M
0000
200M
0000
301M
0000
0100
0000
1000
0001
,  // measure 28
1000
0100
0010
0001
0200
0000
0302
0010
,  // measure 29
2003
0010
3002
0100
2003
0100
3002
0010
,  // measure 30
1003
0001
1000
0001
0100
0010
0100
0010
1000
0100
1000
0100
0010
0001
0010
0001
,  // measure 31
1000
0000
1001
0000
MMMM
0000
2020
3030
,  // measure 32
1100
1000
0010
0100
0110
0010
1010
1000
,  // measure 33
0100
0010
0120
0000
1000
0030
0022
0033
,  // measure 34
0101
0000
0101
0000
0100
0000
0110
0000
0010
0000
1000
0000
1100
0000
0100
1000
,  // measure 35
0001
0100
0110
0000
MMMM
0000
2002
3003
,  // measure 36
1100
1000
0010
0100
0110
0010
1010
1000
,  // measure 37
0100
0010
0210
0000
0001
0300
2200
3300
,  // measure 38
1010
0000
0110
0000
1010
0000
1010
0000
1100
0000
1100
0000
0110
0000
0010
0100
,  // measure 39
1000
0001
1001
0000
MMMM
0000
0022
0033
,  // measure 40
0101
0001
0010
0100
0110
0010
0011
0001
,  // measure 41
0100
0010
0120
0000
0001
0030
2020
3030
,  // measure 42
1100
0000
1100
0000
0100
0000
0110
0000
0010
0000
0001
0000
0101
0000
0100
0001
,  // measure 43
1000
0100
0110
0000
MMMM
0000
2002
3003
,  // measure 44
0101
0001
0010
0100
0110
0010
0011
0001
,  // measure 45
0100
0010
0210
0000
0301
1000
1100
0100
,  // measure 46
0010
0000
0001
0000
0200
0300
0000
0000
0040
0000
0000
0000
0000
0000
0000
0000
,  // measure 47
0030
0000
MMMM
0000
1001
0000
0000
0000
1000
0000
0001
0010
1000
0000
0010
0000
,  // measure 48
0001
0000
1000
0010
0001
0000
0001
0010
1000
0000
0001
0000
1000
0000
0100
0000
,  // measure 49
0010
0000
0001
0000
0202
0000
0303
0000
0001
0000
0010
0001
0100
0000
0001
0000
,  // measure 50
0010
0000
0100
1000
0010
0000
1000
0000
0100
0000
0010
0000
0100
0000
1000
0000
,  // measure 51
0010
0000
0100
0000
0220
0000
0330
0000
0001
0000
1000
0100
0001
0000
0100
0000
,  // measure 52
1000
0000
0001
0100
1000
0000
1000
0100
0001
0000
1000
0000
0001
0000
0010
0000
,  // measure 53
0100
0000
1000
0000
2020
0000
3030
0000
1000
0000
0100
1000
0010
0000
1000
0000
,  // measure 54
0100
0000
0010
0001
0100
0000
0001
0000
0040
0000
0000
0000
0000
0000
0000
0000
,  // measure 55
0000
0030
1001
0000
0001
0010
1000
0010
,  // measure 56
0100
0010
0001
0001
1000
0010
0001
0010
,  // measure 57
1000
0000
0100
0010
0100
0000
1000
0000
0001
0000
0100
0000
1000
0000
0100
0000
,  // measure 58
0010
0100
0001
0010
2000
0000
3010
0001
,  // measure 59
1000
0000
0010
0100
0010
0000
1000
0000
0001
0000
0010
0000
1000
0000
0010
0000
,  // measure 60
0100
0010
0001
0100
0002
0000
1003
0010
,  // measure 61
1000
0000
0100
0010
0100
0000
1000
0000
0001
0000
0100
0000
1000
0000
0100
0000
,  // measure 62
0010
0000
0100
0000
0001
0000
1000
0100
1000
0000
0002
0000
0003
0000
0100
0000
,  // measure 63
0100
0000
0010
0100
0010
0000
1000
0000
0001
0000
0010
0000
0200
0000
0000
0000
,  // measure 64
M302
M103
M002
M103
M002
M103
M002
M103
,  // measure 65
0010
0000
0001
1000
0001
0000
0010
0000
0100
0000
1000
0000
0020
0000
0000
0000
,  // measure 66
M032
M013
M002
M013
M002
M013
M002
M013
,  // measure 67
0100
0000
0001
1000
0001
0000
0100
0000
0010
0000
1000
0000
0200
0000
0000
0000
,  // measure 68
2300
0010
3002
0010
2003
0100
3002
0100
,  // measure 69
2003
0000
0000
0010
0000
0000
3001
0000
1000
0000
0010
0000
0100
0000
0010
0000
0100
0000
0001
0000
0010
0000
0100
0000
,  // measure 70
0010
0100
1000
0001
0000
0000
0101
0000
0000
0000
0000
0000
,  // measure 71
0012
0000
0000
0103
0000
0000
0001
0010
001M
1000
0001
0100
,  // measure 72
0001
0010
001M
1000
0001
0100
0001
0010
001M
1000
0001
0100
,  // measure 73
0110
0000
0000
1000
0100
0010
0110
0000
1100
0000
1010
0000
,  // measure 74
0110
0000
1010
0000
1100
0000
1001
0000
0000
0000
0000
0000
,  // measure 75
2010
0000
0000
3100
0000
0000
1000
0010
M010
0001
1000
0100
,  // measure 76
1000
0010
M010
0001
1000
0100
1000
0010
M010
0001
1000
0100
,  // measure 77
0110
0000
0000
0001
0100
0010
0110
0000
0101
0000
0011
0000
,  // measure 78
0110
0000
0000
0100
0000
1000
1001
0000
0000
0000
0000
0000
,  // measure 79
0102
0000
0000
0013
0000
0000
1100
0000
1010
0000
0110
0000
,  // measure 80
0101
0000
0011
0000
0001
1000
1010
0000
0101
0000
1010
0000
,  // measure 81
2002
0000
0000
3003
0000
0000
0001
0000
1000
0000
0100
0000
0110
0000
0000
0000
1100
0000
0000
0000
1010
0000
0000
0000
,  // measure 82
0110
0000
0000
0000
1010
0000
0000
0000
1100
0000
0000
0000
1001
0000
0000
0000
0000
0000
0000
0000
0000
0001
0000
0000
,  // measure 83
2100
0000
0000
3010
0000
0000
0101
0000
0011
0000
0110
0000
,  // measure 84
1100
0000
1010
0000
1000
0001
0011
0000
1100
0000
0011
0000
,  // measure 85
2002
0000
0000
3003
0000
0000
1000
0000
0001
0000
0100
0000
0110
0000
0000
0000
0000
0000
0040
0000
0000
0000
0000
0000
,  // measure 86
0000
0000
0000
0030
1001
0000
0000
0000
;

//---------------dance-single - Pilgrimsito----------------
#NOTEDATA:;
#CHARTNAME:;
#STEPSTYPE:dance-single;
#DESCRIPTION:Pilgrimsito;
#CHARTSTYLE:;
#DIFFICULTY:Hard;
#METER:13;
#RADARVALUES:0.621231,0.755939,0.237706,0.377533,0.297132,622.000000,588.000000,34.000000,54.000000,16.000000,0.000000,4.000000,0.000000,0.000000,0.621231,0.755939,0.237706,0.377533,0.297132,622.000000,588.000000,34.000000,54.000000,16.000000,0.000000,4.000000,0.000000,0.000000;
#CREDIT:Pilgrimsito;
#OFFSET:-0.022000;
#BPMS:0.000000=154.000000
;
#STOPS:124.000000=1.169000
,281.000000=1.169000
;
#DELAYS:;
#WARPS:;
#TIMESIGNATURES:0.000000=4=4
;
#TICKCOUNTS:0.000000=4
;
#COMBOS:0.000000=1
;
#SPEEDS:0.000000=1.000000=0.000000=0
;
#SCROLLS:0.000000=1.000000
,125.000000=0.500000
,125.500000=0.750000
,126.000000=1.000000
,126.500000=1.500000
,127.000000=1.000000
,133.000000=0.500000
,133.500000=0.750000
,134.000000=1.000000
,134.500000=1.500000
,135.000000=1.000000
,141.000000=0.500000
,141.500000=0.750000
,142.000000=1.000000
,142.500000=1.500000
,143.000000=1.000000
,149.000000=0.500000
,149.500000=0.750000
,150.000000=1.000000
,150.500000=1.500000
,151.000000=1.000000
,157.000000=0.500000
,157.500000=0.750000
,158.000000=1.000000
,158.500000=1.500000
,159.000000=1.000000
,165.000000=0.500000
,165.500000=0.750000
,166.000000=1.000000
,166.500000=1.500000
,167.000000=1.000000
,173.000000=0.500000
,173.500000=0.750000
,174.000000=1.000000
,174.500000=1.500000
,175.000000=1.000000
,181.000000=0.500000
,181.500000=0.750000
,182.000000=1.000000
,185.000000=1.500000
,185.500000=0.500000
,186.000000=1.000000
,282.000000=2.000000
,282.500000=1.000000
,283.000000=0.500000
,284.000000=1.000000
,298.000000=2.000000
,298.500000=1.000000
,299.000000=0.500000
,300.000000=1.000000
,314.000000=2.000000
,314.500000=1.000000
,315.000000=0.500000
,316.000000=1.000000
,330.000000=2.000000
,330.500000=1.000000
,331.000000=0.500000
,331.500000=1.000000
,342.000000=1.500000
,342.500000=0.500000
,343.000000=1.000000
;
#FAKES:;
#LABELS:0.000000=Song Start
;
#NOTES:
// measure 0
0000
0000
0000
0000
,  // measure 1
0000
0000
0000
0000
,  // measure 2
0000
0000
0000
0000
,  // measure 3
0000
0000
0000
0000
0000
0000
0001
1000
,  // measure 4
0100
0010
0100
1000
0001
0000
0001
1000
,  // measure 5
0010
0100
0010
1000
0001
0000
0001
1000
,  // measure 6
0100
0010
0100
1000
0001
0000
0001
1000
,  // measure 7
0010
0100
0010
1000
0001
0000
0001
1000
,  // measure 8
0100
0010
0001
0100
010M
1000
0001
0100
,  // measure 9
010M
1000
0001
0010
0100
0010
0001
0100
,  // measure 10
0020
0030
1000
0100
M100
0001
1000
0100
,  // measure 11
M100
0001
1000
0010
0100
0010
1000
0100
,  // measure 12
0020
0030
0001
0100
010M
1000
0001
0100
,  // measure 13
010M
1000
0001
0010
0100
0010
0001
0100
,  // measure 14
0020
0030
1000
0100
M100
0001
1000
0100
,  // measure 15
M100
0001
0400
0000
0000
0000
0000
0300
,  // measure 16
1001
0000
0001
0100
1000
0100
0001
0100
,  // measure 17
0010
0000
0010
0000
1000
0000
0100
0000
0010
0000
0100
0000
1000
0000
0001
0100
,  // measure 18
0001
1000
0001
0010
1000
0010
0001
0010
,  // measure 19
0100
0000
0100
0000
2000
0000
0000
0000
3001
0000
0100
0000
0010
0000
1000
0001
,  // measure 20
1000
0010
1000
0100
0001
0100
1000
0100
,  // measure 21
0010
0000
0010
0000
0002
0000
0000
0000
1003
0000
1000
0000
0010
0000
1000
0100
,  // measure 22
1000
0001
1000
0010
0001
0010
1000
0010
,  // measure 23
0100
0000
0100
0000
0002
0000
0000
0000
1003
0000
1000
0000
0100
0000
1000
0010
,  // measure 24
1000
0001
1000
0100
0020
0000
0130
0100
,  // measure 25
1000
0000
1000
0000
0010
0000
0010
0000
0100
0000
0100
0000
0001
0000
1000
0100
,  // measure 26
1000
0001
1000
0010
0200
0000
0310
0010
,  // measure 27
1000
0000
1000
0000
0100
0000
0100
0000
0010
0000
0010
0000
0001
0000
1000
0010
,  // measure 28
1000
0001
1000
0100
0020
0000
0130
0100
,  // measure 29
1000
1000
0010
0010
0100
0100
0001
0001
,  // measure 30
0010
0100
0010
0100
0010
0100
0010
0100
0010
0100
0010
0100
0010
0100
0010
0100
,  // measure 31
0010
0000
0110
0000
0000
0000
2002
3003
,  // measure 32
0001
0100
0010
0001
0010
0100
0001
0010
,  // measure 33
1000
0010
0022
0000
0000
0033
2002
3003
,  // measure 34
1000
0100
0001
0100
0010
0001
0100
0010
,  // measure 35
0010
1000
1100
0000
0000
0000
2002
3003
,  // measure 36
0001
0100
0010
0001
0010
0100
0001
0010
,  // measure 37
1000
0010
0022
0000
0000
0033
2002
3003
,  // measure 38
1000
0010
0110
0100
0101
0001
1001
0000
,  // measure 39
0010
0100
0110
0000
0000
0000
2002
3003
,  // measure 40
1000
0100
0010
1000
0010
0100
1000
0010
,  // measure 41
0001
0010
2020
0000
0000
3030
2002
3003
,  // measure 42
0001
0100
1000
0100
0010
1000
0100
0010
,  // measure 43
0010
0001
0101
0000
0000
0000
2002
3003
,  // measure 44
1000
0100
0010
1000
0010
0100
1000
0010
,  // measure 45
0001
0010
2020
0000
0000
3030
2002
3003
,  // measure 46
1000
0000
0001
0000
0020
0030
0000
0000
0400
0000
0000
0000
0000
0000
0000
0000
,  // measure 47
0000
0300
1001
0000
1000
0010
M010
0001
,  // measure 48
1000
0010
M010
0001
1000
0100
0010
0100
,  // measure 49
1000
0010
0200
0300
0001
0010
001M
1000
,  // measure 50
0001
0010
001M
1000
0001
0100
0010
0100
,  // measure 51
0001
0010
0200
0300
1000
0010
M010
0001
,  // measure 52
1000
0010
M010
0001
1000
0100
0010
0100
,  // measure 53
1000
0010
0200
0300
0001
0010
001M
1000
,  // measure 54
0001
0010
001M
1000
0400
0000
0000
0000
,  // measure 55
0000
0300
1001
0000
1000
0010
0001
0010
,  // measure 56
1000
0010
0100
0100
0001
0010
0100
0010
,  // measure 57
0001
0000
1000
0010
1000
0000
0001
0000
1000
0000
0100
0000
0001
0000
0100
0000
,  // measure 58
1000
0100
0010
0010
0002
0000
1003
0010
,  // measure 59
0100
0000
0001
1000
0001
0000
0100
0000
0001
0000
0010
0000
1000
0000
0010
0000
,  // measure 60
0001
0010
0100
0100
2000
0000
3001
0001
,  // measure 61
0100
0000
0001
0010
0001
0000
1000
0000
0001
0000
0100
0000
1000
0000
0100
0000
,  // measure 62
0001
0100
0010
1000
1000
0200
0300
1000
,  // measure 63
0001
0000
0100
0010
0100
0000
0001
0000
0001
0000
0010
0000
0200
0000
0000
0000
,  // measure 64
0310
0010
0001
0001
0100
0100
0010
0010
,  // measure 65
1000
0000
0001
0010
0001
0000
1000
0000
0001
0000
0100
0000
0020
0000
0000
0000
,  // measure 66
0130
0100
0001
0001
0010
0010
0100
0100
,  // measure 67
1000
0000
0001
0100
0001
0000
1000
0000
0001
0000
0010
0000
0200
0000
0000
0000
,  // measure 68
0310
0010
0001
0001
0100
0100
0010
0010
,  // measure 69
1000
0000
0000
1000
0000
0000
0100
0000
0010
0000
0100
0000
0010
0000
0100
0000
0010
0000
0100
0000
0010
0000
0100
0000
,  // measure 70
0010
0100
0010
0100
0000
0000
1001
0000
0000
0000
0000
0000
,  // measure 71
2000
0000
0000
3010
0000
0000
1000
0100
0010
0001
1000
0001
,  // measure 72
1000
0010
0100
0001
1000
0001
1000
0100
0010
0001
1000
0001
,  // measure 73
2000
0000
0000
3001
0100
0001
0020
0000
0100
0000
0031
0000
,  // measure 74
0020
0000
0100
0000
0031
0000
1001
0000
0000
0000
0000
0000
,  // measure 75
0002
0000
0000
0013
0000
0000
0001
0100
0010
1000
0001
1000
,  // measure 76
0001
0010
0100
1000
0001
1000
0001
0100
0010
1000
0001
1000
,  // measure 77
0002
0000
0000
1003
0100
1000
0020
0000
0100
0000
1030
0000
,  // measure 78
0110
0000
0000
1000
0000
0100
0010
0000
0000
0000
0000
0000
,  // measure 79
0002
0000
0000
0103
0000
0000
0011
0000
0001
0000
1000
0000
,  // measure 80
1010
0000
1000
0000
0001
0010
0100
0000
0010
0000
0001
0000
,  // measure 81
0102
0000
0000
1003
0100
0010
0001
0000
0100
0000
0010
0000
,  // measure 82
1001
0000
0000
0000
0100
0000
0000
0000
0010
0000
0000
0000
1001
0000
0000
0000
0000
0000
0000
0000
0000
0001
0000
0000
,  // measure 83
2000
0000
0000
3100
0000
0000
1010
0000
1000
0000
0001
0000
,  // measure 84
0011
0000
0001
0000
1000
0010
0100
0000
0010
0000
1000
0000
,  // measure 85
2100
0000
0000
3001
0100
0010
1000
0000
0000
0400
0000
0000
,  // measure 86
0000
0000
0000
0300
1001
0000
0000
0000
;

//---------------dance-single - Pilgrimsito----------------
#NOTEDATA:;
#CHARTNAME:;
#STEPSTYPE:dance-single;
#DESCRIPTION:Pilgrimsito;
#CHARTSTYLE:;
#DIFFICULTY:Medium;
#METER:12;
#RADARVALUES:0.515362,0.483801,0.272662,0.167792,0.066418,516.000000,477.000000,39.000000,24.000000,0.000000,0.000000,0.000000,0.000000,0.000000,0.515362,0.483801,0.272662,0.167792,0.066418,516.000000,477.000000,39.000000,24.000000,0.000000,0.000000,0.000000,0.000000,0.000000;
#CREDIT:Pilgrimsito;
#OFFSET:-0.022000;
#BPMS:0.000000=154.000000
;
#STOPS:124.000000=1.169000
,281.000000=1.169000
;
#DELAYS:;
#WARPS:;
#TIMESIGNATURES:0.000000=4=4
;
#TICKCOUNTS:0.000000=4
;
#COMBOS:0.000000=1
;
#SPEEDS:0.000000=1.000000=0.000000=0
;
#SCROLLS:0.000000=1.000000
;
#FAKES:;
#LABELS:0.000000=Song Start
;
#NOTES:
// measure 0
0000
0000
0000
0000
,  // measure 1
0000
0000
0000
0000
,  // measure 2
0000
0000
0000
0000
,  // measure 3
0000
0000
0000
0000
,  // measure 4
1000
0100
0001
0100
,  // measure 5
1000
0010
0001
0010
,  // measure 6
1000
0100
0001
0100
,  // measure 7
1000
0010
0001
0010
,  // measure 8
1000
0000
0001
0100
0010
0000
0010
0100
,  // measure 9
0001
0000
0001
0010
0100
0010
0100
1000
,  // measure 10
0001
0000
1000
0100
0010
0000
0010
0100
,  // measure 11
1000
0000
1000
0010
0100
0010
1000
0100
,  // measure 12
0010
0000
0001
0100
0010
0000
0010
0100
,  // measure 13
0001
0000
0001
0010
0100
0010
0100
1000
,  // measure 14
0001
0000
1000
0100
0010
0000
0010
0100
,  // measure 15
1000
0001
2000
0000
0000
0000
3000
0000
,  // measure 16
1001
0000
0001
0100
0010
0100
0001
0100
,  // measure 17
0010
0100
0001
0000
1000
0001
0100
0001
,  // measure 18
1000
0000
0001
0010
0100
0010
0001
0010
,  // measure 19
0100
0010
0001
0000
1000
0010
0100
0001
,  // measure 20
1000
0000
1000
0100
0010
0100
1000
0100
,  // measure 21
0010
0100
1000
0000
0001
1000
0100
1000
,  // measure 22
0001
0000
1000
0010
0100
0010
1000
0010
,  // measure 23
0100
0010
1000
0000
0001
0010
0100
1000
,  // measure 24
0001
0000
1000
0100
2000
0000
3010
0100
,  // measure 25
0010
0100
0010
0100
0010
0100
0001
1000
,  // measure 26
0001
0000
1000
0010
2000
0000
3100
0010
,  // measure 27
0100
0010
0100
0010
0100
0010
0001
1000
,  // measure 28
0001
0000
1000
0100
2000
0000
3010
0100
,  // measure 29
0010
0100
0010
0100
0010
0100
0001
1000
,  // measure 30
0002
0010
0010
0010
,  // measure 31
0013
1001
0000
0110
,  // measure 32
1000
0001
0100
0001
1000
0001
0010
0001
,  // measure 33
1000
0001
1001
0000
0000
0000
0110
0000
,  // measure 34
0001
0010
0100
1000
0010
0100
0001
0010
,  // measure 35
0100
1000
1001
0000
0000
0000
0110
0000
,  // measure 36
0001
1000
0100
1000
0001
1000
0010
1000
,  // measure 37
0001
1000
1001
0000
0000
0000
0110
0000
,  // measure 38
1000
0010
0100
0001
0010
0100
1000
0010
,  // measure 39
0100
0001
1001
0000
0000
0000
0110
0000
,  // measure 40
1000
0001
0100
0001
0010
0001
0100
0001
,  // measure 41
1000
0001
1001
0000
0000
0000
0110
0000
,  // measure 42
0001
0010
0100
0010
0001
0100
0010
0100
,  // measure 43
0001
1000
1001
0000
0000
0000
0110
0000
,  // measure 44
0001
1000
0100
1000
0010
1000
0100
1000
,  // measure 45
0001
1000
1001
0000
0000
0000
0110
0000
,  // measure 46
1000
0100
0010
0000
0002
0000
0000
0000
,  // measure 47
0003
0000
1001
0000
0001
0100
1000
0000
,  // measure 48
1000
0100
0001
0000
0001
0010
0100
0010
,  // measure 49
0100
1000
0001
0000
1000
0100
0001
0000
,  // measure 50
0001
0100
1000
0000
1000
0010
0100
0010
,  // measure 51
1000
0100
0010
0000
0001
0100
1000
0000
,  // measure 52
1000
0100
0001
0000
0001
0010
0100
0010
,  // measure 53
0100
1000
0001
0000
1000
0100
0001
0000
,  // measure 54
0001
0100
1000
0001
2000
0000
0000
0000
,  // measure 55
3000
0000
1001
0000
1000
0010
0100
0010
,  // measure 56
1000
0010
0100
0010
1000
0000
0001
1000
,  // measure 57
0010
1000
0001
0000
1000
0100
0010
0100
,  // measure 58
1000
0100
0010
0100
1000
0000
0001
0100
,  // measure 59
0010
1000
0001
0000
0001
0010
0100
0010
,  // measure 60
0001
0010
0100
0010
0001
0000
1000
0001
,  // measure 61
0010
0001
1000
0000
0001
0100
0010
0100
,  // measure 62
0001
0100
0010
0000
0000
0000
1000
0000
,  // measure 63
0001
0000
1000
0000
0001
0010
0002
0000
,  // measure 64
0103
0010
0100
0010
0100
0010
0100
0010
,  // measure 65
1000
0001
1000
0000
0001
0100
0002
0000
,  // measure 66
0013
0100
0010
0100
0010
0100
0010
0100
,  // measure 67
1000
0001
1000
0000
0001
0010
0002
0000
,  // measure 68
0103
0010
0100
0010
0100
0010
0100
0010
,  // measure 69
1000
0001
2000
0000
0100
0000
0100
0000
,  // measure 70
0100
3100
1001
0000
,  // measure 71
0001
0010
2001
3100
,  // measure 72
1002
0103
2001
3100
,  // measure 73
1001
0000
0000
1000
0100
1000
0100
0000
0010
0000
0010
0000
,  // measure 74
0001
0000
0100
0000
0100
0000
1001
0000
0000
0000
0000
0000
,  // measure 75
1000
0010
1002
0103
,  // measure 76
2001
3100
1002
0103
,  // measure 77
1001
0000
0000
0001
0100
0001
0100
0000
0010
0000
0010
0000
,  // measure 78
1000
0000
0000
0001
0000
1000
0001
0000
0000
0000
0000
0000
,  // measure 79
1000
0100
1002
0013
,  // measure 80
2001
3010
1002
0013
,  // measure 81
1001
0000
0000
0001
0010
0001
0010
0000
0100
0000
0100
0000
,  // measure 82
1000
0000
0010
0000
0010
0000
1001
0000
0000
0000
0000
0000
,  // measure 83
0001
0100
2001
3010
,  // measure 84
1002
0013
2001
3010
,  // measure 85
1001
0000
0000
1000
0010
1000
0010
0000
0000
0200
0000
0000
,  // measure 86
0000
0300
1001
0000
;
