#TITLE:BLUE MIRAGE;
#SUBTITLE:;
#ARTIST:DJ CHUCKY;
#TITLETRANSLIT:;
#SUBTITLETRANSLIT:;
#ARTISTTRANSLIT:;
#GENRE:;
#CREDIT:;
#MUSIC:BLUE MIRAGE.ogg;
#BANNER:BR2024-bn.png;
#BACKGROUND:BR2024-bg.png;
#CDTITLE:;
#SAMPLESTART:46.193;
#SAMPLELENGTH:12.000;
#SELECTABLE:YES;
#OFFSET:-0.313;
#BPMS:0.000=170.000
,114.000=340.000
,364.000=170.000
,365.000=85.000
,365.500=42.500
,366.000=170.000
,394.000=340.000
,398.000=170.000
,412.000=340.000
,414.000=170.000
,423.667=340.000
,427.000=170.000
,427.500=85.000
,428.000=42.500
;
#STOPS:77.500=1.411
,81.500=1.411
,114.000=2.470
,394.000=0.118
,394.667=0.059
,395.000=0.118
,395.667=0.059
,396.000=0.118
,396.667=0.059
,397.000=0.059
,397.333=0.059
,397.667=0.059
,412.000=0.118
,412.667=0.118
,413.333=0.118
,423.667=0.059
,424.000=0.118
,424.667=0.059
,425.000=0.118
,425.667=0.059
;
#DISPLAYBPM:170.000:340.000;
#BGCHANGES:1.625=BLUE MIRAGE.avi=1.000=0=0=0=StretchNoLoop====,
99999.000=-nosongbg-=1.000=0=0=0=StretchNoLoop====
;
#FGCHANGES:;

//--------------- dance-single - Peter ----------------
#NOTES:
     dance-single:
     Peter:
     Beginner:
     7:
     0,0,0,0,0:
0000
0000
0000
0000
,
0000
0000
0000
0000
,
0000
0000
0000
0000
,
0000
0000
0000
0000
,
0000
0000
0000
0000
,
0000
0000
0000
0000
,
0000
0000
0000
0000
,
0000
0000
0000
0000
,
0000
0000
0000
0000
,
0000
0000
0000
0000
,
0000
0000
1000
0000
,
0010
0000
0100
0000
,
0001
0000
0010
0000
,
1000
0000
0010
0000
,
0001
0000
0100
0000
,
0010
0000
1000
0000
,
0100
0000
0010
0000
,
0001
0000
0100
0000
,
0010
0000
1000
1000
,
1000
0000
0000
0000
0000
0000
0000
0000
0000
0000
0000
0000
2000
3000
0000
0000
0001
0000
0000
0000
0000
0000
0000
0000
0001
0000
0000
0000
0000
0000
0000
0000
,
0001
0000
0000
0000
0000
0000
0000
0000
0000
0000
0000
0000
0002
0003
0000
0000
0100
0000
0000
0000
0000
0000
0000
0000
0100
0000
0000
0000
0000
0000
0000
0000
,
0100
0000
0010
0010
,
0010
0000
1000
1000
,
1000
0000
0001
0001
,
0001
0000
1000
0100
,
0010
0001
1000
0010
,
0100
0001
1000
0100
,
0001
0100
1000
0010
,
0001
0000
0000
0000
0000
0000
0000
0000
0010
0000
0000
0000
0000
0000
0000
0000
2000
3000
0000
0000
0000
0000
0000
0000
0000
0000
0000
0000
0000
0000
0000
0000
,
0001
0000
0100
0000
,
0001
0000
0100
0000
,
1000
0000
0010
0000
,
1000
0000
0010
0000
,
0001
0000
0010
0000
,
0001
0000
0010
0000
,
0001
0000
1000
0000
,
0001
0000
1000
0000
,
0010
0000
0001
0000
,
0010
0000
0001
0000
,
0100
0000
1000
0000
,
0100
0000
1000
0000
,
0010
0000
0100
0000
,
0010
0000
0100
0000
,
0001
0000
1000
0000
,
0001
0000
1000
0000
,
0001
0000
0010
0000
,
0001
0000
0010
0000
,
1000
0000
0100
0000
,
1000
0000
0100
0000
,
0001
0000
0100
0000
,
0001
0000
0100
0000
,
0001
0000
1000
0000
,
0001
0000
1000
0000
,
0100
0000
0001
0000
,
0100
0000
0001
0000
,
0010
0000
1000
0000
,
0010
0000
1000
0000
,
0010
0000
0100
0000
,
0010
0000
0100
0000
,
1001
0000
0000
0000
,
0000
0000
0000
0000
,
1000
0000
0100
0000
,
0001
0000
0100
0000
,
1000
0000
0010
0000
,
0100
0000
1000
0000
,
0100
0000
0010
0000
,
1000
0000
0100
0000
,
0010
0000
0100
0000
,
0001
0000
1000
0000
,
0010
0000
0001
0000
,
0100
0000
0010
0000
,
0001
0000
0010
0000
,
0100
0000
0001
0000
,
0010
0000
0100
0000
,
0001
0000
0100
0000
,
0010
0000
0001
0000
,
1000
0000
0001
0000
,
1000
0000
0010
0000
,
0001
0000
1000
0000
,
0001
0000
0010
0000
,
0100
0000
0001
0000
,
0010
0000
1000
0000
,
0001
0000
0100
0000
,
0010
0000
1000
0000
,
0010
0000
0001
0000
,
1000
0000
0010
0000
,
0001
0000
0010
0000
,
1000
0000
0100
0000
,
0001
0000
0100
0000
,
1000
0000
0001
0000
,
1000
0000
0001
0000
,
2002
0000
0000
0000
0000
0000
0000
3003
1000
0000
0000
0000
0100
0000
0000
0000
,
0001
0000
0010
0001
,
0100
0000
1000
0010
,
0001
0000
0010
1000
,
0100
0010
0001
0100
,
1000
0000
0010
1000
,
0100
0000
0001
0010
,
1000
0000
0200
0302
,
2003
0000
3001
0010
,
1000
0000
0100
0001
,
0100
0000
1000
0010
,
0001
0000
0100
0010
,
0002
0000
1003
0100
,
0001
0000
0010
1000
,
0100
0000
0001
0000
,
0000
0000
2002
0000
,
0000
3003
0000
0000
0000
0000
0000
0000
;

//--------------- dance-single - Peter ----------------
#NOTES:
     dance-single:
     Peter:
     Easy:
     12:
     0,0,0,0,0:
0000
0000
0000
0000
,
0000
0000
0000
0000
,
0000
0000
0000
0000
,
0000
0000
0000
0000
,
0000
0000
0000
0000
,
0000
0000
0000
0000
,
0000
0000
0000
0000
,
0000
0000
0000
0000
,
0000
0000
0000
0000
,
0000
0000
0000
0000
,
0000
0000
1000
1010
,
0000
0001
0010
0000
0100
0000
1100
0000
,
0000
0010
0001
0000
1000
0000
0110
0000
,
0000
1000
0001
0000
0010
0100
0010
0000
,
0001
1000
0001
0100
0001
0000
0011
0000
,
0000
1000
0010
0000
0100
0000
0101
0000
,
0000
0010
1000
0000
0001
0000
0110
0000
,
0000
1000
0001
0100
0010
0000
1001
0000
,
0001
0000
1000
0001
1000
0100
1000
0000
,
1000
0000
0000
0000
0000
0000
0000
0000
1000
0000
0000
0000
0200
0300
0000
0000
0001
0000
0000
0000
0010
0000
0000
0000
0001
0000
0000
0000
0000
0000
0000
0000
,
0001
0000
0000
0000
0000
0000
0000
0000
0001
0000
0000
0000
0020
0030
0000
0000
1000
0000
0000
0000
0010
0000
0000
0000
1000
0000
0000
0000
0000
0000
0000
0000
,
1000
0000
1000
0000
0001
0010
0001
0000
,
0001
0000
0001
0000
0100
0010
0100
0000
,
0100
0000
0100
0000
0001
1000
0001
0000
,
0001
0000
0001
0000
1000
0100
0000
0001
,
0000
0100
0000
1000
0000
0010
0000
0001
,
0000
0010
0000
1010
0000
0011
0000
0101
,
0000
1100
0000
1000
0001
1000
0100
1000
,
0010
0000
0000
0000
0100
0000
0000
0000
0001
0000
0000
0000
0010
0000
0000
0000
0002
0003
0000
0000
0000
0000
0000
0000
0000
0000
0000
0000
0000
0000
0000
0000
,
1100
0000
0100
0010
,
0001
0000
1001
0000
,
0101
0000
0100
0010
,
1000
0000
1001
0000
,
1010
0000
0010
0100
,
0001
0000
1001
0000
,
0011
0000
0010
0100
,
1000
0000
0000
0000
0100
0000
0010
0000
0000
0000
0000
0000
,
0011
0000
0100
0010
,
1000
0000
0110
0000
,
1010
0000
0100
0010
,
0001
0000
0110
0000
,
0101
0000
0010
0100
,
1000
0000
0110
0000
,
1100
0000
0010
0100
,
0001
0000
0010
0100
,
1000
0010
0100
0010
,
0000
1000
0001
0000
,
1000
0100
0010
0100
,
0000
1000
0001
1000
,
0001
0010
0100
0010
,
0000
0001
1000
0000
,
0001
0100
0010
0100
,
0000
0000
0000
0000
0001
0000
1000
0000
0000
0001
0000
0000
,
1000
0100
0010
0001
,
0000
0100
0010
0000
,
1000
0010
0100
0001
,
0000
0010
0100
1000
,
0001
0100
0010
0000
,
1000
0100
0010
0000
,
0011
0000
0110
0000
,
1001
0000
0000
0000
,
1000
0100
1000
0001
,
1000
0100
1000
0001
,
0100
0010
0100
0001
,
0100
0010
0100
0001
,
0010
0100
0010
0001
,
0010
0100
0010
0001
,
0100
1000
0100
0010
,
0100
1000
0100
0010
,
1000
0010
1000
0001
,
1000
0010
1000
0001
,
0010
0100
0010
0001
,
0010
0100
0010
0001
,
0100
0010
0100
0001
,
0100
0010
0100
0001
,
0010
1000
0010
0100
,
0010
0001
0100
0010
,
1000
0100
1000
0001
,
0100
0010
0100
0001
,
1000
0100
0001
0100
,
0010
0100
0010
0001
,
1000
0010
0100
1000
,
0100
0010
1000
0001
,
0010
0100
0010
1000
,
0010
0100
0010
0001
,
1000
0010
0100
0001
,
0010
0000
0100
0000
,
1000
0100
0010
0001
,
0100
0000
0010
0000
,
1000
0000
0100
0000
,
0010
0000
0001
0000
,
2002
0000
0000
0000
0000
0000
0000
3003
1000
0000
0000
0000
0100
0000
0000
0000
,
0001
0000
0100
0010
0000
0000
0001
0000
0000
0100
0000
0000
,
1000
0000
0100
0010
0000
1000
0001
0000
0000
0010
0000
0000
,
0100
0000
0001
0100
0000
0000
1000
0000
0000
0010
0000
0000
,
0100
0000
1000
0100
0000
0000
0001
0000
0000
0010
0000
0000
,
1000
0000
0010
0100
0000
0000
1000
0000
0000
0010
0000
0000
,
0001
0000
0010
0100
0000
0001
1000
0000
0000
0100
0000
0000
,
0010
0000
0000
0000
1000
0000
0010
0000
0000
0000
0000
0000
0002
0003
0000
0000
0000
0000
0200
0300
0000
0000
0000
0000
,
2000
3000
0000
0000
0000
0000
0020
0030
0000
0000
0000
0000
0001
0000
0000
0000
0000
0000
0100
0000
0000
0000
0000
0000
,
1000
0000
0100
0001
0000
0000
0010
0000
0000
1000
0000
0000
,
0001
0000
1000
0010
0000
0001
1000
0000
0000
0010
0000
0000
,
0001
0000
0010
1000
0000
0000
0001
0000
0000
0010
0000
0000
,
2000
3000
0000
0000
0200
0300
0000
0000
0002
0003
0000
0000
1000
0000
0000
0000
0000
0000
0100
0000
0000
0000
0000
0000
,
0001
0000
0100
1000
0000
0000
0010
0000
0000
0001
0000
0000
,
1000
0000
0000
0000
0001
0000
0010
0000
0000
0000
1000
0000
0001
0000
0000
0000
0000
0000
0000
0000
0000
0000
2000
3000
,
0002
0003
0000
0000
2000
3000
0002
0003
0000
0000
0000
0000
2002
0000
0000
0000
0000
0000
0000
0000
0000
0000
0000
0000
,
0000
3003
0000
0000
0000
0000
0000
0000
;

//--------------- dance-single - Peter ----------------
#NOTES:
     dance-single:
     Peter:
     Medium:
     14:
     0,0,0,0,0:
0000
0000
0000
0000
,
0000
0000
0000
0000
,
0000
0000
0000
0000
,
0000
0000
0000
0000
,
0000
0000
0000
0000
,
0000
0000
0000
0000
,
0000
0000
0000
0000
,
0000
0000
0000
0000
,
0000
0000
0000
0000
,
0000
0000
0000
0000
,
0000
0000
0000
0000
0000
0000
0000
0000
1000
0000
0010
0000
0000
0100
0000
0000
,
0001
0000
0000
1000
0000
0000
0001
0000
0000
0000
0010
0000
0000
0001
0000
0000
,
0100
0000
0000
0001
0000
0000
0010
0000
0100
0000
1000
0000
0000
0001
0000
0000
,
0100
0000
0000
0001
0000
0000
1000
0000
0000
0100
0000
0000
0001
0000
0000
0100
,
0000
0000
1000
0000
0000
0010
0000
0100
0000
0000
0001
0000
0000
0100
0000
0000
,
0001
0000
0000
0010
0000
0000
0001
0000
0000
1000
0000
0000
0010
0000
0000
0001
,
0000
0000
0010
0000
0000
1000
0000
0100
0000
0000
1000
0000
0000
0100
0000
0000
,
0010
0000
0000
0001
0000
0000
0100
0000
0000
0010
0000
0000
0001
0000
0000
0010
,
0000
0100
0000
0000
0001
0000
1000
0000
0001
0000
0001
0000
0000
0001
0000
0000
,
0001
0000
0000
0000
0000
0000
0001
0000
0000
0000
0000
0000
0002
0003
0000
0000
1000
0000
0000
0000
1000
0000
0000
0000
0000
0000
1000
0000
0000
0000
0000
0000
,
1000
0000
0000
0000
0000
0000
1000
0000
0000
0000
0000
0000
2000
3000
0000
0000
0010
0000
0000
0000
0010
0000
0000
0000
0000
0000
0010
0000
0000
0000
0000
0000
,
0010
0000
0000
0010
0000
0000
0010
0000
0100
0000
0100
0000
0000
0100
0000
0000
,
0100
0000
0000
0100
0000
0000
0100
0000
0001
0000
0001
0000
0000
0001
0000
0000
,
0001
0000
0000
0001
0000
0000
0001
0000
1000
0000
1000
0000
0000
1000
0000
0000
,
1000
0000
0000
1000
0000
0000
1000
0000
0001
0000
1000
0000
0100
0000
1000
0000
,
0010
0100
0001
1000
0001
0010
0100
0010
,
1000
0001
0100
1000
0010
0100
0001
0010
,
0100
0001
0100
0010
0001
1000
0010
0001
,
0010
0000
0000
0000
1000
0000
0000
0000
0001
0000
0000
0000
1000
0000
0000
0000
0002
0003
0000
0000
0000
0000
0000
0000
0000
0000
0000
0000
0000
0000
0000
0000
,
1000
0000
0100
0000
1000
0010
0000
0000
,
0100
0000
0000
0001
0000
0000
0010
0000
,
0000
0000
1000
0000
0000
0010
0000
0000
,
0001
0000
0000
1000
0000
0000
0010
0100
,
0001
0000
0010
0000
0000
0100
0000
0000
,
0001
0000
0000
0100
0000
0000
0010
0000
,
0000
0001
0000
0000
1000
0000
0000
0010
,
0000
0000
0100
0000
0000
0100
0000
0001
,
1000
0000
0100
0000
0010
0001
0000
0000
,
0010
0000
0000
1000
0000
0000
0010
0000
,
0000
0001
0000
0000
1000
0000
0000
0010
,
0000
0000
0001
0000
0000
0010
1000
0010
,
0000
0000
1000
0000
0100
0010
0000
0000
,
1000
0000
0000
0010
0000
0000
0001
0000
,
0100
0010
0000
0000
0001
0000
0000
0010
,
0000
1000
0000
0000
0001
0000
0010
0100
,
1000
0000
0010
0000
1000
0100
0000
0000
,
0010
0000
0000
0001
0000
0000
0100
0000
,
0000
0000
1000
0000
0000
0100
0000
0000
,
0001
0000
0000
0010
0000
0000
0100
0010
,
0001
0000
1000
0000
0000
0010
0000
0000
,
0001
0000
0000
0010
0000
0000
0100
0000
,
0001
0010
0000
0000
0100
0000
0000
0001
,
0000
0000
0100
0000
0000
1000
0010
1000
,
0000
0001
0000
0000
0010
0100
0000
0000
,
1000
0000
0000
0010
0000
0000
0001
0000
,
0010
1000
0000
0000
0001
0000
0000
0100
,
0000
0000
0010
0000
0000
0100
0001
1000
,
0000
0000
0100
0000
0000
0001
0000
0000
,
0100
0000
0000
1000
0000
0000
0001
0000
,
0100
0010
0000
0000
1010
0000
0000
1000
,
0000
1000
0000
0000
0001
0000
0000
0010
,
0100
1000
0010
0000
0001
0000
0010
0000
,
1000
0010
0001
0010
,
1000
0100
0010
0000
0001
0000
0100
0000
,
0001
0000
0010
0000
0001
0000
0010
0100
,
1000
0100
0010
0000
1000
0000
0010
0000
,
0001
0010
1000
0010
,
0001
0100
0010
0000
1000
0000
0100
0000
,
1000
0000
0010
0000
1000
0000
0100
1000
,
0010
1000
0100
0000
0001
0000
0100
0000
,
1000
0100
0001
0100
,
1000
0010
0100
0000
0001
0000
0010
0000
,
0001
0000
0100
0000
0001
0000
0010
0001
,
1000
0010
0100
0000
1000
0000
0100
0000
,
0001
0100
1000
0100
,
0001
0100
0010
0000
1000
0000
0000
0100
,
0000
0010
0000
0000
0001
0000
0100
0010
,
1000
0100
1000
0000
0010
0100
0000
0000
,
1000
0100
0001
0100
,
0010
1000
0001
0000
0010
0100
0000
0000
,
0001
0000
0100
0000
1000
0000
0100
0010
,
0000
0010
0001
0000
0100
0010
0000
0000
,
0001
0010
0100
0001
,
0010
0100
1000
0000
0100
0010
0000
0000
,
1000
0000
0000
0010
0001
0000
0100
0010
,
1000
0010
0100
0000
1000
0000
0100
0000
,
0001
0000
0000
1000
0000
0000
0100
0000
,
0010
0001
0010
0000
0100
0000
0000
0001
,
0000
0000
0100
0000
0000
0010
0000
0001
,
1000
0010
0100
0000
0001
0000
0000
0000
,
0010
0000
0000
0100
0000
0000
1000
0000
,
2002
0000
0000
0000
0000
0000
0000
0000
0000
0000
0000
0000
0000
0000
0000
0000
0000
0000
0000
0000
0000
3003
0000
0000
2000
0000
0000
0000
0000
0000
0000
0000
0000
0000
0000
0000
3000
0000
0000
0000
0000
0000
0000
0000
0100
0000
0000
0000
,
0010
0000
0010
0001
0000
0000
2000
0000
0000
3000
0000
0100
,
0010
0000
0010
0001
0000
1000
0002
0000
0000
0003
0000
0100
,
0010
0000
0010
1000
0000
0000
0002
0000
0000
0003
0000
0100
,
1000
0000
0100
0001
0000
0000
2000
0000
0000
3000
0000
0010
,
0100
0000
0100
0001
0000
0000
2000
0000
0000
3000
0000
0010
,
0100
0000
0100
0001
0000
1000
0002
0000
0000
0003
0000
0010
,
0100
0000
0000
0000
0100
0000
1000
0000
0000
0000
0000
0000
0200
0300
0000
0000
0002
0003
0200
0300
0000
0000
0002
0003
,
0200
0300
0000
0000
0002
0003
0200
0300
2000
3000
0002
0003
2000
0000
0000
0000
0000
0000
3010
0000
0000
0000
0100
0000
,
1000
0000
0100
0010
0000
0000
2000
0000
0000
3010
0000
0100
,
1000
0000
0100
0010
0000
1000
0002
0000
0000
0013
0000
0100
,
0001
0000
0100
0010
0000
0000
0002
0000
0000
0013
0000
0000
,
0022
0033
0000
0000
2002
3003
0000
0000
2020
3030
0000
0000
2000
0000
0000
0000
3100
0000
0010
0000
0000
0000
1000
0000
,
0010
0000
0100
1000
0000
0000
0002
0000
0103
0010
0000
0001
,
0010
0000
0000
0000
0100
0000
0001
0000
0000
0000
1000
0000
0002
0000
0000
0000
0000
0000
0003
0000
0000
0000
0200
0300
,
2000
3000
0000
0000
0200
0300
0002
0003
0000
0000
0000
0000
2002
0000
0000
0000
0000
0000
0000
0000
0000
0000
0000
0000
,
0000
3003
0000
0000
0000
0000
0000
0000
;

//--------------- dance-single - Peter ----------------
#NOTES:
     dance-single:
     Peter:
     Hard:
     16:
     0,0,0,0,0:
0000
0000
0000
0000
,
0000
0000
0000
0000
,
0000
0000
0000
0000
,
0000
0000
0000
0000
,
0000
0000
0000
0000
,
0000
0000
0000
0000
,
0000
0000
0000
0000
,
0000
0000
0000
0000
,
0000
0000
0000
0000
,
0000
0000
0000
0000
,
0000
0000
0000
0000
0000
0000
0000
0000
1000
0000
0000
0000
1100
0000
0000
1000
,
0000
0000
0001
0000
0100
0010
0000
0000
0100
0000
0000
0000
0101
0000
0000
0001
,
0000
0000
0010
0000
0100
1000
0000
1000
0001
0000
0000
0000
0101
0000
0100
0000
,
0000
0000
0010
0000
1000
0100
0000
0000
1000
0010
0000
0000
0101
0000
0000
0001
,
1000
0001
0000
0000
0110
0000
0001
1000
0001
0000
0000
0000
0011
0000
0000
0001
,
0000
0000
0100
0000
0010
0100
0000
0000
0010
0000
0000
1000
0010
0000
0000
1000
,
0000
0000
0100
0000
0010
0001
0000
0001
1000
0000
0000
0000
1010
0000
0010
0000
,
0000
0000
0100
0000
0001
0000
0010
0000
0100
0001
0000
0000
1100
0000
0000
0000
,
1000
0000
0000
0000
0000
0000
0001
0000
1000
0100
1000
0000
0100
1000
0000
0100
,
1000
0000
0000
0000
0100
0000
1000
0000
0000
0000
0100
0000
2000
3000
0000
0000
0001
0000
0100
0000
0001
0000
0000
0000
0100
0000
0001
0000
0000
0000
0100
0000
,
0001
0000
0000
0000
0100
0000
0001
0000
0000
0000
0100
0000
0002
0003
0000
0000
1000
0000
0010
0000
1000
0000
0000
0000
0010
0000
1000
0000
0000
0000
0010
0000
,
1000
0000
0010
1000
0000
0010
1000
0000
0001
0010
0001
0000
0010
0001
0000
0010
,
0001
0000
0010
0001
0000
0010
0001
0000
0100
0010
0100
0000
0010
0100
0000
0010
,
0100
0000
0010
0100
0000
0010
0100
0000
0001
1000
0001
0000
1000
0001
0000
1000
,
0001
0000
1000
0001
0000
1000
0001
0000
1000
0000
0000
1000
0100
0000
0000
0100
,
0010
0000
0000
0010
0001
0000
0000
0001
0100
0000
0000
0100
1000
0000
0000
1000
,
0100
0000
0000
0100
0010
0000
0000
0010
1000
0100
0000
0000
0001
0100
0000
0000
,
1000
0010
0000
0000
0001
0010
0000
0000
1000
0100
0010
0001
1000
0001
0100
0010
,
1000
0000
0001
0000
0010
0000
0001
0000
2000
0000
0000
0000
0000
0000
0000
0000
3002
0003
0000
0000
0000
0000
0000
0000
0000
0000
0000
0000
0000
0000
0000
0000
,
1001
0000
1000
0100
0010
0000
0100
1000
,
0000
0000
1000
0100
0010
0000
0100
1000
,
0000
0000
1000
0010
0100
0000
0010
1000
,
0000
0000
0000
0000
0000
0000
1000
0000
0000
0010
0000
0000
0100
0000
0000
0000
0000
0000
0000
0000
0001
0000
0000
0000
,
1000
0000
0001
0100
0010
0000
0100
0001
,
0000
0000
0001
0100
0010
0000
0100
0001
,
0000
0000
0001
0010
0100
0000
0010
0001
,
0000
0000
0000
0000
0000
0000
0000
0000
0010
0000
0000
0000
0100
0000
0000
0000
0000
0000
1000
0000
0000
0001
0000
0000
,
1000
0000
0010
0100
1000
0000
0100
0010
,
0000
0000
0010
0100
1000
0000
0000
0100
,
0001
0000
0010
0100
0001
0000
0100
0010
,
0000
0000
0000
0000
0000
0000
0010
0000
0000
0100
0000
0000
0001
0000
0000
0000
0000
0000
0000
0000
0100
0000
0000
0000
,
1000
0000
0001
0100
0010
0000
1000
0001
,
0000
0000
0001
0100
0010
0000
1000
0001
,
0000
0000
0001
0010
0100
0000
1000
0001
,
1000
0000
0000
0000
0000
0000
0100
0000
0000
0010
0000
0000
0001
0000
0000
0000
0001
0000
0000
0000
0001
0000
0000
0000
,
1000
0000
0010
0100
0001
0000
0001
0100
,
0000
0000
0010
0100
0001
0000
0001
1000
,
0000
0000
0100
0010
0001
0000
0001
0010
,
0000
0000
0000
0000
0000
0000
0100
0000
0000
0010
0000
0000
0001
0000
0000
0000
0000
0000
0000
0000
1000
0000
0000
0000
,
0001
0000
0100
1000
0100
0000
0100
0001
,
0000
0000
0100
1000
0100
0000
0100
0001
,
0000
0000
0010
1000
0010
0000
0010
0001
,
0000
0000
0010
1000
0010
0000
0001
1000
,
0001
0010
0000
0000
0010
0100
0000
0000
,
0100
1000
0000
0000
1000
0001
0000
0000
,
0001
0100
0000
0000
0100
0010
0000
0000
,
0010
0000
0000
1000
0000
0000
0000
0000
0000
0000
0000
0000
1000
0000
0000
0001
0000
0000
0000
0000
1000
0000
0000
0000
,
0001
0010
0000
0000
1000
0010
0000
0000
,
0001
0100
0000
0000
1000
0100
0000
0000
,
0001
1000
0010
0100
,
0001
1000
0100
0010
,
0001
1000
0001
0000
1000
0010
0000
0010
,
0100
0000
0100
0001
0000
0001
0010
0000
,
0100
1000
0100
0000
0010
0001
0000
0001
,
0100
0000
0100
0010
0000
0000
1000
0001
,
0010
0100
0010
0000
1000
0010
0000
0010
,
0001
0000
0001
0100
0000
0100
0010
0000
,
0100
1000
0100
0000
0010
0100
0000
0100
,
0001
0000
0001
0010
0000
0010
0100
1000
,
0001
0100
0010
0000
0001
0010
0000
0010
,
1000
0000
1000
0100
0000
0100
0001
0000
,
0100
0010
0100
0000
0010
0000
0010
0001
,
0000
0001
1000
0000
1000
0010
0000
0100
,
0001
1000
0100
0000
0010
0100
0000
0100
,
0001
0000
0001
0100
0000
0100
1000
0000
,
0010
0100
0001
0000
1000
0000
0000
0010
,
0000
0000
0000
0001
0000
0000
0000
0000
0000
0010
0000
0000
1000
0000
0000
0000
1000
0000
0000
0000
1000
0000
0000
0000
,
0001
0100
0010
0000
0001
0010
0000
0100
,
0010
0000
1000
0010
0000
0100
0010
0000
,
1000
0001
0010
0000
1000
0010
0000
0100
,
0010
0000
0000
0001
0000
0000
1000
0010
,
0100
0001
0010
0000
1000
0010
0000
0001
,
0010
0000
0100
0010
0000
0001
0010
0000
,
0100
1000
0010
0000
0100
0010
0000
0000
,
0001
0000
0000
0010
1000
0000
0001
1000
,
0001
0010
0000
0000
0010
0100
0000
0000
,
0100
1000
0000
0000
1000
0010
0000
0000
,
0010
0100
0000
0000
0100
0001
0000
0000
,
0001
0010
0000
0000
0010
1000
0000
0000
,
1000
0010
0000
0000
0010
0001
0000
0000
,
0001
1000
0000
0000
1000
0001
0000
0000
,
2002
0000
0000
0000
0000
0000
0000
0000
0000
0000
0000
0000
0000
0000
0000
0000
0000
0000
0000
0000
0000
3003
0000
0000
2000
0000
0000
0000
0000
0000
0000
0000
0100
0000
0000
0000
0000
0000
0000
0000
0000
0000
0000
0000
3001
0000
0000
0000
,
0100
0000
1000
0100
0000
0000
0002
0000
0010
0000
0000
1003
,
0010
0000
0001
0010
0000
1000
0002
0000
0100
0000
0000
1003
,
0100
0000
0000
0000
0001
0000
0100
0000
0000
0000
0000
0000
2000
0000
0000
0000
0010
0000
0000
0000
0000
0000
3001
0010
,
0001
0000
0010
0200
0000
0000
2300
0000
0010
0000
0000
3100
,
0001
0000
0100
1000
0000
0000
0002
0000
0010
0000
0000
0103
,
1000
0000
0100
0001
0000
1000
0002
0000
0100
0000
0000
0013
,
1000
0000
0000
0000
0010
0000
0001
0000
0000
0000
0000
0000
2000
3000
0000
0000
0020
0030
0002
0003
0000
0000
2000
3000
,
0200
0300
0000
0000
0002
0003
0020
0030
0200
0300
2000
3000
0002
0000
0000
0000
0010
0000
0010
0000
0000
0000
1003
0000
,
0010
0000
0001
0010
0000
0000
2000
0000
0010
0010
0000
3001
,
0010
0000
1000
0010
0000
0001
2000
0000
0100
0100
0000
3001
,
0100
0000
1000
0100
0000
0000
0002
0000
0100
0100
0000
0003
,
2200
3300
0000
0000
0022
0033
0000
0000
2002
3003
0000
0000
2000
0000
0000
0000
0100
0000
0100
0000
0000
0000
3010
0000
,
0001
0000
0010
1000
0000
0000
0002
0000
0100
0100
0000
0013
,
1000
0000
0000
0000
0010
0000
0001
0000
0000
0000
1000
0000
0001
0000
0000
0000
0000
0000
0001
0000
0000
0000
0020
0030
,
2000
3000
0000
0000
0020
0030
0002
0003
0000
0000
2000
3000
2002
0000
0000
0000
0000
0000
0000
0000
0000
0000
0000
0000
,
0000
3003
0000
0000
0000
0000
0000
0000
;

//--------------- dance-single - Peter ----------------
#NOTES:
     dance-single:
     Peter:
     Challenge:
     18:
     0,0,0,0,0:
0000
0000
0000
0000
,
0000
0000
0000
0000
,
0000
0000
0000
0000
,
0000
0000
0000
0000
,
0000
0000
0000
0000
,
0000
0000
0000
0000
,
0000
0000
0000
0000
,
0000
0000
0000
0000
,
0000
0000
0000
0000
,
0000
0000
0000
0000
,
0000
0000
0000
0000
0000
0000
0000
0000
1000
0100
1000
0000
0001
0100
0000
0000
,
0010
0000
1000
0010
0000
0000
1000
0000
0000
0001
0010
0000
0100
0010
0000
0000
,
0001
1000
0010
1000
0000
0000
0010
0100
0001
0000
1000
0000
0100
1000
0000
0000
,
0010
0000
0100
0001
0000
0000
1000
0000
0010
0100
0000
0000
0010
0000
0000
0100
,
0000
0000
0001
0000
1000
0100
0010
0001
1000
0010
1000
0000
0001
0010
0000
0000
,
0100
0000
0010
0100
0000
0000
0010
0000
0001
1000
0000
0000
0010
0000
0100
0010
,
0000
0000
1000
0000
0000
0001
0010
0100
1000
0001
0100
0000
0010
1000
0000
0000
,
0010
0000
0100
0001
0000
0000
1000
0000
0100
0010
0000
0000
0001
0000
0000
0010
,
0000
0100
0000
0000
1000
0000
0010
0100
0001
0010
0001
0000
0010
0001
0000
0010
,
0001
0000
0000
0000
0010
0000
0001
0000
0000
0000
0010
0000
0002
0003
0000
0000
1000
0000
0010
0000
1000
0000
0000
0000
0010
0000
1000
0000
0000
0000
0010
0000
,
1000
0000
0000
0000
0010
0000
1000
0000
0000
0000
0010
0000
2000
3000
0000
0000
0001
0000
0100
0000
0001
0000
0000
0000
0100
0000
0001
0000
0000
0000
0100
0000
,
0001
0000
0100
0001
0000
0100
0001
0000
1000
0100
1000
0000
0100
1000
0000
0100
,
1000
0000
0100
1000
0000
0100
1000
0000
0010
0100
0010
0000
0100
0010
0000
0100
,
0010
0000
0100
0010
0000
0100
0010
0000
1000
0001
1000
0000
0001
1000
0000
0001
,
1000
0000
0001
1000
0000
0001
1000
0000
0001
1000
0100
1000
0000
0010
0100
0001
,
0000
0010
0100
1000
0000
0100
0010
0100
0000
0001
0100
0010
0000
0001
1000
0010
,
0000
0100
0001
0100
0000
1000
0100
0001
0000
0010
0100
0001
0000
0100
0010
0001
,
0000
1000
0010
1000
0000
0001
0010
0100
1000
0100
0010
0100
0001
1000
0010
0100
,
0010
0000
0001
0000
0100
0000
0010
0000
1000
0000
0001
0000
1000
0000
0001
0000
2000
3000
0000
0000
0000
0000
0000
0000
0000
0000
0000
0000
0000
0000
0000
0000
,
1000
0100
0010
0000
0010
0001
0000
0010
,
0100
0000
0010
0001
0000
0010
0100
0000
,
1000
0010
0100
0000
1000
0100
0000
0010
,
0100
0000
1000
0100
0000
0000
0001
1000
,
0100
0000
0010
0000
0001
0100
0000
0001
,
0010
0000
0001
0100
0000
0001
0010
0000
,
1000
0010
0000
0001
0010
0000
1000
0010
,
0000
0001
0010
0000
0001
0100
0010
0001
,
0010
1000
0100
0000
0010
1000
0000
0010
,
0100
0000
0010
1000
0000
0010
0100
0000
,
0010
0001
0000
0010
0100
0000
0010
0001
,
0000
0010
0100
0000
0010
0001
0100
0010
,
1000
0100
1000
0000
0010
1000
0000
0100
,
1000
0000
0010
1000
0000
0100
1000
0000
,
0100
0001
0000
0100
1000
0000
0010
0001
,
0010
1000
0000
0010
0100
0000
0001
1000
,
0001
0100
0010
0000
0010
1000
0000
0010
,
0100
0000
0010
1000
0000
0010
0100
0000
,
0001
0010
0100
0000
0001
0100
0000
0010
,
0100
0000
0001
0100
0000
0000
1000
0001
,
0100
0000
0010
0000
1000
0100
0000
1000
,
0010
0000
1000
0100
0000
1000
0010
0000
,
0001
0010
0000
1000
0010
0000
0001
0010
,
0000
1000
0010
0000
1000
0100
0001
0100
,
0010
0001
1000
0000
0010
0001
0000
0010
,
0100
0000
0010
0001
0000
0010
0100
0000
,
0010
1000
0000
0010
0100
0000
0010
1000
,
0000
0010
0100
0000
0010
1000
0100
0010
,
0001
0100
0001
0000
0010
0001
0000
0100
,
0001
0000
0010
0001
0000
0100
0001
0000
,
1000
0001
1000
0000
0000
0000
0010
0000
0100
0000
0000
0000
0000
0000
1100
0000
,
0000
0100
0000
0000
0001
0000
0000
0001
,
1000
0100
0010
0000
0001
0100
0001
0000
,
1000
0010
0100
0000
0010
0001
0010
0000
,
1000
0001
0010
0000
0100
1000
0100
0000
,
0001
0100
1000
0000
0010
0100
0001
0010
,
0100
0001
0100
0000
0010
0001
1000
0000
,
0010
0100
1000
0000
0100
0001
0010
0000
,
0100
1000
0001
0000
0100
0001
0010
0000
,
1000
0010
0001
0000
0010
0100
1000
0001
,
1000
0010
0100
0000
1000
0100
0001
0000
,
0010
0100
0010
0000
0001
1000
0010
0000
,
0001
0010
1000
0000
0001
0010
0100
0000
,
1000
0010
0100
0000
0001
1000
0100
0000
,
0001
1000
0010
0000
0001
1000
0010
0000
,
0100
1000
0100
0000
0001
1000
0100
0000
,
0010
0001
0100
0000
0010
1000
0001
0000
,
1000
0010
0000
0001
0010
0000
1000
0001
,
1000
0010
0100
0010
1000
0001
0010
0001
,
1000
0010
0100
1000
0100
0001
1000
0001
,
0010
0100
0010
1000
0010
0100
1000
0001
,
0100
0010
0100
0001
1000
0100
0001
0100
,
1000
0010
0100
0001
1000
0001
0010
0100
,
1000
0010
0100
1000
0100
0010
1000
0001
,
0010
0100
0010
0001
0100
0010
0100
0001
,
1000
0100
0001
0100
0010
0001
0100
0010
,
1000
0010
1000
0000
0001
0010
0000
0100
,
0001
0000
0100
0010
0000
0001
1000
0000
,
0010
0100
1000
0000
0001
0000
0000
0010
,
0100
0000
0001
0000
1000
0001
0000
1000
,
0010
0100
0001
0000
0010
1000
0000
0010
,
0001
0000
0010
1000
0000
0010
0001
0000
,
2002
0000
0000
0000
0000
0000
0000
0000
0000
0000
0000
0000
0000
0000
0000
0000
0000
0000
0000
0000
0000
3003
0000
0000
1100
0000
0000
0000
0000
0000
0000
0000
0100
0000
0000
0000
0010
0000
0000
0000
0000
0000
0000
0000
0010
0000
0000
0000
,
1000
0010
0001
1000
0000
0010
1010
0000
1000
0010
0000
0100
,
1000
0100
0010
1000
0000
0001
1001
0000
1000
0010
0000
0001
,
0010
0000
0100
0000
0001
0000
0010
0000
0000
0000
0100
0000
0110
0000
0000
0000
1000
0000
0100
0000
0000
0000
0010
0001
,
1000
0010
0100
0002
0000
0003
0011
0000
0010
0100
0000
0001
,
0100
1000
0010
0100
0000
0001
0101
0000
0001
0100
0000
0010
,
0001
0010
0100
0001
0000
1000
1001
0000
0001
0100
0000
1000
,
0100
0000
0010
0000
1000
0000
0100
0000
0000
0000
0000
0000
0002
0003
0000
0000
0020
0030
2000
3000
0000
0000
0020
0030
,
0002
0003
0000
0000
0200
0300
2000
3000
0002
0003
2000
3000
1010
0000
0000
0000
1000
0000
0100
0000
0000
0000
0001
0000
,
1000
0010
0001
1000
0000
0001
0011
0000
0001
0100
0000
0010
,
0001
0010
0100
0001
0000
1000
1001
0000
0001
0010
0000
1000
,
0010
0001
0100
0010
0000
1000
1100
0000
0100
0010
0000
0001
,
0022
0033
0000
0000
2020
3030
0000
0000
2200
3300
0000
0000
0101
0000
0000
0000
0001
0000
0010
0000
0000
0000
1000
0000
,
0001
0100
1000
0010
0000
1000
1100
0000
1000
0010
0000
0100
,
1000
0000
0100
0000
0010
0000
1000
0000
0000
0000
0001
0000
1001
0000
0000
0000
0001
0000
0010
0000
0000
0000
2000
3000
,
0200
0300
0000
0000
2000
3000
0020
0030
0000
0000
0002
0003
2002
0000
0000
0000
0000
0000
0000
0000
0000
0000
0000
0000
,
0000
3003
0000
0000
0000
0000
0000
0000
;

//--------------- dance-single - alt challenge ----------------
#NOTES:
     dance-single:
     alt challenge:
     Edit:
     18:
     0,0,0,0,0:
0000
0000
0000
0000
,
0000
0000
0000
0000
,
0000
0000
0000
0000
,
0000
0000
0000
0000
,
0000
0000
0000
0000
,
0000
0000
0000
0000
,
0000
0000
0000
0000
,
0000
0000
0000
0000
,
0000
0000
0000
0000
,
0000
0000
0000
0000
,
0000
0000
0000
0000
0000
0000
0000
0000
1000
0100
1000
0000
0001
0100
0000
0000
,
0010
0000
1000
0010
0000
0000
1000
0000
0000
0001
0010
0000
0100
0010
0000
0000
,
0001
1000
0010
1000
0000
0000
0010
0100
0001
0000
1000
0000
0100
1000
0000
0000
,
0010
0000
0100
0001
0000
0000
1000
0000
0010
0100
0000
0000
0010
0000
0000
0100
,
0000
0000
0001
0000
1000
0100
0010
0001
1000
0010
1000
0000
0001
0010
0000
0000
,
0100
0000
0010
0100
0000
0000
0010
0000
0001
1000
0000
0000
0010
0000
0100
0010
,
0000
0000
1000
0000
0000
0001
0010
0100
1000
0001
0100
0000
0010
1000
0000
0000
,
0010
0000
0100
0001
0000
0000
1000
0000
0100
0010
0000
0000
0001
0000
0000
0010
,
0000
0100
0000
0000
1000
0000
0010
0100
0001
0010
0001
0000
0010
0001
0000
0010
,
0001
0000
0000
0000
0010
0000
0001
0000
0000
0000
0010
0000
0002
0003
0000
0000
1000
0000
0010
0000
1000
0000
0000
0000
0010
0000
1000
0000
0000
0000
0010
0000
,
1000
0000
0000
0000
0010
0000
1000
0000
0000
0000
0010
0000
2000
3000
0000
0000
0001
0000
0100
0000
0001
0000
0000
0000
0100
0000
0001
0000
0000
0000
0100
0000
,
0001
0000
0100
0001
0000
0100
0001
0000
1000
0100
1000
0000
0100
1000
0000
0100
,
1000
0000
0100
1000
0000
0100
1000
0000
0010
0100
0010
0000
0100
0010
0000
0100
,
0010
0000
0100
0010
0000
0100
0010
0000
1000
0001
1000
0000
0001
1000
0000
0001
,
1000
0000
0001
1000
0000
0001
1000
0000
0001
1000
0100
1000
0000
0010
0100
0001
,
0000
0010
0100
1000
0000
0100
0010
0100
0000
0001
0100
0010
0000
0001
1000
0010
,
0000
0100
0001
0100
0000
1000
0100
0001
0000
0010
0100
0001
0000
0100
0010
0001
,
0000
1000
0010
1000
0000
0001
0010
0100
1000
0100
0010
0100
0001
1000
0010
0100
,
0010
0000
0001
0000
0100
0000
0010
0000
1000
0000
0001
0000
1000
0000
0001
0000
2000
3000
0000
0000
0000
0000
0000
0000
0000
0000
0000
0000
0000
0000
0000
0000
,
1000
0100
0010
0000
0010
0001
0000
0010
,
0100
0000
0010
0001
0000
0010
0100
0000
,
1000
0010
0100
0000
1000
0100
0000
0010
,
0100
0000
1000
0100
0000
0000
0001
1000
,
0100
0000
0010
0000
0001
0100
0000
0001
,
0010
0000
0001
0100
0000
0001
0010
0000
,
1000
0010
0000
0001
0010
0000
1000
0010
,
0000
0001
0010
0000
0001
0100
0010
0001
,
0010
1000
0100
0000
0010
1000
0000
0010
,
0100
0000
0010
1000
0000
0010
0100
0000
,
0010
0001
0000
0010
0100
0000
0010
0001
,
0000
0010
0100
0000
0010
0001
0100
0010
,
1000
0100
1000
0000
0010
1000
0000
0100
,
1000
0000
0010
1000
0000
0100
1000
0000
,
0100
0001
0000
0100
1000
0000
0010
0001
,
0010
1000
0000
0010
0100
0000
0001
1000
,
0001
0100
0010
0000
0010
1000
0000
0010
,
0100
0000
0010
1000
0000
0010
0100
0000
,
0001
0010
0100
0000
0001
0100
0000
0010
,
0100
0000
0001
0100
0000
0000
1000
0001
,
0100
0000
0010
0000
1000
0100
0000
1000
,
0010
0000
1000
0100
0000
1000
0010
0000
,
0001
0010
0000
1000
0010
0000
0001
0010
,
0000
1000
0010
0000
1000
0100
0001
0100
,
0010
0001
1000
0000
0010
0001
0000
0010
,
0100
0000
0010
0001
0000
0010
0100
0000
,
0010
1000
0000
0010
0100
0000
0010
1000
,
0000
0010
0100
0000
0010
1000
0100
0010
,
0001
0100
0001
0000
0010
0001
0000
0100
,
0001
0000
0010
0001
0000
0100
0001
0000
,
1000
0001
1000
0000
0000
0000
0010
0000
0100
0000
0000
0000
0000
0000
1100
0000
,
0000
0100
0000
0000
0001
0000
0000
0001
,
1000
0100
0000
0010
0001
0100
0000
0001
,
1000
0010
0000
0100
0010
0001
0000
0010
,
1000
0001
0000
0010
0100
1000
0000
0100
,
0001
0100
0000
1000
0010
0100
0001
0010
,
0100
0001
0000
0100
0010
0001
0000
1000
,
0010
0100
0000
1000
0100
0001
0000
0010
,
0100
1000
0000
0001
0100
0001
0000
0010
,
1000
0010
0000
0001
0010
0100
1000
0001
,
1000
0010
0000
0100
1000
0100
0000
0001
,
0010
0100
0000
0010
0001
1000
0000
0010
,
0001
0010
0000
1000
0001
0010
0000
0100
,
1000
0010
0000
0100
0001
1000
0000
0100
,
0001
1000
0000
0010
0001
1000
0000
0010
,
0100
1000
0000
0100
0001
1000
0000
0100
,
0010
0001
0000
0100
0010
1000
0000
0001
,
1000
0010
0000
0001
0010
1000
0000
0001
,
1000
0010
0100
0010
1000
0001
0010
0001
,
1000
0010
0100
1000
0100
0001
1000
0001
,
0010
0100
0010
1000
0010
0100
1000
0001
,
0100
0010
0100
0001
1000
0100
0001
0100
,
1000
0010
0100
0001
1000
0001
0010
0100
,
1000
0010
0100
1000
0100
0010
1000
0001
,
0010
0100
0010
0001
0100
0010
0100
0001
,
1000
0100
0001
0100
0010
0001
0100
0010
,
1000
0010
1000
0000
0001
0010
0000
0100
,
0001
0000
0100
0010
0000
0001
1000
0000
,
0010
0100
1000
0000
0001
0000
0000
0010
,
0100
0000
0001
0000
1000
0001
0000
1000
,
0010
0100
0001
0000
0010
1000
0000
0010
,
0001
0000
0010
1000
0000
0010
0001
0000
,
2002
0000
0000
0000
0000
0000
0000
0000
0000
0000
0000
0000
0000
0000
0000
0000
0000
0000
0000
0000
0000
3003
0000
0000
1100
0000
0000
0000
0000
0000
0000
0000
0100
0000
0000
0000
0010
0000
0000
0000
0000
0000
0000
0000
0010
0000
0000
0000
,
1000
0010
0001
1000
0000
0010
1010
0000
1000
0010
0000
0100
,
1000
0100
0010
1000
0000
0001
1001
0000
1000
0010
0000
0001
,
0010
0000
0100
0000
0001
0000
0010
0000
0000
0000
0100
0000
0110
0000
0000
0000
1000
0000
0100
0000
0000
0000
0010
0001
,
1000
0010
0100
0002
0000
0003
0011
0000
0010
0100
0000
0001
,
0100
1000
0010
0100
0000
0001
0101
0000
0001
0100
0000
0010
,
0001
0010
0100
0001
0000
1000
1001
0000
0001
0100
0000
1000
,
0100
0000
0010
0000
1000
0000
0100
0000
0000
0000
0000
0000
0002
0003
0000
0000
0020
0030
2000
3000
0000
0000
0020
0030
,
0002
0003
0000
0000
0200
0300
2000
3000
0002
0003
2000
3000
1010
0000
0000
0000
1000
0000
0100
0000
0000
0000
0001
0000
,
1000
0010
0001
1000
0000
0001
0011
0000
0001
0100
0000
0010
,
0001
0010
0100
0001
0000
1000
1001
0000
0001
0010
0000
1000
,
0010
0001
0100
0010
0000
1000
1100
0000
0100
0010
0000
0001
,
0022
0033
0000
0000
2020
3030
0000
0000
2200
3300
0000
0000
0101
0000
0000
0000
0001
0000
0010
0000
0000
0000
1000
0000
,
0001
0100
1000
0010
0000
1000
1100
0000
1000
0010
0000
0100
,
1000
0000
0100
0000
0010
0000
1000
0000
0000
0000
0001
0000
1001
0000
0000
0000
0001
0000
0010
0000
0000
0000
2000
3000
,
0200
0300
0000
0000
2000
3000
0020
0030
0000
0000
0002
0003
2002
0000
0000
0000
0000
0000
0000
0000
0000
0000
0000
0000
,
0000
3003
0000
0000
0000
0000
0000
0000
;
