#VERSION:0.83;
#TITLE:Aura;
#SUBTITLE:;
#ARTIST:SANY-ON;
#TITLETRANSLIT:;
#SUBTITLETRANSLIT:;
#ARTISTTRANSLIT:;
#GENRE:;
#CREDIT:;
#MUSIC:Aura.ogg;
#BANNER:bn.png;
#BACKGROUND:bg.png;
#CDTITLE:create_cdtitle.png;
#SAMPLESTART:49.947;
#SAMPLELENGTH:24.774;
#SELECTABLE:YES;
#OFFSET:-0.399;
#BPMS:0.000=155.000;
#STOPS:;
#BGCHANGES:;
#FGCHANGES:;

//--------------- dance-single - FS XO JU ----------------
#NOTEDATA:;
#STEPSTYPE:dance-single;
#DESCRIPTION:FS XO JU;
#DIFFICULTY:Medium;
#METER:13;
#RADARVALUES:0,0,0,0,0;
#OFFSET:-0.399;
#BPMS:0.000=155.000;
#SPEEDS:0.000=1.000=0.000=0;
#SCROLLS:0.000=1.000;
#TIMESIGNATURES:0.000=4=4;
#FAKES:33.750=0.021,
37.750=0.021,
41.750=0.021,
49.750=0.021,
53.750=0.021,
57.750=0.021,
65.750=0.021,
69.750=0.021,
73.750=0.021,
81.750=0.021,
85.750=0.021,
161.750=0.021,
165.750=0.021,
169.750=0.021,
177.750=0.021,
181.750=0.021
;
#CHARTNAME:No 16ths;
#CREDIT:Create!;
#NOTES:
0000
0000
0000
0000
,
0000
0000
0000
0000
,
0000
0000
0000
0000
,
0000
0000
0000
0000
,
0000
0000
0000
0000
,
0000
0000
0000
0000
,
0000
0000
0000
0000
,
0000
0000
0000
0000
,
0001
0000
1000
0000
0001
0000
0100
00M0
0100
0000
1000
0000
0001
0000
1000
0000
,
0100
0000
1000
0000
0001
0000
0100
00M0
0100
0000
1000
0000
0001
0000
1000
0000
,
1000
0000
0010
0000
1000
0000
0100
00M0
0100
0000
0001
0000
1000
0000
0001
0000
,
0100
0001
1000
0100
0010
1000
0010
0001
,
0001
0000
0100
0000
0001
0000
0010
0M00
0010
0000
1000
0000
0100
0000
1000
0000
,
0001
0000
0100
0000
0001
0000
0010
0M00
0010
0000
1000
0000
0100
0000
1000
0000
,
1000
0000
0010
0000
1000
0000
0100
00M0
0100
0000
0001
0000
0010
0000
0001
0000
,
1000
0010
1000
0100
0001
0100
1000
0010
,
1000
0000
0100
0000
1000
0000
0010
0M00
0010
0000
0001
0000
0100
0000
0001
0000
,
1000
0000
0100
0000
1000
0000
0010
0M00
0010
0000
0001
0000
0100
0000
0001
0000
,
0001
0000
0010
0000
0001
0000
0100
00M0
0100
0000
1000
0000
0010
0000
1000
0000
,
0001
0010
0001
0100
0010
0001
0010
1000
,
1000
0000
0100
0000
1000
0000
0010
0M00
0010
0000
0001
0000
0100
0000
0001
0000
,
1000
0000
0100
0000
1000
0000
0010
0M00
0010
0000
0001
0000
0100
0000
0001
0000
,
0001
0010
0100
1000
0001
0100
0010
1000
,
0400
0000
0300
0000
,
0000
0000
0000
0000
,
0000
0000
0000
0000
,
0000
0000
0000
0000
,
0000
0000
0000
0000
,
1000
0001
1000
0001
,
0100
0010
0100
0010
,
1000
0001
1000
0001
0010
0100
0010
0100
,
4000
3004
1003
0100
,
0011
1001
1010
1001
,
0011
0000
1001
0000
1010
0000
0002
0003
,
0011
1001
1010
1001
,
0011
0000
0000
0000
1100
0000
1100
0000
0002
0003
0002
0003
0000
0000
0000
0000
,
1010
0101
1001
0110
,
0011
1100
1001
2000
,
3010
0100
0001
1000
,
0100
0010
0100
4000
0000
0000
0000
0000
,
3001
0000
0100
0000
0001
0000
0010
0M00
0010
0000
1000
0000
0100
0000
1000
0000
,
0001
0000
0100
0000
0001
0000
0010
0M00
0010
0000
1000
0000
0100
0000
1000
0000
,
1000
0000
0010
0000
1000
0000
0100
00M0
0100
0000
0001
0000
0010
0000
0001
0000
,
1000
0010
1000
0100
0010
1000
0010
0001
,
0001
0000
0100
0000
0001
0000
0010
0M00
0010
0000
1000
0000
0100
0000
1000
0000
,
0010
0000
0100
0000
0001
0000
0010
0M00
0010
0000
1000
0000
0100
0000
0010
0000
,
0001
0000
0000
0000
,
0000
0000
1000
0010
,
0100
0000
0100
0000
,
0100
0000
0100
0001
,
1001
1000
0100
0010
0011
0001
1000
0010
,
0110
0000
0100
0000
0001
0000
1000
0000
0400
0000
0000
0000
0000
0000
0000
0300
,
0011
0001
1000
0010
1010
1000
0001
0010
,
0110
0100
1000
0001
0200
0000
0000
0300
,
1010
1000
0001
0010
0011
0001
1000
0010
,
0100
0010
1000
0001
0100
1000
0100
0001
,
0010
0001
1001
0001
1000
0100
0110
0100
,
1000
0010
0110
0010
1000
0100
0002
0000
,
0103
1000
1010
1000
0001
0010
0110
0010
,
0001
0100
0110
0100
0001
0000
0000
0000
,
1000
0001
0011
0001
1000
0010
0110
0010
,
1000
0100
0110
0100
1000
0010
0002
0000
,
0013
1000
1001
1000
0001
0010
0110
0010
,
0001
0100
0001
0010
0001
0100
0010
1000
,
1100
0000
0101
0001
1000
0100
0011
0000
,
1100
0000
1000
0000
0001
0000
0100
0000
1010
0000
0000
0000
0002
0000
0000
0003
,
1100
0100
0110
0100
1000
0010
1000
0100
,
1000
0010
1000
0100
1000
0000
0000
0000
,
0001
0100
0010
1000
0001
0010
0100
1000
,
0001
0100
0010
0100
0001
1000
0100
0010
,
0100
1000
0001
4000
0000
0000
0000
0000
,
3010
0000
0010
0000
0100
0000
0001
1000
,
1100
0000
0000
0000
;

//--------------- dance-single - No tech ----------------
#NOTEDATA:;
#STEPSTYPE:dance-single;
#DESCRIPTION:No tech;
#DIFFICULTY:Hard;
#METER:16;
#RADARVALUES:0,0,0,0,0;
#OFFSET:-0.399;
#BPMS:0.000=155.000;
#SPEEDS:0.000=1.000=0.000=0;
#SCROLLS:0.000=1.000;
#TIMESIGNATURES:0.000=4=4;
#CHARTNAME:XO replaced with candles;
#CREDIT:Create!;
#NOTES:
0000
0000
0000
0000
,
0000
0000
0000
0000
,
0000
0000
0000
0000
,
0000
0000
0000
0000
,
0000
0000
0000
0000
,
0000
0000
0000
0000
,
0000
0000
0000
0000
,
0000
0000
0000
0000
0000
0000
0000
0000
0001
0010
0001
0000
1000
0000
1000
0000
,
0010
0000
0100
0001
1000
0000
0100
0010
0100
0010
0001
0000
1000
0010
0100
0000
,
0001
0000
1000
0010
0100
0000
0001
1000
0001
1000
0100
0000
0010
0001
1000
0000
,
0010
0000
0100
0001
1000
0000
0100
0010
0100
0010
0001
0000
1000
0010
0100
0000
,
0001
0000
1000
0010
0100
0000
0000
0000
0001
0000
1000
0000
0100
0000
1000
0000
,
1000
0000
0001
0100
0010
0000
1000
0001
1000
0001
0010
0000
0100
1000
0001
0000
,
0010
0000
0100
1000
0001
0000
0100
0010
0100
0010
1000
0000
0001
0010
0100
0000
,
1000
0000
0001
0010
0100
0000
1000
0001
1000
0001
0100
0000
0010
1000
0001
0000
,
0100
0000
0010
1000
0001
0000
1000
0000
0100
0010
0001
0000
0100
0000
0010
0000
,
1000
0000
0100
0010
0001
0000
0100
0010
0100
0010
1000
0000
0100
0010
0001
0000
,
1000
0000
0100
0010
0001
0000
0100
0010
0100
0010
1000
0000
0100
0010
0001
0000
,
0100
0000
0010
1000
0001
0000
0010
0100
0010
0100
1000
0000
0001
0100
0010
0000
,
1000
0000
0001
0100
0010
1000
0001
0000
0100
0001
1000
0000
0100
0000
1000
0000
,
1000
0000
0010
0100
0001
0000
0010
0100
0010
0100
1000
0000
0010
0100
0001
0000
,
1000
0000
0100
0010
0001
0000
0100
0001
0100
0001
1000
0000
0100
0010
0001
0000
,
0100
0000
0010
1000
0100
0000
0010
0001
0100
0000
0010
1000
0100
0000
0010
0001
,
4000
0000
0000
0000
0000
0000
0000
0000
3010
0100
0001
1000
0001
0100
0010
0000
,
1000
0000
0000
0000
,
0000
0000
0000
0000
,
0000
0000
0000
0000
,
0000
0000
0000
0000
,
0001
1000
0001
1000
,
0100
0010
0100
0010
,
0001
0100
0001
0100
0001
1000
0001
1000
,
0400
0000
0340
0000
0031
0000
0100
0001
,
0010
0001
0100
0001
0010
0001
0100
0001
,
0010
0001
0100
0001
0010
0100
2100
0000
,
3010
1000
0100
1000
0010
1000
0100
1000
,
0010
0000
1000
0000
0100
0000
0010
0000
0012
0003
2001
0000
3001
0010
0001
0000
,
0100
0001
0010
0001
0100
0001
0010
0001
,
0100
0001
0010
0001
0100
0010
2010
0000
,
3100
0010
0001
1000
,
0100
0000
1000
0000
0010
0000
0100
0001
4000
0000
0000
0000
0000
0000
0000
0000
,
3001
0000
0010
0100
1000
0000
0010
0100
0010
0100
0001
0000
0010
0100
1000
0000
,
0001
0000
0100
0010
1000
0000
0100
1000
0100
1000
0001
0000
0100
0010
1000
0000
,
0100
0000
0010
0001
1000
0000
0010
0100
0010
0100
0001
0000
0010
0100
1000
0000
,
0001
0000
0100
0010
1000
0001
0010
0000
0100
1000
0001
0000
0100
0000
0010
0000
,
1000
0100
0010
0001
1000
0001
0100
0010
0100
0010
1000
0001
0010
0100
1000
0001
,
1000
0100
0010
0001
1000
0001
0100
0010
0100
0010
1000
0001
0010
0100
1000
0001
,
0100
0000
0000
0000
,
0000
0000
0000
0000
0001
0000
0010
0100
,
1000
0000
1000
0000
,
1000
0000
0000
0000
0000
0000
0000
0000
0000
0000
0000
0000
1000
0000
0000
0000
0000
0000
0010
0000
0100
0001
0000
0000
,
0010
0000
0001
0010
0100
0000
0010
0001
0100
0000
0001
0100
0010
0000
0100
0001
,
0010
0000
0001
0010
0100
0000
1000
0100
0010
0001
1000
1000
0001
1000
0010
1000
,
0100
0000
1000
0100
0010
0000
0100
1000
0010
0000
1000
0010
0100
0000
0010
1000
,
0100
0000
1000
0100
0010
0000
0100
1000
0010
0000
0100
0001
1000
0100
0010
0001
,
0100
0000
0001
0100
0010
0000
0100
0001
0010
0000
0001
0010
0100
0000
0010
0001
,
1000
0000
0010
1000
0100
0000
0000
0000
0010
0001
1000
0000
0001
0000
0001
0000
,
0010
0000
0100
1000
0010
0000
1000
0001
1000
0100
0010
0001
0100
0000
0010
1000
,
0001
0000
0010
0100
1000
0000
0010
1000
0001
0010
0100
1000
0010
0000
0100
0010
,
1000
0000
0001
0010
0100
0000
1000
0001
1000
0010
0100
0001
0010
0000
0100
1000
,
0001
0000
0100
0010
1000
0000
0100
1000
0001
0100
0010
1000
0001
1000
0100
0010
,
0001
0000
0100
0001
0010
0000
0001
1000
0001
0100
0010
1000
0100
0000
0010
0001
,
1000
0000
0010
0100
0001
0000
0010
0001
1000
0010
0100
0001
0010
0000
0100
0010
,
0001
0000
1000
0010
0100
0000
0001
1000
0001
0010
0100
1000
0010
0000
0100
0001
,
1000
0000
0100
0010
0100
1000
0000
0001
1000
0001
0100
0001
1000
0100
0010
0001
,
0100
0000
0010
1000
0100
0000
1000
0001
0100
0010
0100
0001
0010
0000
0100
1000
,
0010
0000
0100
0010
1000
0000
0100
1000
0010
0100
0010
1000
0100
0000
0010
0001
,
0100
0000
0001
0010
0000
0001
0100
0000
0010
1000
0100
1000
0010
0100
0010
0100
,
0001
1000
0001
1000
0001
0010
0100
0010
0100
1000
0001
0000
0100
0000
0010
1000
,
0001
0000
0010
0100
1000
0000
0001
1000
0001
0100
0010
1000
0001
0000
0010
0100
,
1000
0000
0001
0100
0010
0000
1000
0001
1000
0100
0010
0001
1000
0000
0010
0100
,
0001
0000
1000
0100
0010
0000
0001
1000
0001
0100
0010
1000
0001
0010
0100
1000
,
0001
0000
0001
0000
1000
0000
0100
0010
,
0011
0000
0000
0000
;

//--------------- dance-single - XO+ ----------------
#NOTEDATA:;
#STEPSTYPE:dance-single;
#DESCRIPTION:XO+;
#DIFFICULTY:Challenge;
#METER:17;
#RADARVALUES:0,0,0,0,0;
#OFFSET:-0.399;
#BPMS:0.000=155.000;
#SPEEDS:0.000=1.000=0.000=0;
#SCROLLS:0.000=1.000;
#TIMESIGNATURES:0.000=4=4;
#CHARTNAME:Crossovers;
#CREDIT:Create!;
#NOTES:
0000
0000
0000
0000
,
0000
0000
0000
0000
,
0000
0000
0000
0000
,
0000
0000
0000
0000
,
0000
0000
0000
0000
,
0000
0000
0000
0000
,
0000
0000
0000
0000
,
0000
0000
0000
0000
0000
0000
0000
0000
0001
0010
0001
0000
1000
0000
1000
0000
,
0010
0000
0100
0001
1000
0000
0100
0010
0100
0010
0001
0000
1000
0010
0100
0000
,
0001
0000
1000
0010
0100
0000
0001
1000
0001
1000
0100
0000
0010
0001
1000
0000
,
0010
0000
0100
0001
1000
0000
0100
0010
0100
0010
0001
0000
1000
0010
0100
0000
,
0001
0000
1000
0010
0100
0000
0000
0000
0001
0000
1000
0000
0100
0000
1000
0000
,
1000
0000
0001
0100
0010
0000
1000
0001
1000
0001
0010
0000
0100
1000
0001
0000
,
0010
0000
0100
1000
0001
0000
0100
0010
0100
0010
1000
0000
0001
0010
0100
0000
,
1000
0000
0001
0010
0100
0000
1000
0001
1000
0001
0100
0000
0010
1000
0001
0000
,
0100
0000
0010
1000
0001
0000
1000
0000
0100
0010
0001
0000
0100
0000
0010
0000
,
1000
0000
0100
0010
0001
0000
0100
0010
0100
0010
1000
0000
0100
0010
0001
0000
,
1000
0000
0100
0010
0001
0000
0100
0010
0100
0010
1000
0000
0100
0010
0001
0000
,
0100
0000
0010
1000
0001
0000
0010
0100
0010
0100
1000
0000
0001
0100
0010
0000
,
1000
0000
0001
0100
0010
1000
0001
0000
0100
0001
1000
0000
0100
0000
1000
0000
,
1000
0000
0010
0100
0001
0000
0010
0100
0010
0100
1000
0000
0010
0100
0001
0000
,
1000
0000
0100
0010
0001
0000
0100
0001
0100
0001
1000
0000
0100
0010
0001
0000
,
0100
0000
0010
1000
0100
0000
0010
0001
0100
0000
0010
1000
0100
0000
0010
0001
,
4000
0000
0000
0000
0000
0000
0000
0000
3010
0100
0001
1000
0001
0100
0010
0000
,
1000
0000
0000
0000
,
0000
0000
0000
0000
,
0000
0000
0000
0000
,
0000
0000
0000
0000
,
0001
1000
0001
1000
,
0100
0010
0100
0010
,
0001
0100
0001
0100
0001
1000
0001
1000
,
0400
0000
0340
0000
0031
0000
1000
0010
,
0002
0003
0010
0000
2000
3000
0100
0000
0002
0003
0100
0000
2000
3000
0010
0000
,
0002
0003
0010
0000
2000
3000
0100
0000
0002
0003
0100
0000
2100
0000
0000
0000
,
3002
0003
0100
0000
2000
3000
0100
0000
0002
0003
0010
0000
2000
3000
0010
0000
,
0002
0003
0100
0000
2000
3000
0100
0000
0102
0003
2001
0000
3001
0010
0100
0000
,
0002
0003
0100
0000
2000
3000
0010
0000
0002
0003
0010
0000
2000
3000
0100
0000
,
0002
0003
0100
0000
2000
3000
0010
0000
0002
0003
0010
0000
2010
0000
0000
0000
,
3001
1000
0001
1000
,
0100
0000
1000
0000
0010
0000
0100
0001
4000
0000
0000
0000
0000
0000
0000
0000
,
3001
0000
0010
0100
1000
0000
0010
0100
0010
0100
0001
0000
0010
0100
1000
0000
,
0001
0000
0100
0010
1000
0000
0100
1000
0100
1000
0001
0000
0100
0010
1000
0000
,
0100
0000
0010
0001
1000
0000
0010
0100
0010
0100
0001
0000
0010
0100
1000
0000
,
0001
0000
0100
0010
1000
0001
0010
0000
0100
1000
0001
0000
0100
0000
0010
0000
,
1000
0100
0010
0001
1000
0001
0100
0010
0100
0010
1000
0001
0010
0100
1000
0001
,
1000
0100
0010
0001
1000
0001
0100
0010
0100
0010
1000
0001
0010
0100
1000
0001
,
0100
0000
0000
0000
,
0000
0000
0000
0000
0001
0000
1000
0100
,
0010
0000
0100
0000
,
0010
0000
0000
0000
0000
0000
0000
0000
0000
0000
0000
0000
0100
0000
0000
0000
0000
0000
1000
0000
0001
0100
0000
0000
,
2000
3000
0100
0010
1000
0000
0001
0010
2000
3000
0010
0100
1000
0000
0001
0100
,
2000
3000
0100
0010
1000
0000
0001
0010
0100
1000
0001
0001
1000
0001
0100
0010
,
0002
0003
0010
0100
0001
0000
1000
0100
0002
0003
0100
0010
0001
0000
1000
0010
,
0002
0003
0010
0100
0001
0000
1000
0100
0002
0003
0100
1000
0001
0100
0010
0100
,
2000
3000
0100
0010
1000
0000
0001
0010
2000
3000
0010
0100
1000
0000
0001
0100
,
0010
0000
1000
0001
0010
0000
0000
0000
0100
1000
0001
0000
1000
0000
1000
0000
,
0001
0000
0100
0010
0002
0003
0010
1000
0001
0010
0100
0010
2000
3000
0010
0001
,
1000
0000
0010
0100
2000
3000
0100
0001
1000
0100
0010
0100
0002
0003
0100
1000
,
0001
0000
0100
0010
0002
0003
0010
1000
0001
0010
0100
0010
2000
3000
0010
0001
,
1000
0000
0010
0100
2000
3000
0100
0001
1000
0100
0010
0001
1000
0001
0100
0001
,
0010
0000
0100
0010
2000
3000
0010
0001
1000
0010
0100
0010
0002
0003
0010
1000
,
0001
0000
0010
0100
0002
0003
0100
1000
0001
0100
0010
0100
2000
3000
0100
0001
,
1000
0000
0100
0010
2000
3000
0010
0001
1000
0010
0100
0010
0002
0003
0010
1000
,
0001
0000
0010
0100
0010
0001
0000
1000
0010
1000
0001
0010
0100
1000
0010
0100
,
2000
3000
0100
0010
0002
0003
0010
0100
0001
1000
0100
0010
2000
3000
0010
0100
,
0002
0003
0100
0010
0001
0000
1000
0010
0002
0013
0100
0001
0020
0030
0100
1000
,
0010
0000
1000
0100
0000
1000
0010
0000
0100
0001
0010
0001
0100
0010
0100
0010
,
1000
0001
1000
0001
1000
0100
0010
0100
0010
0001
1000
0000
0010
0000
0100
0001
,
1000
0000
0100
0010
0001
0000
1000
0001
1000
0010
0100
0001
1000
0000
0100
0010
,
0001
0000
1000
0010
0100
0000
0001
1000
0001
0010
0100
1000
0001
0000
0100
0010
,
1000
0000
0001
0010
0100
0000
1000
0001
1000
0010
0100
0001
1000
0100
0010
0001
,
1000
0000
0010
0000
0001
0000
0010
1000
,
1001
0000
0000
0000
;
