#VERSION:0.83;
#TITLE:Astrum;
#SUBTITLE:;
#ARTIST:零 -zero- × BEMANI Sound Team "HuΣeR";
#TITLETRANSLIT:;
#SUBTITLETRANSLIT:;
#ARTISTTRANSLIT:;
#GENRE:;
#ORIGIN:;
#CREDIT:;
#BANNER:Astrum.png;
#BACKGROUND:Astrum-bg.png;
#PREVIEWVID:;
#JACKET:Astrum-jacket.png;
#CDIMAGE:;
#DISCIMAGE:;
#LYRICSPATH:;
#CDTITLE:;
#MUSIC:Astrum.ogg;
#OFFSET:-0.605000;
#SAMPLESTART:59.219944;
#SAMPLELENGTH:12.000000;
#SELECTABLE:YES;
#BPMS:0.000=190.000,
42.000=254.000,
138.000=169.333,
170.000=254.000;
#STOPS:;
#DELAYS:;
#WARPS:;
#TIMESIGNATURES:0.000=4=4;
#TICKCOUNTS:0.000=4;
#COMBOS:0.000=1;
#SPEEDS:0.000=1.000=0.000=0;
#SCROLLS:0.000=1.000;
#FAKES:;
#LABELS:0.000=Song Start;
#BGCHANGES:-0.100=Astrum.mp4=1.000=0=0=1=====,
99999=-nosongbg-=1.000=0=0=0 // don't automatically add -songbackground-
;
#KEYSOUNDS:;
#ATTACKS:
;

//---------------dance-single - ----------------
#NOTEDATA:;
#CHARTNAME:;
#STEPSTYPE:dance-single;
#DESCRIPTION:;
#CHARTSTYLE:;
#DIFFICULTY:Hard;
#METER:17;
#RADARVALUES:0.820049,1.105759,0.328273,0.763013,0.408123,647.000000,610.000000,37.000000,86.000000,0.000000,0.000000,0.000000,0.000000,0.000000,0.820049,1.105759,0.328273,0.763013,0.408123,647.000000,610.000000,37.000000,86.000000,0.000000,0.000000,0.000000,0.000000,0.000000;
#CREDIT:Ben Speirs;
#NOTES:
// measure 0
0000
0000
0000
0000
,  // measure 1
0000
0000
0000
0000
,  // measure 2
0000
0000
0000
0000
,  // measure 3
0000
0000
0000
0000
,  // measure 4
0000
0000
0000
0000
,  // measure 5
0000
0000
0000
0000
,  // measure 6
0001
0000
1000
0010
0000
0010
0200
0000
,  // measure 7
0302
0000
1003
0100
1000
0000
0001
0010
,  // measure 8
0000
0000
0000
0010
0000
0000
0200
0000
0000
0000
0000
0000
0000
0000
2300
0300
0000
0000
0000
0000
0000
0000
0000
0002
,  // measure 9
0000
0000
0000
0000
,  // measure 10
0000
3003
0202
0000
,  // measure 11
3303
0000
1000
0100
1000
0001
0100
0020
,  // measure 12
2000
0000
0000
0000
3030
0000
0001
0010
,  // measure 13
0001
1000
0010
0100
0001
0010
0000
0010
,  // measure 14
0100
0000
1000
0010
0000
0010
0100
0000
,  // measure 15
0001
0000
0000
0100
0000
0000
0010
0000
0000
1000
0000
0000
0100
0000
0000
0010
0000
0000
0001
0000
1000
0000
0001
0000
,  // measure 16
1000
0001
0100
0010
1000
0001
0100
0001
,  // measure 17
0010
0011
0110
1100
,  // measure 18
0001
1000
0100
1000
0010
0000
1000
0010
,  // measure 19
0100
0001
0010
0100
2000
0000
3001
0100
,  // measure 20
1000
0000
0102
0000
1033
0100
0001
0000
,  // measure 21
2100
0000
3001
0100
0001
1000
0010
0100
,  // measure 22
0010
1000
0001
0010
0200
0000
0301
0200
,  // measure 23
0000
0310
0200
0000
1300
0001
0100
0010
,  // measure 24
0200
0000
1300
3200
0000
0310
0200
0000
,  // measure 25
0301
1000
0100
0010
0002
0000
1003
0020
,  // measure 26
0000
0130
0002
0000
0023
0000
0230
0000
,  // measure 27
3302
0000
0103
2000
0000
3001
0100
0010
,  // measure 28
1000
0001
0010
0100
0020
0000
0301
0000
,  // measure 29
0031
0000
1000
0010
1000
0010
0100
0001
,  // measure 30
1000
0000
0100
0000
1000
0000
0100
0000
0000
1000
0000
0000
0001
0000
0000
0100
0000
0000
0010
0000
0000
1000
0000
0000
,  // measure 31
0100
0000
0000
0010
0000
0000
0001
0000
0000
0000
0000
0000
0012
0000
0000
0000
0000
0000
1003
0000
0100
0000
1000
0000
,  // measure 32
0100
0000
0000
2001
0000
0000
3001
0100
0001
0100
0000
0000
,  // measure 33
0001
0010
0100
1000
0010
0100
0001
0000
,  // measure 34
0101
1100
2002
0000
,  // measure 35
0000
0000
0000
0000
,  // measure 36
0000
0000
0000
0000
3003
0000
3001
0010
0001
2000
0000
0000
,  // measure 37
3310
0100
0010
0200
0000
0000
3301
1000
0001
0020
0000
0000
,  // measure 38
0130
1000
0100
1000
0001
0000
1000
0010
1000
0001
0000
0001
,  // measure 39
0130
0010
0100
0010
1000
0000
0001
0010
0001
1000
0000
1000
,  // measure 40
0310
0100
0001
1000
0001
0000
1000
0100
1000
0100
0010
0000
,  // measure 41
0001
0100
0001
0100
0010
0000
1000
0100
0010
0001
0100
1000
,  // measure 42
0100
0000
0001
0000
0010
0000
0100
0000
1000
0000
0001
0000
0200
0000
0000
0000
0000
0000
0310
0000
0000
0002
0000
0000
,  // measure 43
0000
0013
2000
0000
3100
0002
0000
0103
,  // measure 44
2000
0000
0000
3001
0000
0000
1000
0010
1000
0020
0000
0000
,  // measure 45
0130
0001
1000
0100
0010
0001
0100
0010
,  // measure 46
1000
0000
0000
0000
0001
0000
0000
0000
1000
0000
0000
0000
0001
0000
0000
0010
0000
0000
0100
0000
0000
1000
0000
0000
,  // measure 47
0001
0000
0000
0100
0000
0000
0001
0000
0000
0100
0000
0000
0010
0000
0100
0000
0010
0000
0100
0000
0000
0001
0000
0000
,  // measure 48
2000
0000
0000
3001
0000
0000
1010
0000
0000
1000
0010
1000
,  // measure 49
0010
0100
0001
0000
0012
0000
1003
0000
,  // measure 50
0101
0000
0000
0000
0000
0000
0001
0000
0100
0000
0001
0000
0100
0000
0000
0010
0000
0000
1000
0000
0000
0000
0000
0000
,  // measure 51
1100
0000
0000
0000
0000
0000
1001
0000
0000
0000
0000
0000
0001
0000
0100
0000
0001
0000
0100
0000
0000
0010
0000
0000
,  // measure 52
1000
0100
0020
0000
0032
0000
2003
0000
,  // measure 53
3010
0010
0000
0110
0000
0001
1000
0000
,  // measure 54
0000
0000
0000
0000
1001
0000
0001
0100
,  // measure 55
0010
1000
0200
0000
0301
0000
0100
0010
,  // measure 56
0200
0000
1300
0002
,  // measure 57
0103
0010
0100
0010
2000
0000
0000
0000
,  // measure 58
3100
1000
0020
0000
0230
0000
0301
1000
,  // measure 59
0002
0000
0000
0000
0000
0000
0000
0000
0000
0000
0000
0000
1003
0000
0000
0010
0000
0000
0100
0000
0001
0000
0100
0000
,  // measure 60
0001
1000
0100
0010
0002
0000
0000
0013
,  // measure 61
1000
0010
0100
0000
1000
0010
3100
0001
,  // measure 62
2033
0000
0000
3010
0001
0010
0100
0000
,  // measure 63
0001
0000
0000
1000
0000
0000
0103
0000
0000
0000
0000
0000
2100
0000
0000
0000
0000
0000
3001
0000
0100
0000
0001
0000
,  // measure 64
0100
0000
0000
0102
0000
0000
1003
0100
1000
0100
0000
0000
,  // measure 65
0103
0010
1000
0010
0100
0010
0001
1000
,  // measure 66
0010
0100
0001
1000
0002
0000
1003
0100
,  // measure 67
0000
0100
0020
0000
0331
0100
0010
1000
,  // measure 68
0002
0000
0103
0020
0000
0031
0020
0000
,  // measure 69
1030
0100
3010
0000
2100
0000
3001
0100
,  // measure 70
0000
0100
0010
1000
0001
1000
0100
0010
,  // measure 71
0002
0000
0013
0000
0001
1000
0010
0000
,  // measure 72
1001
0000
1001
0000
1000
1000
0001
0100
,  // measure 73
0001
0100
0010
1000
0100
0000
1100
0000
,  // measure 74
0001
0001
1000
0010
1000
0010
0100
0001
,  // measure 75
0010
0000
0000
0000
0000
0000
0011
0000
0000
0000
0000
0000
1000
0000
0100
0000
1000
0000
0100
0000
0000
0010
0000
0000
,  // measure 76
0001
0000
0000
0100
0000
0000
0010
0000
0000
1000
0000
0000
0100
0000
0000
0010
0000
0000
0001
0000
1000
0000
0001
0000
,  // measure 77
2000
0000
0000
3020
,  // measure 78
0003
0000
3133
0000
2310
0000
3001
0010
,  // measure 79
3000
0000
0001
0100
0010
1000
0100
0010
,  // measure 80
0002
0000
1003
0010
0000
0000
1000
0100
,  // measure 81
0010
0001
0100
0010
1000
0001
0000
0001
,  // measure 82
0100
0000
0001
1000
0000
1000
0100
0000
,  // measure 83
1100
0110
0012
0103
,  // measure 84
0110
0000
1030
0001
2000
0000
3001
0100
,  // measure 85
0010
0100
0002
0000
0023
0000
0130
1000
,  // measure 86
0002
0000
1003
0010
0100
0010
2000
0000
,  // measure 87
3200
0000
0000
0000
0000
0000
0310
0000
0000
0001
0000
0000
2000
0000
0000
0000
0000
0000
3001
0000
0100
0000
0010
0000
,  // measure 88
0100
0000
0000
0102
0000
0000
1003
0100
0010
0100
0000
0000
,  // measure 89
1000
0000
0000
0010
0000
0000
0100
0000
0000
0001
0000
0000
1000
0000
0001
0000
1000
0000
0001
0000
0000
0000
0000
0000
,  // measure 90
0000
0000
0000
0000
0102
0000
0000
1003
,  // measure 91
0100
0010
2000
0000
3010
0001
1030
0000
,  // measure 92
2100
0000
0000
3001
0100
0010
0002
0000
,  // measure 93
0013
0000
0100
0000
0010
0000
0130
0000
0000
0000
0000
0000
0001
0000
0000
1000
0000
0000
0100
0000
0000
1000
0000
0000
,  // measure 94
0001
1000
0010
0100
0001
1000
1001
0000
,  // measure 95
1000
0000
0000
0001
0000
0000
0010
0000
0000
0001
0000
0000
1000
0000
0000
0001
0000
0000
0100
0000
0010
0000
0100
0000
,  // measure 96
0010
0000
0000
1000
0000
0000
1001
0000
0000
0000
0000
0000
0001
0000
0010
0000
0001
0000
0010
0000
0000
0001
0000
0000
,  // measure 97
1000
0010
0100
0001
1000
0010
0001
0010
,  // measure 98
1000
0000
0100
0000
1000
0000
0100
0000
0000
0020
0000
0000
0000
0000
0000
0031
0000
0000
1000
0000
0000
0010
0000
0000
,  // measure 99
0100
0001
0100
0001
0000
0000
2010
0000
0000
3001
0100
0010
,  // measure 100
0100
0000
0000
0102
0000
0000
1003
0100
0010
0100
0000
0000
,  // measure 101
1000
0000
0000
0001
0000
0000
1000
0000
0010
0000
0100
0000
0001
0000
0000
0010
0000
0000
0100
0000
0000
1000
0000
0000
,  // measure 102
0010
0000
0000
0100
0000
0000
0001
0000
0010
0000
0100
0000
2000
0000
0000
0000
0000
0000
0000
0000
0000
0000
0000
0000
,  // measure 103
0000
0000
0000
0000
,  // measure 104
3020
0000
0000
0001
,  // measure 105
0001
1000
0230
0000
,  // measure 106
0000
0000
0000
0000
,  // measure 107
2300
0000
0000
0000
0000
0000
3130
0010
,  // measure 108
1000
0100
0001
1000
0000
0000
0000
0000
;

//---------------dance-single - ----------------
#NOTEDATA:;
#CHARTNAME:;
#STEPSTYPE:dance-single;
#DESCRIPTION:;
#CHARTSTYLE:;
#DIFFICULTY:Medium;
#METER:13;
#RADARVALUES:0.594441,0.817300,0.230678,0.869480,0.093159,469.000000,443.000000,26.000000,98.000000,0.000000,0.000000,0.000000,0.000000,0.000000,0.594441,0.817300,0.230678,0.869480,0.093159,469.000000,443.000000,26.000000,98.000000,0.000000,0.000000,0.000000,0.000000,0.000000;
#CREDIT:Ben Speirs;
#NOTES:
0000
0000
0000
0000
,
0000
0000
0000
0000
,
0000
0000
0000
0000
,
0000
0000
0000
0000
,
0000
0000
0000
0000
,
0000
0000
0000
0000
,
2000
0000
0000
3002
0000
0000
0103
0000
,
0100
0000
0001
1000
0002
0000
0000
0023
,
0000
0000
0000
0000
0000
0000
0130
0000
0000
0000
0000
0000
0000
0000
2000
0000
0000
0000
0000
0000
0000
0000
0000
0002
,
0000
0000
0000
0000
,
0000
3003
2200
0000
,
3300
0000
0001
1000
0100
0010
0001
0000
,
0202
0000
0000
0000
0303
0000
1000
0001
,
0010
0100
1000
0000
2001
0000
3010
0000
,
0100
1002
0013
0100
,
1000
0001
0000
0001
0100
0000
0001
1000
,
0000
1000
0100
0000
1000
0000
0001
0100
,
0010
2000
3200
0320
,
0031
0000
1000
0010
0100
0000
0001
0010
,
0001
0010
0001
0000
1000
0000
0001
0100
,
0000
0100
0010
0000
1000
0100
0000
0100
,
0010
0000
0001
0000
1000
0000
0001
0100
,
0001
1000
0100
1000
0020
0000
0000
0230
,
0000
0000
0302
0000
1003
0103
0010
0000
,
3002
0000
0000
0203
0000
0000
0310
0000
,
0010
0000
1000
0000
0100
0000
0000
1002
,
0000
0203
0320
2030
,
3002
0000
0000
0013
0000
0000
0001
0100
,
0010
0000
1000
0100
0020
0000
0031
0000
,
1000
0000
0001
0100
0001
0000
1000
0010
,
1000
0000
0001
0000
0010
0100
1000
0000
,
0001
1000
0010
0000
2010
0000
3001
0100
,
0001
0000
0102
0000
1003
0100
1000
0000
,
0001
1000
0001
1000
0001
0000
0100
0000
,
0010
1000
2002
0000
,
0000
0000
0000
0000
,
0000
0000
0000
0000
3003
0000
1000
0000
0100
1000
0000
0000
,
0100
0000
0010
0100
0000
0000
0010
0000
0001
0010
0000
0000
,
0001
0000
1000
0000
1000
0000
0001
0000
0100
0001
0000
0000
,
0100
0000
0010
0100
0000
0000
0010
0000
1000
0010
0000
0000
,
1000
0000
0100
0000
0010
0000
0001
0000
0100
0010
0100
0000
,
0001
0000
1000
0100
1000
0000
0001
0000
0010
0100
0010
0000
,
0100
0000
0000
0000
1000
0000
0001
0000
1000
0000
0000
0000
0002
0000
0000
0000
0000
0000
0000
0000
0000
0203
0000
0000
,
0000
0000
0320
0000
0000
2030
0000
0000
,
3001
0000
0100
0000
0001
0010
0100
0000
,
1000
0000
0001
0100
0001
0000
1000
0100
,
0000
0100
0010
0000
0001
0010
0001
0000
,
1000
0000
0031
0100
0020
0000
0130
0000
,
0110
1001
0202
3303
,
1000
0100
0020
0000
0032
0000
1003
0000
,
2020
0000
3030
0000
0001
0100
0020
0000
,
2030
0000
3001
0000
1000
0100
0010
0000
,
0001
0100
0020
0000
2030
0000
3001
0000
,
1000
0100
0000
0100
0000
0010
0001
0000
,
0000
0000
0000
0000
2001
0000
0000
0001
,
0000
0000
3020
0000
0000
0000
0130
0001
,
2000
0000
0000
3100
3000
0000
2000
0000
,
3020
0000
0130
0000
0102
0000
0000
1000
,
0000
0023
0230
2300
,
3020
0000
0000
0100
0000
0000
1030
0000
,
0001
0000
1000
0100
0020
0000
0000
0100
,
0000
0032
0203
0320
,
2030
0000
0000
0001
0000
0000
3020
0000
,
0000
0000
0130
0000
0102
0000
1003
0010
,
1000
0000
2010
0000
3001
0010
0001
0000
,
1000
0001
1000
0000
0010
0000
1000
0100
,
0010
0001
0100
0010
2000
0000
0000
0000
,
3001
0000
0100
0000
0010
0100
0010
0000
,
1000
0000
0001
0010
0000
0010
0200
0000
,
2300
0000
3002
0000
0203
0000
0000
0010
,
0000
0000
0301
1000
0001
0000
1000
0100
,
0020
0000
0031
1000
,
1010
0000
1010
0000
0001
0100
0001
0100
,
0010
2000
3001
1001
,
1000
0100
1000
0100
0010
0000
0002
0000
,
1003
0000
1001
0000
0001
0100
0010
0000
,
1000
0000
0001
0010
0100
0000
0010
0000
,
0110
0000
0000
0000
,
0000
0000
0000
0000
2001
0000
0000
0001
,
0000
0100
0100
0100
,
3002
0000
0000
1000
0000
0000
0100
0000
,
0100
0100
2003
0000
,
3001
0010
0200
0000
2300
0000
3020
0000
,
0130
0100
0100
0002
,
0023
0000
0230
0000
1300
0000
0001
0100
,
0000
0100
0020
0000
2030
0000
3001
0100
,
0001
0000
1000
0100
0000
0100
0020
0000
,
0032
0000
1003
0010
1000
0000
0020
0000
,
0133
0001
0100
0000
0002
0000
1003
0000
,
0001
1000
0100
0000
1000
0001
1000
0000
,
0000
0000
0000
0000
0101
0000
0000
1000
,
0100
0000
0010
0000
0001
1000
0001
0000
,
1000
0000
0000
0001
0100
0000
0010
0000
,
1000
0001
1000
0000
0001
0100
0001
0100
,
0020
1030
0000
0101
,
1000
0100
1000
0100
0020
0000
0031
0000
,
0000
0000
1000
0000
0001
0100
0010
0100
,
0001
1000
0200
0000
0320
0000
0031
0000
,
1000
0010
0100
0010
1000
0001
0020
0000
,
0230
0000
1300
0000
2100
0000
3001
0010
,
0001
0000
0012
0000
1003
0010
1000
0000
,
0001
0100
0010
1000
0001
0000
1000
0100
,
0010
0001
1000
0001
2000
0000
0000
0000
,
0000
0000
0000
0000
,
3020
0000
0000
0100
,
0000
0000
0230
0000
,
0000
0000
0000
0000
,
0302
0000
0000
0000
0000
0000
1003
0100
,
1000
0001
0100
0001
0000
0000
0000
0000
;

//---------------dance-single - ----------------
#NOTEDATA:;
#CHARTNAME:;
#STEPSTYPE:dance-single;
#DESCRIPTION:;
#CHARTSTYLE:;
#DIFFICULTY:Easy;
#METER:9;
#RADARVALUES:0.404321,0.624994,0.212934,0.576696,0.022181,319.000000,295.000000,24.000000,65.000000,0.000000,0.000000,0.000000,0.000000,0.000000,0.404321,0.624994,0.212934,0.576696,0.022181,319.000000,295.000000,24.000000,65.000000,0.000000,0.000000,0.000000,0.000000,0.000000;
#CREDIT:Ben Speirs;
#NOTES:
0000
0000
0000
0000
,
0000
0000
0000
0000
,
0000
0000
0000
0000
,
0000
0000
0000
0000
,
0000
0000
0000
0000
,
0000
0000
0000
0000
,
0001
0000
0000
0001
0000
0000
1000
0000
,
1000
0000
0000
0000
0010
0000
0000
0010
,
0000
0200
0000
0000
,
0000
0000
0000
0000
,
0000
3303
2002
0000
,
3003
0001
0100
0010
,
2020
0300
3030
1000
,
0100
0010
0022
0033
,
1000
3000
2000
0000
0000
0000
3010
0000
,
0020
0000
0130
0200
,
0000
0301
2002
3003
,
0000
0001
0010
0100
,
2200
3300
0000
1000
,
0010
0100
0202
0303
,
1000
2000
3000
0100
,
0200
0300
0010
0020
,
0030
0000
0001
0000
0100
0000
0000
0100
,
0000
0010
0010
1000
,
0100
0000
0000
0100
0000
0000
0010
0000
,
0010
0000
0001
0000
1000
0000
0000
0010
,
0000
0100
0100
0001
,
1000
0000
0000
0010
0000
0000
1000
0000
,
0100
0010
0002
0000
,
0003
1000
0001
1000
,
0010
0010
0100
0010
,
0010
1000
1010
0000
,
0001
0002
0000
0013
,
0020
0000
0130
0100
,
1000
0001
2002
0000
,
0000
0000
0000
0000
,
0000
0000
0000
0000
3003
0000
0001
0000
0000
0101
0000
0000
,
0100
0110
0010
1000
,
0001
0000
0010
0000
0100
0000
1000
0000
0000
1010
0000
0000
,
0010
0110
0100
0001
,
1000
0000
0100
0000
0010
0000
0002
0000
0000
0100
0000
0000
,
2003
0010
3002
0010
,
2003
0000
0010
0000
3001
0000
0000
0100
,
0000
0000
0010
0000
0000
1000
0000
0000
,
0002
0000
1003
0100
,
0000
0010
0010
0001
,
1000
0010
0100
0001
,
1000
1000
0100
0010
,
0001
1000
2020
3030
,
1000
0100
0100
0010
,
0022
0033
0001
0100
,
0100
0010
1000
0100
,
0010
0001
0100
0010
,
1000
0000
0000
0001
0000
0000
0100
0000
,
0000
0000
2002
3003
,
0001
0020
0000
0130
,
0200
0000
1300
0001
,
1000
0010
0020
0000
,
0130
0001
1000
0001
,
0020
0000
0000
0130
,
1000
0001
0200
0000
,
0000
0310
1000
0001
,
2000
0000
0000
3200
,
0000
0310
0022
0033
,
0000
2200
3300
0000
,
0001
1000
0010
0100
,
0001
0010
0200
0000
,
1300
0001
0100
0100
,
0010
0000
0000
0010
0000
0000
1000
0000
,
0100
0000
0010
0000
0001
0000
0000
0001
,
0000
1000
1000
0010
,
0200
0000
0000
0300
,
0010
0100
0001
0001
,
0001
0010
0100
0100
,
1000
1000
1000
0010
,
0100
0100
0001
0010
,
0100
1000
0010
0100
,
0001
0000
0000
0000
,
0000
0000
2200
3300
,
0000
0001
1000
0000
,
0202
0303
0000
1000
,
0001
0000
1000
0200
,
0300
0010
0002
0003
,
1000
0010
0100
0001
,
0010
0000
0100
0000
1000
0000
0000
1000
,
0000
0100
0100
0010
,
0001
0000
0000
0001
0000
0000
0100
0000
,
0100
0010
1000
0100
,
0100
0010
0001
0001
,
1000
0001
0100
0010
,
0000
0000
2002
3003
,
0000
0000
0001
0003
0100
0000
0100
0000
,
0020
0030
0000
1000
,
0100
0000
0100
0000
0010
0000
0000
0010
,
0000
0001
1000
0010
,
0100
0000
0000
0100
0000
0000
0001
0000
,
1000
0000
0001
0010
,
0100
1000
1010
0000
,
1000
3000
0100
0000
0010
0000
0001
0000
,
0011
0000
2002
3003
,
0000
0220
0330
0000
,
0001
1000
0010
0100
,
0001
1000
0200
0000
,
0000
0000
0000
0000
,
0320
0000
0000
0000
,
0000
0000
0032
0000
,
0000
0000
0000
0000
,
0203
0000
0000
0000
0000
0000
3301
1000
,
0001
1000
0001
1000
0000
0000
0000
0000
;

//---------------dance-single - ----------------
#NOTEDATA:;
#CHARTNAME:;
#STEPSTYPE:dance-single;
#DESCRIPTION:;
#CHARTSTYLE:;
#DIFFICULTY:Beginner;
#METER:5;
#RADARVALUES:0.182515,0.336147,0.035489,0.000000,0.000000,144.000000,140.000000,4.000000,0.000000,0.000000,0.000000,0.000000,0.000000,0.000000,0.182515,0.336147,0.035489,0.000000,0.000000,144.000000,140.000000,4.000000,0.000000,0.000000,0.000000,0.000000,0.000000,0.000000;
#CREDIT:Ben Speirs;
#NOTES:
0000
0000
0000
0000
,
0000
0000
0000
0000
,
0000
0000
0000
0000
,
0000
0000
0000
0000
,
0000
0000
0000
0000
,
0000
0000
0000
0000
,
1000
0000
0000
1000
,
0000
0000
0001
0000
,
0000
0001
0000
0000
,
0000
0000
0000
0000
,
0000
0000
1001
0000
,
0000
0000
0001
0000
,
0001
0000
0000
0000
,
0100
0000
0100
0000
,
0000
0010
0000
0000
,
0010
0000
0000
1000
,
0000
0000
0100
0000
,
0000
0000
0010
0000
,
0010
0000
0000
0000
,
0001
0000
0001
0000
,
0000
1000
0000
0000
,
0010
0000
0000
0010
,
0000
0000
0100
0000
,
0100
0000
0100
0000
,
0001
0000
0000
0000
,
0001
0000
0010
0000
,
0010
0000
0010
0000
,
0100
0000
0000
0000
,
1000
0000
1000
0000
,
0000
0000
0001
0000
,
0001
0000
0000
0000
,
0100
0000
0100
0000
,
0000
0010
0000
0000
,
1000
0000
0000
0001
,
0000
0000
1001
0000
,
0000
0000
0000
0000
,
0000
0000
1000
0000
,
1000
0000
1000
0000
,
0100
0100
0100
0000
,
0100
0000
0100
0000
,
0010
0010
0010
0000
,
0010
0000
0001
0001
,
0001
0000
1000
0000
,
0000
0000
0010
0000
,
0000
0000
0100
0000
,
0100
0000
0100
0000
,
0000
0000
0001
0000
,
0001
0000
0001
0000
,
0000
0000
0010
0000
,
0000
0010
0000
0000
,
0100
0000
0000
0100
,
0000
0000
1000
0000
,
0000
1000
0000
0000
,
0001
0000
0000
1000
,
0000
0000
0010
0000
,
0000
0010
0000
0000
,
0100
0000
0000
0000
,
0000
0000
0100
0000
,
0000
0100
0000
0000
,
0001
0000
0000
0000
,
0000
0000
1000
0000
,
0000
1000
0000
0000
,
0100
0000
0000
0100
,
0000
0000
0010
0000
,
0000
0010
0000
0000
,
0001
0000
0000
1000
,
0000
0000
0001
0000
,
0000
0000
0100
0000
,
0100
0000
0000
0000
,
0100
0000
0010
0000
,
0000
0000
0010
0000
,
0010
0000
0000
0000
,
0000
0000
1000
0000
,
1000
0000
0100
0000
,
0010
0000
0010
0000
,
0001
0000
0100
0000
,
0100
0000
0100
0000
,
0100
0000
0000
0000
,
0000
0000
1001
0000
,
0000
0001
0000
0000
,
0100
0000
0000
0010
,
0000
0000
0010
0000
,
0000
1000
0000
0000
,
0100
0000
0000
0100
,
0000
0000
1000
0000
,
0000
1000
0000
0000
,
0001
0000
0000
0001
,
0000
0000
0100
0000
,
0000
0100
0000
0000
,
0010
0000
0000
0010
,
0000
0000
1001
0000
,
0000
0000
1000
0000
,
0100
0000
0000
0000
,
0010
0000
0001
0000
,
0000
0000
1000
0000
,
1000
0000
0000
0000
,
0001
0000
0001
0000
,
0000
0000
0001
0000
,
0100
0000
0000
0000
,
0100
0000
0010
0000
,
0000
0010
0000
0000
,
0100
0000
0000
0100
,
0000
0000
0001
0000
,
0000
0000
0000
0000
,
0010
0000
0000
0000
,
0000
0000
0100
0000
,
0000
0000
0000
0000
,
1000
0000
0000
0001
,
0001
0001
0000
0000
;

//---------------dance-double - ----------------
#NOTEDATA:;
#CHARTNAME:;
#STEPSTYPE:dance-double;
#DESCRIPTION:;
#CHARTSTYLE:;
#DIFFICULTY:Hard;
#METER:17;
#RADARVALUES:0.770618,1.201913,0.257295,0.860608,0.270604,608.000000,579.000000,29.000000,97.000000,0.000000,0.000000,0.000000,0.000000,0.000000,0.770618,1.201913,0.257295,0.860608,0.270604,608.000000,579.000000,29.000000,97.000000,0.000000,0.000000,0.000000,0.000000,0.000000;
#CREDIT:Ben Speirs;
#NOTES:
00000000
00000000
00000000
00000000
,
00000000
00000000
00000000
00000000
,
00000000
00000000
00000000
00000000
,
00000000
00000000
00000000
00000000
,
00000000
00000000
00000000
00000000
,
00000000
00000000
00000000
00000000
,
00010000
00000000
00001000
00000100
00000000
00000100
00000020
00000000
,
00002030
00000000
00003100
00010000
00001000
00000000
00010000
01000000
,
00000000
00000000
00000000
01000000
00000000
00000000
00100000
00000000
00000000
00000000
00000000
00000000
00000000
00000000
00020000
00000000
00000000
00000000
00000000
00000000
00000000
00000000
00000000
20000000
,
00000000
00000000
00000000
00000000
,
00000000
33030000
02002000
00000000
,
03003000
00000000
00001000
00100000
00010000
00100000
00001000
00020000
,
00000020
00000000
00000000
00000000
00030030
00000000
00010000
00000100
,
00001000
00000100
00010000
00001000
01000000
00100000
00000000
00100000
,
10000000
00000000
00010000
00100000
00000000
00100000
00001000
00000000
,
00010000
00000010
00000000
00000010
00001000
00000001
00000010
00000100
,
00001000
00000010
00000100
00000001
00002000
00000000
00003001
00000100
,
00000000
00000100
00002000
00000000
00023000
00000000
00230000
00000000
,
02300000
00000000
03010000
00100000
00000000
00010000
10000000
00010000
,
01000000
00100000
10000000
00000000
20100000
00000000
30010000
00100000
,
00000000
00100000
00001000
00000000
00010000
00000010
00000000
00000010
,
00000100
00000001
00001000
00000001
00000010
00000100
00010000
00001000
,
01000000
00100000
10000000
00010000
00200000
00000000
10300000
00200000
,
00000000
00301000
00200000
00030000
01300000
00010000
00000100
00001000
,
00000020
00000000
00000331
00000020
00000000
00010030
00000020
00000000
,
00000230
00003000
00000301
00001000
00000200
00000000
00010300
00000010
,
00000000
00000010
00020000
00000000
00031000
00100000
00010000
00000000
,
00120000
00000000
00000000
20030000
00000000
00000000
30010000
01000000
,
00100000
01000000
10000000
01000000
00002000
00000000
00000000
00000000
,
00103000
00000000
00001000
00010000
00000010
00000100
00000010
00000100
,
00000001
00000010
00000100
00001000
00000010
00000000
00010000
00001000
,
00100000
00000000
00010000
00000000
00100000
00000000
00010000
00000000
00000000
00000000
00000000
00000000
00102000
00000000
00000000
00000000
00000000
00000000
00013000
00000000
00000000
00000010
00000000
00000000
,
00001000
00000000
00020010
00000000
00031000
01000000
00010000
00000000
,
01000000
00001000
01003000
00001000
01000000
00001000
00010000
00000100
,
00000010
00000001
00000100
00000000
00000220
00000000
00000000
00000000
,
00000000
00000000
00000000
00003003
,
00000000
00000000
00000000
00000330
00000000
00000000
00000001
00000100
00000001
00002000
00000000
00000000
,
00003100
00000010
00000100
00020000
00000000
00000000
00031000
00100000
00001000
02000000
00000000
00000000
,
03100000
00000000
00100000
00000000
10000000
00000000
00010000
00100000
00001000
00200000
00000000
00000000
,
00301000
00010000
00000010
00000100
00000020
00000000
00001030
00000100
00010000
00002000
00000000
00000000
,
00103000
00000000
00001000
00000000
00010000
00000000
00001000
00010000
00000010
00010000
00000010
00010000
,
00001000
01000000
00010000
01000000
00010000
01000000
00001000
00010000
00000010
00001000
00000100
00010000
,
00001000
00000000
00100000
00000000
00010000
00000000
01000000
00000000
00100000
00000000
10000000
00000000
00020000
00000000
00000000
00000000
00000000
00000000
00130000
00000000
00000000
20000000
00000000
00000000
,
00300000
30100000
00002000
00000000
00013000
00000020
00000000
00000031
,
00000020
00000000
00000000
00001030
00000000
00000000
00000001
00000010
00000001
00000010
00000000
00000000
,
00000100
00000000
00010000
00001000
00010000
00001000
01000000
00100000
,
10000000
00000000
00000000
00000000
00010000
00000000
00000000
00000000
10000000
00000000
00000000
00000000
01000000
00000000
00000000
00100000
00000000
00000000
00001000
00000000
00000000
00010000
00000000
00000000
,
00000010
00000100
00001000
00000100
00000020
00000000
00001030
00000100
,
00010000
00001000
00013000
00000000
00020100
00000000
00031000
01000000
,
00010000
00000000
01002000
00000000
00013000
00000010
00001000
00000000
,
00000010
00010000
00030010
00010000
00000010
00001000
00000200
00000000
,
00020300
00000000
00000000
00000000
00000000
00000000
02030000
00000000
00000000
00300000
00000000
00000000
03100000
00000000
00010000
00000000
00100000
00000000
00010000
00000000
00000000
10000000
00000000
00000000
,
00100000
00010000
00002000
00000000
00023000
00000000
00030020
00000000
,
00000130
00000100
00000000
00000100
00000000
00000001
00001000
00000000
,
00000000
00000000
00000000
00000000
00002001
00000000
00003001
00000010
,
00000000
00000010
00000200
00000000
00000000
00000000
00001300
00000010
,
00020000
00000000
00031000
00101000
,
00100000
00000000
00010000
10000000
00200000
00000000
00000000
01300000
,
00010000
01000000
00200000
00000000
20300000
00000000
30020000
00000000
,
00230000
00000000
00000000
00000000
00000000
00000000
00000000
00000000
00000000
00301000
00000000
00000000
00010000
00000000
00000000
00001000
00000000
00000000
00000100
00000000
00000010
00000000
00000100
00000000
,
00000310
00001000
00000001
00000000
00000012
00000000
00000000
00001003
,
00000003
00001000
00000010
00000000
00001000
00000010
00010000
00000000
,
00012000
00000000
00000000
00103000
00000000
00100000
01000000
00000000
,
00100000
00001000
00010000
00000000
01002000
00000000
00013000
00000100
,
00001000
00000000
00020100
00000000
00031000
00100000
00010000
00000000
,
00100000
00010000
10000000
00100000
01000000
00010000
00100000
00001000
,
00010000
00000010
00000100
00000001
00002000
00000000
00003001
00000010
,
00000000
00000100
00020000
00000000
00031000
00100000
00002000
00000000
,
00023000
00000000
00130000
10000000
00100000
01000000
00020000
00000000
,
00230000
00000000
01300000
00000000
21000000
00000000
30100000
01000000
,
00000000
00001000
00010000
00000100
00010000
00000100
00000010
00000001
,
00002000
00000000
00000010
00000000
00003010
00010000
00000100
00000000
,
00010100
00000000
00011000
00000000
00100000
00100000
00001000
00100000
,
00010000
00100000
01000000
00100000
00001000
00010000
00001000
00010000
,
00000010
00000010
00010000
00000010
00001000
00000010
00000100
00000010
,
00010000
00001000
00010000
00001000
00100000
01000000
10000000
00100000
,
01000000
00000000
00000000
00010000
00000000
00000000
00100000
00000000
00000000
00001000
00000000
00000000
00010000
00000000
00000000
00000010
00000000
00000000
00000100
00000000
00000010
00000000
00000100
00000000
,
00000020
00000000
00000000
00020030
,
00000000
00000000
00031300
00000000
00012000
00000000
00103000
00010000
,
00000000
00000000
10000000
00100000
10000000
00010000
00100000
00001000
,
00020000
00000000
00030010
00001000
00000000
00000000
00000001
00000010
,
00000001
00001000
00000010
00010000
00002000
00000000
00103000
00000000
,
00001000
01000000
00200000
00000000
20300000
00000000
31000000
00000000
,
11000000
01100000
00010000
00101000
,
00011000
00000000
00010000
00000010
00002000
00030000
00003001
00000100
,
00000000
00000100
00002000
00000000
00023000
00000000
00130000
01000000
,
00020000
00000000
10030000
01000000
00000000
01000000
00020000
00000000
,
00031000
00000000
00000000
01000000
00000000
00000000
00001000
00000000
00000000
00010000
00000000
00000000
00000200
00000000
00000000
00000000
00000000
00000000
00001300
00000000
00000001
00000000
00001000
00000000
,
00000001
00000000
00000000
00000200
00000000
00000000
00000310
00001000
00000010
00001000
00000000
00000000
,
00000010
00001000
00000130
00010000
00001000
01000000
00100300
00000000
,
00000000
00000000
00003000
00000000
10320000
00000000
00000000
00130000
,
10000000
00100000
02000000
00000000
03010000
00000100
00030010
00000000
,
00002301
00000000
00000000
00003010
00000001
00000010
00000200
00000000
,
00001330
00000000
00010000
00000000
00001000
00000000
00010000
00000000
00000000
00001000
00000000
00000000
00100000
00000000
00000000
00010000
00000000
00000000
10000000
00000000
00000000
00310000
00000000
00000000
,
01000000
00010000
10000000
00010000
00100000
00001000
00020000
00000000
,
00030010
00001000
00000001
00001000
00000100
00001000
00000001
00001000
,
00000010
00000000
00000000
00010000
00000000
00000000
00002000
00000000
00000000
00000000
00000000
00000000
00103000
00000000
00010000
00000000
00100000
00000000
00010000
00000000
00000000
10000000
00000000
00000000
,
00100000
10100000
10010000
01010000
,
00001000
00000000
00010000
00000000
00001000
00000000
00010000
00000000
00000000
00000200
00000000
00000000
00000000
00000000
00000000
00001300
00000000
00000000
00000001
00000000
00000000
00000100
00000000
00000000
,
00000010
00010000
00001000
00000000
00020100
00000000
00031000
01000000
,
00010000
00000000
01002000
00000000
00013000
00000010
00001000
00000000
,
00000100
00000000
00010000
00000000
00000100
00000000
00010000
00000000
00000000
00001000
00000000
00000000
00100000
00000000
00000000
00010000
00000000
00000000
01000000
00000000
00100000
00000000
01000000
00000000
,
00100000
10000000
00010000
10000000
02000000
00000000
00000000
00000000
,
00000000
00000000
00000000
00000000
,
03020000
00000000
00000000
01000000
,
01000000
00001000
00032000
00000000
,
00000000
00000000
00000000
00000000
,
00003200
00000000
00000000
00000000
00000000
00000000
00001300
00010000
,
00100000
10000000
01000000
00100000
00000000
00000000
00000000
00000000
;

//---------------dance-double - ----------------
#NOTEDATA:;
#CHARTNAME:;
#STEPSTYPE:dance-double;
#DESCRIPTION:;
#CHARTSTYLE:;
#DIFFICULTY:Medium;
#METER:13;
#RADARVALUES:0.576696,0.721147,0.328273,0.825119,0.088722,455.000000,418.000000,37.000000,93.000000,0.000000,0.000000,0.000000,0.000000,0.000000,0.576696,0.721147,0.328273,0.825119,0.088722,455.000000,418.000000,37.000000,93.000000,0.000000,0.000000,0.000000,0.000000,0.000000;
#CREDIT:Ben Speirs;
#NOTES:
00000000
00000000
00000000
00000000
,
00000000
00000000
00000000
00000000
,
00000000
00000000
00000000
00000000
,
00000000
00000000
00000000
00000000
,
00000000
00000000
00000000
00000000
,
00000000
00000000
00000000
00000000
,
00001000
00000000
00100000
00010000
00003000
00010000
02000000
00000000
,
03001000
00000000
00010000
00001000
00010000
00000000
00000010
00001000
,
00000000
00000000
00000000
00001000
00000000
00000000
00000200
00000000
00000000
00000000
00000000
00000000
00000000
00000000
00020300
00000300
00000000
00000000
00000000
00000000
00000000
00000000
00000000
00002000
,
00000000
00000000
00000000
00000000
,
00000000
00033000
20020000
00000000
,
30030000
00000000
00010000
00000000
01000000
00001000
00010000
00000000
,
00022000
00000000
00033000
00010000
,
00000100
00000010
00000001
00000000
00000012
00000000
00001033
00000000
,
00000010
00000000
00010020
00300000
00013030
00000000
00001000
00000000
,
00100000
00010000
00100000
00010000
00100000
00000000
00010000
00000000
,
10000000
00000000
00100000
01000000
00020000
00000000
00000000
00000000
,
10030000
02000000
03020000
00032000
,
00003020
00000000
00000000
00000000
00000031
00001000
00000010
00000000
,
00001000
00000100
00010000
00001000
00020000
00000000
00030000
00000000
,
00000010
00010000
00002000
00000000
00003000
00000000
00100000
00001000
,
00010000
00000000
00001000
00000000
01000000
00000000
00010000
10000000
,
00010000
10000000
00100000
00000000
10020000
00000000
00000000
00230000
,
00000000
00000000
00302000
00000000
00013000
00000010
00000100
00000000
,
00000002
00000000
00000000
00000023
00000000
00000000
00000130
00000000
,
00000100
00000000
00010000
00001000
00010000
00000000
00000000
02001000
,
00000000
00000000
03100000
00000000
10000000
01000000
00100000
00000000
,
00020000
00000000
00000000
02030000
00000000
00000000
03100000
10000000
,
00010000
00000000
00010000
10000000
02000000
00000000
00000000
00000000
,
03100000
00000000
00001000
00000000
00010000
00001000
00010000
00000000
,
00000010
00001000
00000010
00001000
00000001
00000000
00001000
00000000
,
00000100
00010000
00001000
00000000
00102000
00000000
00000000
00000000
,
00013000
00020010
00000000
00031000
,
01000000
00010000
01000000
00010000
01000000
00000000
00100000
00000000
,
10000000
00010000
20020000
00000000
,
00000000
00000000
00000000
00000000
,
00000000
00000000
00000000
30030000
00000000
00000000
00010000
00000000
01000000
00010000
00000000
00000000
,
01000000
00000000
00100000
01000000
00000000
00000000
00100000
00000000
10000000
00100000
00000000
00000000
,
10000000
00000000
01000000
00000000
00010000
00000000
00001000
00000000
00010000
00001000
00000000
00000000
,
00100000
00000000
00001000
00100000
00000000
00000000
00001000
00000000
00010000
00001000
00000000
00000000
,
00010000
00000000
00000010
00000000
00000100
00000000
00000001
00000000
00001000
00000000
00001000
00000000
,
00000100
00000000
00010000
00000000
00010000
00000000
00001000
00000000
00100000
00010000
00100000
00000000
,
00010000
00000000
00000000
00000000
10000000
00000000
00100000
00000000
10000000
00000000
00000000
00000000
00010000
00000000
00000000
00000000
00000000
00000000
01000000
00000000
00000000
00200000
00000000
00000000
,
00000000
00000000
00320000
00000000
00000000
00032000
00000000
00000000
,
00003100
00000000
00000010
00000000
00001000
00000001
00001000
00000000
,
00000000
00000000
00001000
00000100
00010000
00000000
00001000
01000000
,
00000000
01000000
00100000
00000000
10000000
00010000
10000000
00000000
,
02000000
03100000
00002000
00313000
,
00000010
00000000
00000010
00000000
00001002
00000000
00000000
00000103
,
00000000
00000100
00001000
00000000
00010000
00000000
00100000
00000000
,
20010000
00000000
00000000
31030000
00000000
01000000
00010000
00000000
,
00001000
00000000
00000010
00000000
00000001
00001000
00000001
00000000
,
00001000
00000010
00020000
00000000
00032030
00000000
01033000
00000000
,
00001000
00010000
00000000
00001000
00000000
00100000
01000000
00000000
,
00000000
00000000
00000000
00000000
10020000
00000000
00000000
01030000
,
00030000
01000000
00200000
00000000
00000000
00000000
13300000
01000000
,
00200000
00000000
00301000
00020000
,
00030020
00000230
00000302
00000000
,
00001003
00002000
00003020
00020030
,
00032000
00000000
00000000
00000000
00103000
00000000
00010000
01000000
,
00100000
00000000
10000000
00010000
20000000
00000000
00000000
31000000
,
00000000
00100000
00001000
00000000
00010000
00000000
00000010
00000000
,
00000200
00000000
00000000
00000301
00000000
00001000
00000100
00000000
,
00010000
00001000
00010000
00000000
01002000
00000000
00000000
00000000
,
00013000
00020100
00000000
00031000
,
00100000
00000000
00010000
00000000
10000000
00000000
00100000
01000000
,
00100000
01000000
00100000
01000000
00010000
00000000
10000000
01000000
,
00000000
01000000
00200000
00000000
00302000
00000000
00023000
00000000
,
00030010
00000000
00001000
00000001
00000000
00000001
00000200
00000000
,
00000320
00000000
00020030
00000000
00031000
00000000
00100000
00020000
,
00000000
00000000
10030000
00100000
10000000
00100000
01000000
00000000
,
00002000
00000000
00103000
00001000
,
00011000
00000000
00011000
00000000
00010000
00000010
00010000
00000010
,
00010000
00000000
00001000
00011000
,
00001000
00100000
00001000
00100000
00001000
00000000
00000000
00000000
,
00010000
00011000
00010000
00000010
,
00000100
00000000
00000001
00000000
00000010
00000000
00000100
00010000
,
00001000
00000000
00000000
00000000
,
00000000
00000000
00000000
00000000
01001000
00000000
00000000
01001000
,
00000000
02000000
03020000
10030000
,
11000000
00000000
00000000
11000000
00000000
00000000
20000000
00000000
,
30020000
00130000
00022000
00033000
,
00010000
00000010
00020000
00000000
00030200
00000000
00000320
00000000
,
00000032
00000000
00000203
00000000
00000310
00001000
00000100
00000000
,
00000100
00000000
00000100
00000000
00020000
00000000
00031000
01000000
,
00001000
01000000
00100000
00000000
00100000
00000000
10000000
00000000
,
00010000
00000000
00100000
00001000
00100000
00001000
00010000
00000000
,
00010000
00000000
00000010
00000000
00002020
00030300
00003030
00000000
,
00003001
00000022
00000033
00001000
,
00000001
00000100
00003013
00000000
00001000
00000000
00001100
00000000
,
00000000
00000000
00000000
00000000
00010100
00000000
00000000
00010000
,
00001000
01000000
00010000
10000000
,
10100000
00000000
00000000
10000000
01000000
00000000
00100000
00000000
,
00010000
01000000
00001000
00000000
00011000
00000000
00000000
00021000
,
00000000
00030020
00002030
00003100
,
00011000
00000000
00000000
00012000
00000000
00000000
00203000
00000000
,
02300000
00000000
13000000
00000000
00010000
01000000
00010000
01000000
,
00002000
00013000
00000000
00011000
,
00010000
00000100
00010000
00000100
00000020
00000000
00000031
00000000
,
00000000
00000011
00002001
00003100
,
00010000
00012000
01003000
00010000
,
02010000
00000000
03100000
00000000
10000000
00000000
00010000
10000000
,
00010000
10000000
01000000
00100000
00002000
00000000
00000000
00000000
,
00000000
00000000
00000000
00000000
,
00023000
00000000
00000000
00000010
,
00000000
00000000
00030200
00000000
,
00000000
00000000
00000000
00000000
,
00000320
00000000
00000000
00000000
00000000
00000000
00000031
00001000
,
00000001
00001000
00000001
00000100
00000000
00000000
00000000
00000000
;

//---------------dance-double - ----------------
#NOTEDATA:;
#CHARTNAME:;
#STEPSTYPE:dance-double;
#DESCRIPTION:;
#CHARTSTYLE:;
#DIFFICULTY:Easy;
#METER:9;
#RADARVALUES:0.363762,0.528232,0.141956,0.319401,0.000000,287.000000,271.000000,16.000000,36.000000,0.000000,0.000000,0.000000,0.000000,0.000000,0.363762,0.528232,0.141956,0.319401,0.000000,287.000000,271.000000,16.000000,36.000000,0.000000,0.000000,0.000000,0.000000,0.000000;
#CREDIT:Ben Speirs;
#NOTES:
00000000
00000000
00000000
00000000
,
00000000
00000000
00000000
00000000
,
00000000
00000000
00000000
00000000
,
00000000
00000000
00000000
00000000
,
00000000
00000000
00000000
00000000
,
00000000
00000000
00000000
00000000
,
00010000
00000000
00000000
00010000
00000000
00000000
00000100
00000000
,
00000100
00000000
00010000
00000000
00001000
00000000
00000000
00001000
,
00000000
00022000
00000000
00000000
,
00000000
00000000
00000000
00000000
,
00000000
00033000
20020000
00000000
,
30030000
00010000
00100000
00001000
,
00022000
00000000
00033000
00010000
,
00000010
00000100
00000002
00000000
,
00000013
00000020
00000000
00000130
,
00000200
00000000
00010300
00020000
,
00000000
00031000
00100000
00000000
,
00001000
01000000
00100000
10000000
,
00010000
00000000
10000000
01000000
,
00100000
00010000
02000000
00000000
,
03301000
00002000
00000000
00013000
,
00020000
00000000
00030100
00000200
,
00000000
00000000
00000310
00000000
00000001
00000000
00000000
00000001
,
00000000
00000001
00000100
00000010
,
00001000
00000000
00000000
00001000
00000000
00000000
00001000
00000000
,
00000100
00000000
00000000
00000000
00010000
00000000
00000000
00001000
,
00000000
00001000
00100000
00010000
,
01000000
00000000
00000000
01000000
00000000
00000000
00010000
00000000
,
10000000
00010000
02000000
00000000
,
00000000
03100000
10000000
00100000
,
01000000
01000000
00010000
00100000
,
00001000
00000000
00200000
00000000
,
00301000
00002000
00000000
00013000
,
00020000
00000000
00030010
00000010
,
00000100
00000002
00002000
00000000
,
00000000
00000000
00000000
00000000
,
00000000
00003003
00001000
00001100
,
00000100
00010000
00001000
00011000
,
00200000
00300000
00010000
01010000
,
01000000
00100000
10000000
10100000
,
00020000
00030000
00100000
00001000
,
00010000
00000010
00000100
00000001
,
00000010
00000000
00000100
00000000
00010000
00000000
00000000
00010000
,
00000000
00000000
00001000
00000000
00000000
00001000
00000000
00000000
,
02000000
00000000
03100000
00000000
,
00100000
10000000
00010000
00100000
,
00001000
00000000
00001000
00010000
,
00000010
00000000
00000010
00000100
,
00000001
00000000
00001001
00000000
,
00001000
00000100
00010000
00000000
,
00011000
00000000
00001000
01000000
,
00010000
00000000
10000000
00010000
,
10000000
00010000
01000000
00100000
,
10000000
00000000
00000000
00010000
00000000
00000000
00100000
00000000
,
00000000
00000000
10020000
00000000
,
00000000
02030000
00000000
03001000
,
00002000
00000000
00000000
00013000
,
00000100
00010000
00000200
00000000
,
00000000
00000000
00000010
00000300
00000001
00000000
00000010
00000000
,
00000002
00000000
00000000
00001003
,
00000010
00000100
00000020
00000000
,
00000000
00000000
00010030
00001000
,
00020000
00000000
00000000
00032000
,
00000000
00000000
00103000
00000000
,
00000000
10010000
00000000
00000000
,
00010000
10000000
00100000
01000000
,
00010000
00100000
00001000
00000000
,
00010000
00001000
00010000
00000100
,
00000010
00000000
00000010
00000001
,
00000010
00000001
00001000
00000000
,
00000001
00000100
00000001
00000100
,
00000020
00000000
00000000
00000000
,
00001030
00000001
00001000
00001000
,
00001000
00000100
00010000
00000000
,
00001000
00001000
00001000
00100000
,
00010000
00000000
10000000
10000000
,
10000000
00010000
00010000
00010000
,
01000000
00000000
00000000
00000000
,
00000000
00000000
10010000
00000000
,
00000000
10000000
00010000
00100000
,
00001000
00000000
00000000
00010000
,
00000010
00001000
00000001
00000000
,
00000000
00001000
00000100
00000010
,
00000001
00000000
00000000
00000100
,
00000000
00000000
00000010
00000100
,
00000010
00000100
00000100
00000000
,
00000001
00000100
00000001
00000100
,
00000100
00000000
00000001
00001000
,
00000100
00010000
00001000
00100000
,
00010000
01000000
00100000
00100000
,
00000000
00000000
10010000
00000000
,
00010000
00000000
00100000
00100000
,
00001000
00000000
00010000
00000000
,
00000010
00000010
00001000
00000000
,
00000001
00000000
00000100
00000100
,
00000010
00000000
00001000
00000000
,
00000100
00000000
00010000
00001000
,
00010000
00001000
00100000
00010000
,
10000000
00100000
10000000
00100000
,
01000000
00010000
00100000
00000000
,
00000000
00011000
00000000
00000000
,
00000010
00000000
00000000
00011000
,
00000000
00000000
00200000
00000000
,
00000000
00000000
00000000
00000000
,
02300000
00000000
00000000
00000000
,
00000000
00000000
23000000
00000000
,
00000000
00000000
00000000
00000000
,
30020000
00000000
00000000
01030000
,
00001000
00011000
00000000
00000000
;
