#TITLE:Analogy;
#SUBTITLE:;
#ARTIST:彩音;
#TITLETRANSLIT:;
#SUBTITLETRANSLIT:;
#ARTISTTRANSLIT:Ayane;
#GENRE:;
#CREDIT:;
#BANNER:Analogy.png;
#BACKGROUND:;
#LYRICSPATH:;
#CDTITLE:;
#MUSIC:Analogy.ogg;
#OFFSET:-0.253000;
#SAMPLESTART:49.660000;
#SAMPLELENGTH:12.000000;
#SELECTABLE:YES;
#BPMS:0.000000=136.000000
;
#STOPS:100.000000=0.221000,
101.000000=0.221000,
102.000000=0.221000,
106.500000=0.662000
;
#BGCHANGES:;
#KEYSOUNDS:;
#ATTACKS:;

//---------------dance-single - ----------------
#NOTES:
     dance-single:
     :
     Hard:
     14:
     0.568653,0.666508,0.242847,0.591279,0.348432,377.000000,354.000000,23.000000,56.000000,0.000000,0.000000,0.568653,0.666508,0.242847,0.591279,0.348432,377.000000,354.000000,23.000000,56.000000,0.000000,0.000000:
// measure 0
0000
0000
0000
0000
,  // measure 1
0000
0000
0000
0000
,  // measure 2
0000
0000
0000
0000
0000
0000
0000
2000
,  // measure 3
0100
0000
0000
3002
0000
0000
2003
0000
0100
0000
0000
3002
0000
0000
2003
0000
,  // measure 4
0100
0000
0000
3002
0000
0000
2003
0000
3100
0000
0000
0000
0000
0000
0100
1000
,  // measure 5
0001
0000
0001
0010
0000
0000
0010
0001
1000
0000
1000
0010
0000
0000
0100
0000
,  // measure 6
0001
0000
0000
0010
0000
0000
0001
0000
1000
0000
0000
0000
0000
0000
0002
0000
,  // measure 7
0100
0000
0000
2003
0000
0000
3002
0000
0103
0000
0001
2000
0000
0000
3002
0000
,  // measure 8
0100
0000
0000
2003
0000
0000
3001
0000
0010
0000
0000
0000
0000
0000
0100
1000
,  // measure 9
0010
0000
0010
0100
0000
0000
0100
0001
0010
0000
0010
0100
0000
0000
1000
0000
,  // measure 10
0010
0000
0000
0110
0000
0000
0001
0000
0010
0000
0000
0000
0000
0000
0000
0000
,  // measure 11
0120
0000
0000
0000
0000
0000
0031
0000
0200
0000
0000
0000
1300
0000
0100
0010
,  // measure 12
0200
0000
0010
0000
0000
0000
0301
0000
0020
0000
0000
0000
1030
0000
0010
0100
,  // measure 13
2000
0000
0000
0000
0000
0000
3001
0000
0100
0000
0020
0000
0000
0000
0130
0001
,  // measure 14
1000
0000
0001
1000
0100
0000
0020
0000
0000
0000
0130
1000
0010
0000
0100
0001
,  // measure 15
0200
0000
0000
0000
0000
0000
1300
0000
0200
0000
0000
0000
0301
0000
0010
0100
,  // measure 16
0020
0000
0100
0000
0000
0000
1030
0000
0020
0000
0000
0000
0031
0000
0100
0010
,  // measure 17
0200
0000
0000
0000
0000
0000
1300
0000
0100
0000
0020
0000
0000
0000
1030
0001
,  // measure 18
1000
0000
0001
0000
0010
0000
2100
0000
0000
0000
3100
0000
0010
0002
0000
0000
,  // measure 19
0203
0000
0010
0000
1000
0000
0301
0100
,  // measure 20
1010
0000
0000
1001
0000
0000
1100
0000
1000
0000
0010
0000
0200
0000
0000
0000
,  // measure 21
0320
0000
0100
0000
0001
0000
1030
0010
,  // measure 22
0101
0000
0000
1001
0000
0000
0011
0000
1000
0000
0100
0000
0110
0000
0000
0000
,  // measure 23
0021
0000
0100
0000
1000
0000
0031
0100
,  // measure 24
1010
0000
0000
0101
0000
0000
0011
0000
0001
0000
1000
0000
0100
0000
0010
0000
,  // measure 25
0202
0303
0000
0000
0000
0000
0000
0000
0010
0000
0000
0000
0000
0000
0000
0000
2200
3300
0000
0000
0000
0000
0000
0000
0001
0000
0000
0000
0000
0000
0000
0000
0220
0330
0000
0000
0000
0000
0000
0000
0010
0000
0000
0000
0000
0000
0000
0000
1001
0000
0000
0000
0000
0000
0000
0000
2000
0000
0000
0000
0000
0000
0000
0000
,  // measure 26
0000
3001
0100
0000
0010
0000
1000
0000
0001
0000
0220
0000
0000
0000
0330
0000
,  // measure 27
1001
0000
1000
0100
0010
1000
0010
0100
,  // measure 28
1000
0001
1000
0000
0001
0000
0100
0000
0010
0000
0001
0000
0010
0000
0100
0000
,  // measure 29
0001
1000
0001
0000
0010
0000
0100
0000
0010
0000
1000
0000
0010
0000
0100
0000
,  // measure 30
1000
0001
1000
0000
0010
0000
0100
0000
0010
0000
0001
0000
0010
0000
0100
0000
,  // measure 31
0001
1000
0001
0000
0200
0000
1000
0000
0000
0000
1300
0000
0100
0000
0010
0000
,  // measure 32
1000
0100
0002
0000
0103
2000
0000
3010
,  // measure 33
0100
0002
0010
0000
0023
1000
0000
1030
,  // measure 34
0010
0000
0000
0000
0000
0000
0001
0000
0000
0000
0000
0000
1000
0000
0000
0000
0000
0000
0001
0000
0100
0000
0001
0000
1000
0000
0000
0010
0000
0000
0000
0000
0000
0100
0000
0000
0000
0000
0000
0000
0000
0000
0010
0000
0000
0000
0000
0000
,  // measure 35
0110
0000
0001
0010
1000
0001
0100
0010
,  // measure 36
0100
1000
0001
0000
1000
0000
0010
0000
0001
0000
1000
0000
0100
0000
0010
0000
,  // measure 37
0100
0001
1000
0000
0001
0000
0010
0000
1000
0000
0001
0000
0100
0000
0010
0000
,  // measure 38
0100
1000
0010
0000
1000
0000
0010
0000
0001
0000
1000
0000
0100
0000
0010
0000
,  // measure 39
0100
0001
0010
0000
0200
0000
0001
0000
0000
0000
0301
0000
0100
0000
0010
0000
,  // measure 40
0001
0100
2000
0000
3200
0001
0000
0301
,  // measure 41
0010
1000
0002
0000
0103
1000
1000
0010
,  // measure 42
0100
0000
0200
0000
0001
0000
0301
0000
1000
0100
0000
0100
0010
0001
0010
0100
,  // measure 43
1000
0001
1000
0001
0010
0000
0001
0000
1000
0000
0001
0000
0100
0000
0010
1000
,  // measure 44
0001
0010
0100
1000
0100
0000
1000
0000
0001
0000
1000
0000
0010
0000
0100
0001
,  // measure 45
0010
0100
1000
0001
1000
0000
0100
0010
0001
0000
1000
0001
0000
1000
0002
0000
,  // measure 46
0100
0000
0103
0000
0010
1000
0000
1000
0100
0000
0100
0010
0001
0000
0100
0000
,  // measure 47
0110
0000
0010
0010
1000
1000
0001
0001
,  // measure 48
0010
0000
0010
0000
2002
0000
0000
0000
0000
0000
0000
0000
3003
0000
1000
0001
,  // measure 49
1000
0000
0000
0000
0001
0000
1000
0010
0000
0100
1000
0000
0001
0010
0000
0100
,  // measure 50
0001
0000
0020
0200
0000
0000
0000
0000
0330
0000
0000
0000
0000
0000
0000
0000
;

//---------------dance-double - ----------------
#NOTES:
     dance-double:
     :
     Hard:
     14:
     0.588262,0.666508,0.211171,0.401225,0.390666,390.000000,370.000000,20.000000,38.000000,0.000000,0.000000,0.588262,0.666508,0.211171,0.401225,0.390666,390.000000,370.000000,20.000000,38.000000,0.000000,0.000000:
00000000
00000000
00000000
00000000
,
00000000
00000000
00000000
00000000
,
00000000
00000000
00000000
00000000
00000000
00000000
00000000
00002000
,
00010000
00000000
00000000
00103000
00000000
00000000
00002000
00000000
00010000
00000000
00000000
00103000
00000000
00000000
00002000
00000000
,
00010000
00000000
00000000
00103000
00000000
00000000
00001000
00000000
00010000
00000000
00000000
00000000
00000000
00000000
00001000
00010000
,
00000100
00000000
00001000
00000100
00000000
00000000
00000010
00000001
00001000
00000000
00000001
00000100
00000000
00000000
00000010
00000000
,
00000001
00000000
00000000
00000010
00000000
00000000
00000100
00000000
00001000
00000000
00000000
00000000
00000000
00000000
00020000
00000000
,
00001000
00000000
00000000
00030010
00000000
00000000
00020000
00000000
00031000
00000000
00010000
00000010
00000000
00000000
00020000
00000000
,
00001000
00000000
00000000
00030010
00000000
00000000
00010000
00000000
00001000
00000000
00000000
00000000
00000000
00000000
00010000
00001000
,
01000000
00000000
01000000
00100000
00000000
00000000
00100000
10000000
00010000
00000000
00010000
00100000
00000000
00000000
01000000
00000000
,
00100000
00000000
00000000
00101000
00000000
00000000
00001000
00000000
00010000
00000000
00000000
00000000
00000000
00000000
00000000
00000000
,
00021000
00000000
00000000
00000000
00000000
00000000
01030000
00000000
00020000
00000000
00000000
00000000
00031000
00000000
00010000
00100000
,
00020000
00000000
00001000
00000000
00000000
00000000
01030000
00000000
00020000
00000000
00000000
00000000
00031000
00000000
00010000
00001000
,
00020000
00000000
00000000
00000000
00000000
00000000
00031000
00000000
00000100
00000000
00002000
00000000
00000000
00000000
00013000
00001000
,
00010000
00000000
00000100
00001000
00000100
00000000
00000020
00000000
00000000
00000000
00000031
00000100
00001000
00000000
00010000
00000000
,
00002000
00000000
00000000
00000000
00000000
00000000
00003100
00000000
00002000
00000000
00000000
00000000
00013000
00000000
00001000
00000010
,
00002000
00000000
00010000
00000000
00000000
00000000
00003100
00000000
00002000
00000000
00000000
00000000
00013000
00000000
00001000
00010000
,
00002000
00000000
00000000
00000000
00000000
00000000
00013000
00000000
01000000
00000000
00020000
00000000
00000000
00000000
00031000
00010000
,
00001000
00000000
01000000
00000000
00010000
00000000
20000000
00000000
00000000
00000000
31000000
00000000
00100000
00010000
10000000
00000000
,
00100000
00010000
00100000
10000000
00010000
00100000
00000000
00101000
,
00000000
00011000
00010000
00001000
00000100
00000001
00001000
00000001
,
00000010
00001000
00000010
00000001
00001000
00000010
00000000
00010010
,
00000000
00011000
00001000
00010000
01000000
10000000
10100000
00000000
,
02100000
00000000
13000000
02000000
00010000
00000000
03001000
00000000
,
00011000
00000000
00000000
00010100
00000000
00000000
00001100
00000000
00000100
00000000
00000010
00000000
00000001
00000000
00000100
00000000
,
00000110
00010000
00011000
00100000
01100000
10000000
10010000
00020000
,
00000000
10030000
01000000
00000000
00100000
00000000
00010000
00000000
01000000
00000000
02200000
00000000
00000000
00000000
03300000
00000000
,
10010000
00000000
00000000
00000000
10000000
00010000
00100000
00000000
01000000
00000000
00100000
00000000
00010000
00100000
00001000
00000000
,
00010000
00000000
00000010
00000000
00000100
00000010
00000100
00000000
00000001
00000100
00000001
00000000
00001000
00000001
00001000
00000000
,
00000100
00000000
00000010
00000000
00000001
00001000
00000010
00000000
00000100
00000000
00000010
00000000
00001000
00000010
00010000
00000000
,
00001000
00000000
00100000
00000000
01000000
00100000
01000000
00000000
10000000
01000000
10000000
00000000
00010000
10000000
00010000
00000000
,
01000000
00100000
00020000
00001000
00000000
01030000
00010000
00001000
,
00010000
00200000
00001000
00000000
01300000
00020000
00000000
10030000
,
01000000
00100000
00002000
00000000
00003100
00002000
00000000
00013000
,
00001000
00000000
00000010
00000000
00000001
00000000
00001000
00000001
00001000
00000010
00000000
00000100
00000000
00000000
00000010
00000000
,
00000110
00000000
00000000
00000000
00000001
00000100
00000010
00000000
00000001
00000000
00000010
00000000
00001000
00000010
00010000
00000000
,
00001000
00000000
00100000
00000000
00010000
00100000
01000000
00000000
10000000
00010000
10000000
00000000
00010000
01000000
00100000
00000000
,
10000000
00000000
00010000
00000000
10000000
01000000
00100000
00000000
10000000
00000000
00100000
00000000
00010000
00100000
00001000
00000000
,
00010000
00000000
00000010
00000000
00001000
00000010
00000100
00000000
00000001
00001000
00000001
00000000
00001000
00000100
00000010
00000000
,
00000001
00001000
00000020
00000001
00000000
00000130
00001000
00010000
,
00001000
00000010
00020000
00000000
00030010
00000100
00000000
00000100
,
00010000
00001000
00000200
00000000
00010300
00001000
00000010
00010000
,
00001000
00000000
00001000
00000000
00100000
00000000
01000000
00000000
10000000
00010000
00000000
10000000
00010000
01000000
00010000
01000000
,
00100000
10000000
00100000
10000000
00010000
00000000
00100000
00000000
01000000
00000000
00010000
00000000
00001000
00000000
00010000
00000100
,
00010000
00000100
00001000
00000100
00001000
00000000
00000010
00000000
00000100
00000000
00001000
00000000
00010000
00000000
00001000
01000000
,
00001000
01000000
00010000
01000000
00010000
00000000
10000000
01000000
00100000
00000000
00001000
00010000
00000000
00001000
00020000
00000000
,
00001000
00000000
00031000
00000000
00010000
00000100
00000000
00000100
00000010
00000000
00000010
00000001
00001000
00000000
00000010
00000000
,
00000110
00000000
00000010
00000010
00000100
00000100
00001000
00001000
,
00010000
00000000
00010000
00000000
00022000
00000000
00000000
00000000
00000000
00000000
00000000
00000000
00033000
00000000
00001000
00010000
,
00001000
00000000
00000000
00000000
00010000
00000000
00001000
00000100
00000000
00000010
00010000
00000000
00001000
00100000
00000000
01000000
,
00010000
00000000
00002000
00020000
00000000
00000000
00000000
00000000
00033000
00000000
00000000
00000000
00000000
00000000
00000000
00000000
;

//---------------dance-single - ----------------
#NOTES:
     dance-single:
     :
     Medium:
     10:
     0.404242,0.453226,0.116144,0.443459,0.068631,268.000000,257.000000,11.000000,42.000000,0.000000,0.000000,0.404242,0.453226,0.116144,0.443459,0.068631,268.000000,257.000000,11.000000,42.000000,0.000000,0.000000:
// measure 0
0000
0000
0000
0000
,  // measure 1
0000
0000
0000
0000
,  // measure 2
0000
0000
0000
0000
,  // measure 3
1000
0000
0000
1000
0001
0000
0000
0000
,  // measure 4
0010
0000
0100
1000
0001
0000
0000
0000
,  // measure 5
0100
0000
0000
0100
0000
0000
0100
0000
0010
0000
0000
0010
0000
0000
0010
0000
,  // measure 6
1000
0000
0000
0001
0000
0000
0010
0000
0010
0000
0000
0000
0000
0000
0000
0000
,  // measure 7
0001
0000
0000
0001
1000
0000
0000
0000
,  // measure 8
0010
0000
0100
0001
1000
0000
0000
0000
,  // measure 9
0100
0000
0000
0100
0000
0000
0100
0000
0010
0000
0000
0010
0000
0000
0010
0000
,  // measure 10
0001
0000
0000
1000
0000
0000
0010
0000
0010
0000
0000
0000
0000
0000
0000
0000
,  // measure 11
0200
0000
0000
0301
0020
0000
0031
0200
,  // measure 12
0000
0010
0000
0310
2000
0000
3100
0020
,  // measure 13
0100
0000
0000
0130
1000
0020
0000
0130
,  // measure 14
0002
0000
0013
0100
0000
1000
0100
0010
,  // measure 15
0200
0000
0000
1300
0020
0000
1030
0200
,  // measure 16
0000
0010
0000
0310
0002
0000
0103
0020
,  // measure 17
0100
0000
0000
0130
0001
0020
0000
0130
,  // measure 18
0020
0000
0031
0200
0000
0020
0000
0330
,  // measure 19
1000
0001
0100
0001
0010
0100
0000
0110
,  // measure 20
0000
0010
1000
0010
0001
0010
0100
1000
,  // measure 21
0001
1000
0100
1000
0010
0100
0000
0110
,  // measure 22
0000
0010
0001
0010
1000
0010
0200
0000
,  // measure 23
0302
0000
0000
0020
0000
0000
0003
0000
,  // measure 24
0100
0000
0000
0100
0000
0000
0130
0000
1000
0000
0010
0000
0100
0000
0001
0000
,  // measure 25
0202
0303
0000
0000
0000
0000
0000
0000
0000
0000
0000
0000
0000
0000
0000
0000
0022
0033
0000
0000
0000
0000
0000
0000
0000
0000
0000
0000
0000
0000
0000
0000
2200
3300
0000
0000
0000
0000
0000
0000
0000
0000
0000
0000
0000
0000
0000
0000
2002
0000
0000
0000
0000
0000
0000
0000
0000
0000
0000
0000
0000
0000
0000
0000
,  // measure 26
0000
0000
0000
3003
0000
0220
0330
0000
,  // measure 27
1001
0000
0001
0000
0100
0000
0010
1000
,  // measure 28
0001
0000
0010
0100
1000
0001
0100
0100
,  // measure 29
0010
0000
1000
0000
0100
0000
0010
0001
,  // measure 30
1000
0000
0010
0100
0001
1000
0100
0100
,  // measure 31
0010
0000
0001
0200
0000
1300
0100
0010
,  // measure 32
1000
0001
2000
0000
3001
0020
0000
0130
,  // measure 33
0010
0001
2000
0000
3001
0200
0000
1300
,  // measure 34
0100
0002
0000
0000
0000
1003
0100
1000
,  // measure 35
0001
0010
0100
0000
0001
0000
0100
1000
,  // measure 36
0001
0000
1000
0100
0010
0001
1000
0010
,  // measure 37
0100
0001
0100
0000
1000
0000
0100
0001
,  // measure 38
1000
0000
0001
0100
0010
1000
0001
0010
,  // measure 39
0100
1000
0001
0200
0000
1300
0100
0001
,  // measure 40
0010
0100
2000
0000
3100
0001
0000
0100
,  // measure 41
0001
0100
2000
0000
0000
0001
3001
0100
,  // measure 42
0010
0000
0100
0000
0001
0000
0010
0000
0100
0000
0000
0100
1000
0000
0010
0000
,  // measure 43
0100
0001
0010
0000
0100
0010
0000
0001
,  // measure 44
1000
0001
0100
0000
0010
1000
0000
0001
,  // measure 45
0010
0000
0100
0000
1000
0000
0001
0000
0100
0000
0000
0100
0000
0000
0100
0000
,  // measure 46
0000
0000
0010
0000
1000
0000
0000
0100
0000
0000
0010
0000
0001
0000
1000
0000
,  // measure 47
1001
0000
0001
0100
0001
0100
0010
1000
,  // measure 48
0010
1000
2002
0000
0000
0000
3003
0000
,  // measure 49
0110
0000
0000
0000
0001
0000
0000
0001
0000
0000
1000
0000
0000
0010
0000
0000
,  // measure 50
0020
0000
0000
0200
0000
0000
0000
0000
0330
0000
0000
0000
0000
0000
0000
0000
;

//---------------dance-single - ----------------
#NOTES:
     dance-single:
     :
     Easy:
     6:
     0.279047,0.399905,0.179495,0.200612,0.015838,185.000000,168.000000,17.000000,19.000000,0.000000,0.000000,0.279047,0.399905,0.179495,0.200612,0.015838,185.000000,168.000000,17.000000,19.000000,0.000000,0.000000:
// measure 0
0000
0000
0000
0000
,  // measure 1
0000
0000
0000
0000
,  // measure 2
0000
0000
0000
0000
,  // measure 3
1000
1000
0001
0001
,  // measure 4
0100
0100
0010
0000
,  // measure 5
1010
0000
1001
0000
,  // measure 6
1100
0000
1001
0000
,  // measure 7
0001
0001
1000
1000
,  // measure 8
0100
0100
0010
0000
,  // measure 9
0011
0000
1001
0000
,  // measure 10
0101
0000
1001
0000
,  // measure 11
2000
0010
3010
0000
,  // measure 12
0200
0001
0301
0000
,  // measure 13
0002
0010
0013
0000
,  // measure 14
0100
0000
1000
1000
0000
0001
1000
0000
,  // measure 15
0002
0100
0103
0000
,  // measure 16
0020
1000
1030
0000
,  // measure 17
2000
0100
3100
0000
,  // measure 18
0010
0000
0001
1000
0000
0001
0000
0000
,  // measure 19
0200
0010
0010
0310
,  // measure 20
1000
0000
0000
1000
0000
0000
1000
0000
0000
0000
0000
0000
1000
0000
0000
0000
,  // measure 21
0200
0010
0010
0310
,  // measure 22
0001
0000
0000
0001
0000
0000
0001
0000
0000
0000
0000
0000
0001
0000
0000
0000
,  // measure 23
0200
0010
0010
0310
,  // measure 24
1000
0000
0000
1000
0000
0000
1000
0000
0001
0000
0000
0000
1000
0000
0000
0000
,  // measure 25
2002
0000
0000
0000
,  // measure 26
0000
0000
0000
3003
0000
0220
0000
0000
,  // measure 27
0330
0000
0001
0000
0100
0000
0010
0100
,  // measure 28
0010
1000
0001
0010
,  // measure 29
0000
0000
0100
0000
0010
0000
0001
1000
,  // measure 30
0001
0100
0010
1000
,  // measure 31
0000
0000
0001
0100
0000
0001
0100
0000
,  // measure 32
0010
0000
1000
0000
0001
1000
0000
0000
,  // measure 33
0000
0000
0100
0000
1000
0100
0000
1000
,  // measure 34
0001
1000
0002
0000
0000
0000
0100
0000
,  // measure 35
0103
0000
0010
0000
1000
0000
0010
1000
,  // measure 36
0001
0010
0010
0100
,  // measure 37
0000
0000
0010
0000
0001
0000
0010
0001
,  // measure 38
1000
0010
0010
0100
,  // measure 39
0000
0000
0001
1000
0000
0001
1000
0000
,  // measure 40
0100
0000
0010
0000
0001
1000
0000
0000
,  // measure 41
0001
0100
0002
0000
0000
0000
1000
0000
,  // measure 42
1003
0000
0100
0000
0100
0000
0010
0100
,  // measure 43
0010
0000
0001
0000
0100
0000
0010
1000
,  // measure 44
0010
0000
1000
0000
0100
0000
0010
0001
,  // measure 45
0010
0011
0011
1100
,  // measure 46
1100
0001
1000
0110
,  // measure 47
0000
0000
0100
0010
0100
0000
0010
0100
,  // measure 48
0010
2002
0000
0000
,  // measure 49
3003
0220
0000
0000
,  // measure 50
0000
0000
0330
0000
;
