#TITLE:Alba;
#SUBTITLE:;
#ARTIST:須田景凪;
#TITLETRANSLIT:;
#SUBTITLETRANSLIT:;
#ARTISTTRANSLIT:;
#GENRE:;
#CREDIT:;
#MUSIC:Alba.ogg;
#BANNER:Alba-bn.png;
#BACKGROUND:Alba-bg.png;
#CDTITLE:;
#SAMPLESTART:39.772;
#SAMPLELENGTH:15.000;
#SELECTABLE:YES;
#OFFSET:2.023;
#BPMS:0.000=117.000
,188.000=58.500
,209.000=117.000
;
#STOPS:188.000=1.026;
#BGCHANGES:;
#FGCHANGES:;

//--------------- dance-single - ----------------
#NOTES:
     dance-single:
     :
     Challenge:
     14:
     0,0,0,0,0:
0000
0000
0000
0000
,
0000
0000
0000
0000
,
0000
0000
0000
0000
,
0000
0000
0000
0000
,
0000
0000
0000
0000
0000
0000
0000
1000
,
0010
0100
0001
2000
0000
3100
0010
1000
,
0010
0000
0001
0000
0100
0000
0010
0000
0000
0000
0000
0000
0000
0000
1000
0001
,
1000
0000
0000
0100
0010
0100
1000
0001
,
0100
1000
0100
0001
0000
0000
0000
1000
,
0010
0100
1000
0100
0000
0001
0010
0002
,
0100
0000
1003
0000
0010
0000
0100
0000
0000
0000
0000
0000
0000
0000
0001
0020
,
0100
0000
0000
0100
0000
0000
0130
0010
0001
0000
0100
0000
1000
0000
0100
0000
,
0010
0000
1000
0000
0100
0000
0001
0000
0000
0000
0000
0000
0000
0000
0100
0010
,
0001
0000
0000
0100
0000
0000
0010
0000
0000
0000
0000
0000
0100
0000
0000
0010
0000
0000
1000
0000
0000
0000
0000
0100
,
1000
0000
0010
0000
0001
0000
1000
0000
0100
0000
0001
0000
0000
0000
0010
0100
,
0010
0000
0000
0001
0000
0000
0200
0000
0000
0000
0000
0000
0310
0000
0000
1000
0000
0000
0200
0000
0000
0000
0000
0310
,
0100
0000
0000
1000
0000
0000
0001
0000
0000
0100
0000
0010
0100
0000
0000
0002
0000
0000
0000
0000
0000
1003
0000
0000
,
0001
0000
0000
0100
0000
0000
2000
0000
0000
0000
0000
3100
0001
0000
0000
0010
0000
0000
2000
0000
0000
0000
0000
3010
,
0200
0000
0000
1300
0000
0010
0100
0000
0000
0001
0000
0010
0100
0000
0000
1000
0000
0000
0000
0000
0000
0001
0000
0000
,
0002
0000
0000
0203
0000
0000
0310
0000
0000
0000
0000
0100
0001
0000
0000
0010
0000
0000
0100
0000
0000
1000
0000
0000
,
0000
0000
0000
0010
0010
0010
1000
0100
,
0001
0000
0000
0000
0000
0000
0100
0000
0000
0000
0000
0000
1000
0000
0000
0000
0000
0000
0010
0000
0000
0000
0100
0000
1000
0000
0000
0000
0000
0000
0100
0000
0000
0000
0000
0000
0001
0000
0000
0000
0000
0000
0010
0000
0000
0100
0000
0000
,
1000
0000
0000
0010
0000
0000
0100
0000
0000
0001
0000
0000
0010
0000
0000
0000
0000
0100
0010
0000
0000
0001
0000
0000
,
0200
0000
0000
0000
0310
0000
1000
0100
1000
0000
0001
0100
0001
0000
1000
0100
,
2000
0000
0000
3010
0000
0000
0002
0000
0000
0013
0000
0000
1000
0000
0001
0000
0000
0000
0100
0000
0000
0010
0000
0000
,
1000
0000
0000
0100
0000
0000
0001
0000
0000
0100
0000
1000
0001
0000
0000
0100
0000
0000
0010
0000
0000
0000
0000
0000
,
2010
3100
0012
0103
1010
0000
0100
0010
,
0002
0000
0203
0000
1300
0001
0010
1000
,
0100
0010
0200
0000
1000
0000
0310
0001
,
0201
0000
0310
1000
1200
0000
0310
0001
,
0200
0000
0000
0010
0320
0000
0000
0130
,
0002
0000
0000
0010
0000
0000
0013
0000
0100
0000
1000
0000
0010
0000
0100
0010
,
2000
0000
0000
0000
0000
0000
0000
0000
0000
0100
0000
0000
0000
0000
0000
0000
0000
0000
3100
0000
0000
0010
0000
0000
0100
0000
0000
0000
0000
0000
1000
0000
0000
0000
0000
0000
0010
0000
0000
0000
0000
0000
0100
0000
0001
0000
0100
0000
,
0002
0000
0000
0010
0000
0000
0013
0000
1000
0000
0001
0000
0100
0000
1000
0000
,
0020
0000
0000
0000
0000
0000
0000
0000
0000
0100
0000
0000
0000
0000
0000
0000
0000
0000
0130
0000
0000
0000
0000
0000
0001
0000
0000
0000
0000
0000
0000
0000
0000
0000
0000
0000
0000
0000
0000
0000
0000
0000
0001
0000
0010
0000
0100
0000
,
2000
0000
0000
3020
0000
0000
0230
0000
0301
0000
0010
0000
1000
0000
0010
0000
,
0002
0000
0000
0000
0000
0000
0000
0000
0000
0203
0000
0000
0000
0000
0000
0000
0000
0000
0310
0000
0000
0100
0000
0000
0010
0000
0000
0000
0000
0000
1000
0000
0000
0000
0000
0000
0100
0000
0000
0010
0000
0000
0100
0000
1000
0000
0001
0000
,
0200
0000
0000
0320
0000
0000
2030
0000
3100
0000
0010
0000
0010
0000
1000
0000
,
0002
0000
0000
0203
0000
0000
0320
0000
1030
0000
1000
0000
0000
0000
0100
0000
,
0010
0000
0000
0001
0000
0000
0200
0000
0000
0310
0000
0000
0100
0000
0000
0001
0000
0000
0020
0000
0000
0130
0000
0010
,
0001
0000
0100
0000
1000
0000
0100
0000
0001
0000
0010
0000
0100
0000
1000
0010
,
0100
0000
0000
0001
0000
0000
0020
0000
0000
0130
0000
0000
0010
0000
0000
0001
0000
0000
0200
0000
0000
0310
0000
0100
,
0001
0000
0000
0010
0000
0000
1000
0000
0000
0010
0000
0001
0100
0000
0000
1000
0000
0000
0001
0000
0000
0010
0000
0000
,
1000
0000
0000
0100
0000
0000
0020
0000
0000
0031
0000
0100
0001
0000
0000
0010
0000
0000
0200
0000
0000
1300
0000
0010
,
1000
0000
0000
0000
0000
0000
0100
0000
0000
0000
0010
0000
0001
0000
0000
0000
0000
0000
0100
0000
0000
0000
0010
0000
1000
0000
0000
0000
0000
0000
0100
0000
0000
0000
0000
0000
0001
0000
0000
0000
0000
0000
0100
0000
0000
0010
0000
0000
,
0100
0000
0000
1000
0000
0000
0020
0000
0000
0130
0000
0010
1000
0000
0000
0100
0000
0000
0020
0000
0000
0130
0000
0000
,
0010
0000
0000
0000
0001
0000
0100
0000
0002
0000
0000
0000
0203
0000
0000
0000
0320
0000
0000
0000
2030
0000
0000
0000
3100
0000
0010
0000
0100
0000
0020
0030
,
0000
0000
0000
0000
0001
0100
0010
0000
1000
0100
0010
0000
0001
0100
0010
1000
,
0100
0000
0000
0000
0010
0000
0001
0000
2000
0000
0000
0000
0000
0000
0010
0000
3010
0000
0100
0000
0010
0000
1000
0000
0100
0000
0010
0001
0010
0000
0100
0000
,
2000
0000
0000
0000
0000
0000
0000
0000
0000
3010
0000
0000
0100
0000
0000
0001
0000
0000
0010
0000
0000
0000
0000
0100
0001
0000
0000
0100
0000
0000
1000
0000
0000
0000
0000
0000
0010
0000
0000
1000
0000
0000
0100
0000
0000
0001
0000
0000
,
0100
0000
0000
0000
0000
0000
0010
0000
0000
0001
0000
0000
0200
0000
0000
0000
0000
0000
0000
0000
0000
1300
0000
0000
0001
0000
0000
0010
0000
0000
1000
0000
0000
0100
0000
0000
0010
0000
0000
0100
0000
0000
0010
0000
0000
0001
0000
0100
,
0020
0000
0000
0000
0000
0000
0130
0000
0201
0000
0000
0000
0000
0000
0301
0000
0012
0000
0000
0000
0000
0000
0013
0000
2100
0000
0000
0000
0000
0000
3010
0100
,
1000
0000
0000
0000
0000
0000
0100
0000
0000
0000
0000
0000
0001
0000
0000
0010
0000
0000
0001
0000
0000
0010
0000
0000
1000
0000
0000
0000
0000
0000
0000
0000
0000
0000
0000
0000
0001
0000
0000
0000
0000
0000
0000
0000
0000
0000
0000
0000
0200
0000
0000
0000
0000
0000
0000
0000
0000
0000
0000
0000
1300
0000
0000
0000
0000
0000
0000
0000
0010
0000
0000
0000
0001
0000
0000
0000
0000
0000
0000
0000
0000
0000
0000
0000
1000
0000
0000
0000
0000
0000
0000
0000
0000
0000
0000
0000
,
0200
0000
0310
1000
0100
0000
0001
0000
0100
0000
1000
0000
0020
0000
0100
0000
,
1000
0000
0130
0000
0001
0000
0010
0000
0200
0000
1000
0010
0000
0000
0001
0010
,
0000
0000
0000
0000
0000
0000
1000
0000
0000
0310
0000
0000
0100
0000
0000
0000
0000
0000
0001
0000
0000
0000
0000
0000
0100
0000
0000
0000
0000
0000
0010
0000
0000
1000
0000
0000
0100
0000
0000
0000
0010
0000
0000
0000
0000
0000
0000
0000
,
0100
0000
0000
0000
0000
0000
1000
0000
0000
0001
0000
0000
1000
0000
0000
0000
0000
0000
0010
0000
0000
0000
0000
0000
0001
0000
0000
0000
0000
0000
0010
0000
0000
0000
1000
0000
0200
0000
0000
0000
0000
0000
0010
0000
0000
0000
0000
0000
,
0001
0000
0000
1300
0000
0010
0100
0000
0000
0001
0000
0010
0100
0000
0000
1000
0000
0000
0010
0000
0000
0001
0000
0000
,
1000
0000
0000
0100
0000
0000
0002
0000
0000
0010
0000
0000
1000
0000
0000
0103
0000
0010
2000
0000
0000
0100
0000
0000
,
0001
0000
0000
3010
0000
0000
0100
0000
0000
0001
0000
0010
0100
0000
0000
0010
0000
0000
0001
0000
0000
0100
0000
0000
,
0010
1000
2100
0001
0010
3001
0102
1000
,
0010
1003
0220
0000
0330
0001
2002
0000
,
3003
1000
2000
0000
0000
3100
0000
0000
,
0000
0000
0200
0000
0000
0310
0000
0000
,
0000
0000
0020
0000
0000
0031
0000
0000
,
0000
0000
0002
0000
0000
0103
0000
0000
;
