#VERSION:0.83;
#TITLE:Agnus Dei;
#SUBTITLE:;
#ARTIST:あさき;
#TITLETRANSLIT:;
#SUBTITLETRANSLIT:;
#ARTISTTRANSLIT:Asaki;
#GENRE:GOTHIC METAL;
#ORIGIN:;
#CREDIT:;
#BANNER:Agnus Dei.png;
#BACKGROUND:Agnus Dei-bg.png;
#PREVIEWVID:;
#JACKET:Agnus Dei-jacket.png;
#CDIMAGE:;
#DISCIMAGE:;
#LYRICSPATH:;
#CDTITLE:;
#MUSIC:Agnus Dei.ogg;
#OFFSET:-0.436987;
#SAMPLESTART:71.899788;
#SAMPLELENGTH:16.199995;
#SELECTABLE:YES;
#BPMS:0.000=168.000,
16.000=150.000,
18.000=140.000,
22.000=168.000,
195.000=150.000,
199.000=168.000,
279.000=160.000;
#STOPS:;
#DELAYS:;
#WARPS:;
#TIMESIGNATURES:0.000=4=4;
#TICKCOUNTS:0.000=4;
#COMBOS:0.000=1;
#SPEEDS:0.000=1.000=0.000=0;
#SCROLLS:0.000=1.000;
#FAKES:;
#LABELS:0.000=Song Start;
#BGCHANGES:-3.400=Agnus Dei.mp4=1.000=1=0=1===CrossFade==,
99999=-nosongbg-=1.000=0=0=0 // don't automatically add -songbackground-
;
#KEYSOUNDS:;
#ATTACKS:
;

//---------------dance-single - ----------------
#NOTEDATA:;
#CHARTNAME:;
#STEPSTYPE:dance-single;
#DESCRIPTION:;
#CHARTSTYLE:;
#DIFFICULTY:Hard;
#METER:16;
#RADARVALUES:0.845255,0.942453,0.567363,0.351225,0.580872,657.000000,594.000000,63.000000,39.000000,0.000000,0.000000,0.000000,0.000000,0.000000,0.845255,0.942453,0.567363,0.351225,0.580872,657.000000,594.000000,63.000000,39.000000,0.000000,0.000000,0.000000,0.000000,0.000000;
#CREDIT:;
#NOTES:
0000
0000
0000
0000
,
0000
0000
0000
0000
,
0000
0000
0000
0000
,
0000
0000
0000
0000
,
0000
0000
0000
0000
,
0000
0000
1001
0000
,
0101
0000
0000
0000
0001
0010
0100
0000
1100
0000
0000
0000
0000
0000
0000
0000
,
1001
0000
1000
0010
1000
0010
1000
0010
1000
0000
0001
0010
0001
0000
1000
0000
,
0001
0100
0001
0000
1000
0100
1000
0100
0010
0000
0001
1000
0010
0000
0000
0000
,
0110
0000
0100
0001
0100
0001
0100
0000
0101
0000
0001
1000
0100
0000
0000
0000
,
1100
0100
1000
1010
1000
0001
0011
0010
,
0001
0000
0101
0000
0001
0000
1000
0000
1100
0000
1000
0010
1000
0010
0100
0001
,
1000
0100
0010
0001
2002
0000
0000
0000
,
3003
0000
0000
0000
0002
0100
1003
0001
,
2000
0100
3010
1000
0002
0010
1003
0001
,
2000
0010
3100
1000
0002
0100
0013
0001
,
2000
0100
3002
0100
1003
1100
0001
0011
,
1002
0010
0103
0001
1000
0100
2000
0010
,
3100
1000
0001
0100
1010
1000
0100
0010
,
0001
0000
0100
0000
0010
0000
0001
0000
0010
0000
1000
0010
1000
0000
0100
0000
,
1000
0001
1000
0001
0100
0000
0001
1000
0001
0000
0010
0000
0001
0000
0100
0000
,
0010
0000
0100
0000
0001
0000
0010
0000
1100
0000
1000
0000
0001
0100
0001
0100
,
0010
1000
0001
0010
0001
0010
0100
1000
0002
0000
0003
0000
0011
0000
0001
0000
,
0101
0001
1010
1000
1100
1000
1001
0000
,
2000
0000
0100
0000
3002
0000
0100
0000
1003
0100
1000
0000
0001
0100
0001
0100
,
0010
1000
0010
1000
0001
1000
0010
0000
0010
1000
0001
0000
0001
1000
0100
0000
,
0100
1000
0001
0000
0001
0100
0010
0000
0010
1000
0001
0000
0001
0010
0100
0000
,
1000
0100
1000
0001
0100
0010
0100
0001
0010
0100
0010
0001
1000
0000
1000
0000
,
0010
0000
0100
0001
0010
0000
0001
0000
0100
0000
0010
0000
0100
0000
0001
1000
,
0100
0000
1000
0001
0100
0000
0001
0000
0010
0000
0100
0000
1100
0000
0000
0000
,
0011
0000
0000
0000
1000
0001
0010
0001
1000
0100
1000
0001
0100
0010
0100
0010
,
0100
0000
0110
0000
0000
0000
0010
1000
0001
1000
0100
1000
0002
0000
0103
0000
,
0010
0002
0013
2000
3010
0200
0310
2000
,
3001
0010
0100
0000
1000
0001
0100
0010
1000
0100
1000
0100
2000
0000
0000
0000
,
0010
0000
3001
0000
1000
0010
0100
0001
1000
0001
0010
0100
1000
0000
0000
1000
,
0100
1000
0001
0100
0010
0001
0010
1000
,
0001
0100
0001
0010
0100
1000
0010
0100
,
0001
0000
1000
0001
0010
0001
1000
0010
1000
0001
0100
0001
1000
0100
1000
0000
,
1000
0001
1000
0000
1000
0010
1000
0000
0001
0100
0001
0000
0001
1000
0001
0000
,
0001
0010
0001
0000
0010
0000
0000
0000
0100
0000
0000
0000
0001
0000
0000
0000
,
0100
1000
0100
1000
0010
1000
0010
1000
0001
1000
0001
1000
0001
0000
0000
0000
,
1000
0000
0001
0100
0010
0100
1000
0100
,
0010
0000
0100
0000
0101
0000
0000
1010
0000
0000
1001
0000
1000
0100
1000
0100
,
0010
0000
0000
0000
0001
1000
0001
1000
0001
0000
0100
0000
0110
0000
0010
0000
,
1000
0000
0001
0000
1000
0000
0100
0000
0010
0001
0010
0001
0100
0001
0100
0000
,
0101
0000
0000
0000
1000
0000
0000
0001
0010
0000
0100
0000
1000
0000
0000
0001
,
0100
0000
0010
0000
1000
0000
0010
0100
0001
1000
0001
0000
0012
0000
0000
0000
,
0103
0001
0100
0001
2000
0000
0000
0000
3100
1000
0100
1000
0010
0000
0000
0000
,
0120
0000
0000
0000
0000
0000
0000
0000
0000
0000
0000
0000
1030
0000
0000
0001
0000
0000
1000
0000
0000
0001
0000
0000
1000
0000
0000
0000
0001
0000
0000
0000
1000
0000
0000
0000
2002
0000
0000
0000
0000
0000
0000
0000
0000
0000
0000
0000
,
3003
0000
0000
0000
0000
0000
0000
0000
0000
0000
0001
1000
0020
0000
0000
0000
,
0130
0001
1000
0100
1100
1000
1001
0001
,
0011
0001
1000
0010
0100
0001
0010
0100
,
0001
0100
0001
0100
0001
0100
0001
0100
0010
0100
0010
0100
2000
0000
3100
0000
,
1000
0010
1000
0001
0101
0001
1001
1000
,
1010
1000
0001
0010
0100
0010
1000
0010
,
0001
0000
0001
0000
1000
0000
1000
0000
0001
0100
0010
1000
0001
0000
1000
0000
,
1100
0100
0011
0001
1000
0001
0101
0100
,
1010
1000
0001
0010
1000
0001
0100
1000
,
0002
0100
2003
0100
3001
1000
2020
3030
,
0202
0303
2002
3003
1000
0010
0100
1000
,
0100
0010
1000
0100
0010
1000
0010
0100
,
1000
0100
0010
0000
0001
0100
0001
0100
0010
1000
0010
1000
0001
0000
1000
0000
,
1100
0010
1001
0001
1000
0001
0101
0010
,
1001
1000
0001
1000
0010
0100
0010
0001
,
0011
0010
1010
1000
1100
1000
1001
0001
,
0101
0010
1010
1000
1001
1000
1100
0010
,
0011
0001
1000
0010
0100
0010
0001
0010
,
1000
0100
0010
0001
0100
0010
1000
0001
1000
0000
0001
0000
2002
0000
0000
0000
,
0000
0000
0000
0000
0000
3003
0000
0000
,
0000
0000
0000
0101
,
1000
0010
1000
0010
0000
0000
1000
0000
0000
0000
0000
0000
1000
0000
0000
0000
,
0000
1000
0000
0000
1100
0000
0000
0000
0010
0001
0010
0001
0100
0000
0000
0100
,
0000
0000
0100
0000
0010
1000
0010
1000
0000
0000
0000
0000
0000
0000
0000
0000
,
0001
1000
0100
0000
0000
0000
0000
0000
0000
0000
0000
0000
2002
0000
0000
0000
,
0000
0000
0000
3003
;

//---------------dance-single - ----------------
#NOTEDATA:;
#CHARTNAME:;
#STEPSTYPE:dance-single;
#DESCRIPTION:;
#CHARTSTYLE:;
#DIFFICULTY:Medium;
#METER:13;
#RADARVALUES:0.573796,0.673181,0.252161,0.261167,0.018012,446.000000,418.000000,28.000000,29.000000,0.000000,0.000000,0.000000,0.000000,0.000000,0.573796,0.673181,0.252161,0.261167,0.018012,446.000000,418.000000,28.000000,29.000000,0.000000,0.000000,0.000000,0.000000,0.000000;
#CREDIT:BlindedVanguard573;
#NOTES:
0000
0000
0000
0000
,
0000
0000
0000
0000
,
0000
0000
0000
0000
,
0000
0000
0000
0000
,
0000
0000
0000
0000
,
0000
0000
1001
0000
,
0101
0001
0010
0100
1100
0000
0000
0000
,
1001
0000
0000
0000
1000
0001
1000
0001
1000
0000
0000
0000
0100
0000
0010
0000
,
0000
0010
1000
0000
0010
0001
0100
0000
,
0001
0010
0100
1000
0001
0100
0100
0000
,
0101
0001
1000
0100
1000
0001
0011
0001
,
1000
0010
1000
0001
0100
0010
1000
0100
,
0010
0001
1000
0010
0002
0000
0000
0000
,
0010
0000
0013
0000
0010
1000
0001
1000
,
0100
1000
0001
1000
0001
0100
0010
1000
,
0001
0010
0100
1000
0001
0100
0010
0100
,
0001
0010
1000
0010
0100
0100
0100
0100
,
1000
0010
0100
0010
1000
0001
0010
0100
,
0010
0001
1000
0001
0020
0000
0031
0100
,
0010
1000
0100
0001
0100
0010
0001
0000
,
0100
0010
1000
0001
1000
0000
0001
0010
,
0100
0010
1000
0010
0001
0100
0010
1000
,
0100
0010
0001
1000
0001
0000
0101
0000
,
1001
0000
0011
0000
0001
1000
0100
0000
,
1000
0000
1000
0000
0010
0000
0010
0000
0100
0000
0100
0000
0001
0000
0000
0001
,
0000
0001
1000
0100
0010
0100
0001
0100
,
0010
0100
1000
0010
0100
0010
0001
0010
,
1000
1000
0001
0001
0010
0010
0100
0100
,
0020
0001
1030
0020
,
0031
1000
0010
0100
0010
0001
0010
0000
,
1010
0000
0010
1000
0001
0010
0200
0000
,
1000
0310
0000
0100
1000
0001
0200
0000
,
0310
0020
0000
2030
0000
3002
0000
0023
,
0000
0031
1000
0010
0001
0010
2000
0000
,
0010
3001
0000
0000
0000
0000
1001
0000
,
0001
0100
0010
0100
0001
0010
0100
1000
,
0100
0010
0001
0100
0010
1000
0010
0100
,
0001
0010
0100
1000
0010
0100
0001
0001
,
0010
0010
0100
0100
1000
1000
0001
0001
,
0100
0100
0010
0000
0100
0000
1000
0000
,
0100
0001
0010
0001
0100
0001
1000
0000
,
1100
0000
0001
0000
0101
0000
1000
0100
,
0001
0000
0100
0000
0010
0000
0000
0010
0000
0000
0010
0000
0001
0000
0001
0000
,
0001
0000
1000
1000
1000
0100
0010
0100
,
0010
0100
1000
0001
1000
0001
0100
0100
,
1001
0000
0001
0010
0100
0010
0001
0100
,
0010
1000
0001
0010
0100
1000
0002
0000
,
0000
0010
2003
0000
0000
0010
3001
0000
,
2002
0000
0000
3003
,
0000
0000
0000
0000
0000
1000
0002
0000
,
0103
0010
0100
1000
0100
0010
1000
0000
,
0001
1000
0001
0010
0100
0010
1000
0010
,
0001
0001
0001
0001
0100
0100
0020
0000
,
1000
0031
0102
0100
,
1003
2001
3200
0302
,
0103
0010
0001
0010
0100
1000
0001
0001
,
0100
0100
0010
0010
0001
0001
0010
0010
,
1000
1000
0001
0001
0010
0010
0100
0100
,
0001
0001
0100
0100
0010
0010
0001
0001
,
0100
0100
0010
1000
0001
0001
0010
0010
,
0100
1000
0001
0100
1000
0001
0010
1000
,
0001
0010
1000
0001
0100
1000
0010
0100
,
0110
0100
0101
0000
0001
0010
0110
0100
,
1100
0000
1000
0010
0100
1000
0100
0010
,
1000
1000
0100
0100
0010
0010
0001
0100
,
1010
1000
1001
0000
1000
0100
0011
0001
,
1001
0000
0001
0100
1000
0010
1000
0100
,
0001
0010
1000
0100
1000
0010
0002
0000
,
0000
0000
0000
0000
0000
0003
0000
0000
,
0000
0000
0000
0202
,
0000
0000
0300
2000
,
0000
3003
2002
0000
0000
0000
0000
0000
,
0000
0000
0000
0000
,
0000
0000
0000
3003
0000
0000
0000
0000
0000
0000
0000
0000
0220
0000
0000
0000
,
0000
0000
0000
0330
;

//---------------dance-single - ----------------
#NOTEDATA:;
#CHARTNAME:;
#STEPSTYPE:dance-single;
#DESCRIPTION:;
#CHARTSTYLE:;
#DIFFICULTY:Easy;
#METER:7;
#RADARVALUES:0.295904,0.336590,0.054035,0.153098,0.000000,230.000000,224.000000,6.000000,17.000000,0.000000,0.000000,0.000000,0.000000,0.000000,0.295904,0.336590,0.054035,0.153098,0.000000,230.000000,224.000000,6.000000,17.000000,0.000000,0.000000,0.000000,0.000000,0.000000;
#CREDIT:;
#NOTES:
0000
0000
0000
0000
,
0000
0000
0000
0000
,
0000
0000
0000
0000
,
0000
0000
0000
0000
,
0000
0000
0000
0000
,
0000
0000
1001
0000
,
0001
0010
0100
0000
,
1000
0000
0000
0000
0001
0000
0000
0100
,
0000
0010
0100
0000
,
0001
0000
1000
0000
,
0100
0000
0000
0100
0000
0000
0010
0000
,
0000
0010
0000
0000
0001
0000
0000
0000
,
1000
0010
0200
0000
,
0000
0300
0010
1000
,
0001
0001
0010
0001
,
0100
0001
1000
0100
,
0010
0100
1000
1000
,
0001
0100
0100
0010
,
1000
1000
0001
0010
,
1000
0010
0002
0003
,
1000
2000
3000
0001
,
0010
0100
0001
0100
,
0010
0001
1000
0010
,
0010
0010
0100
0100
,
0100
0001
0001
0002
,
0003
0010
0010
0100
,
0100
1000
1000
0001
,
0001
0100
0100
0100
,
0000
0010
0010
0010
,
0000
1000
0100
0010
,
0100
1000
0001
0100
,
0010
0010
0000
0000
1000
0000
0001
0000
,
0010
0100
0001
0100
,
0010
0001
1000
0010
,
0100
0100
0000
0000
0000
0000
0001
0000
,
0010
0100
1000
0100
,
0010
0001
0100
0010
,
1000
0010
0100
0001
,
0010
0010
0100
1000
,
1000
0001
0100
1000
,
0200
0000
0300
0010
,
0010
1000
1000
0001
,
0010
1000
0010
0001
,
0001
0100
0100
0010
,
0001
0010
1000
0001
,
0001
0010
0010
0100
,
1000
0001
0100
0020
,
0030
0200
0300
0002
,
2000
0000
0000
3003
,
0000
0000
0000
0001
,
0010
1000
0010
0010
,
0100
1000
0001
0100
,
0010
0010
0100
0200
,
0001
0301
0002
0010
,
0013
0010
0100
1000
,
0001
1000
1001
1000
,
0010
0100
1000
0100
,
0010
1000
0100
0001
,
0100
0010
0001
1000
,
0010
0001
1000
0100
,
0001
0010
0100
0010
,
0001
1000
0001
1000
,
0010
0100
1000
0001
,
0010
0100
0001
0010
,
1000
0100
0010
1000
,
0010
0001
1000
0100
,
0001
1000
0100
0001
,
1000
0010
0001
1001
,
0000
0000
0000
0000
,
0000
0000
0000
2002
,
0000
0000
0000
0000
,
3003
2002
0000
0000
,
0000
0000
0000
0000
,
0000
0000
0000
3003
0000
0000
0000
0000
0000
0000
0000
0000
0220
0000
0000
0000
,
0000
0000
0000
0330
;

//---------------dance-single - ----------------
#NOTEDATA:;
#CHARTNAME:;
#STEPSTYPE:dance-single;
#DESCRIPTION:;
#CHARTSTYLE:;
#DIFFICULTY:Beginner;
#METER:4;
#RADARVALUES:0.223858,0.265670,0.045029,0.000000,0.000000,174.000000,169.000000,5.000000,0.000000,0.000000,0.000000,0.000000,0.000000,0.000000,0.223858,0.265670,0.045029,0.000000,0.000000,174.000000,169.000000,5.000000,0.000000,0.000000,0.000000,0.000000,0.000000,0.000000;
#CREDIT:;
#NOTES:
0000
0000
0000
0000
,
0000
0000
0000
0000
,
0000
0000
0000
0000
,
0000
0000
0000
0000
,
0000
0000
0000
0000
,
0000
0000
1000
0000
,
0010
0010
0010
0000
,
0100
0000
0001
0000
,
0010
0010
0010
0000
,
0100
0000
1000
0000
,
0001
0001
0000
0010
,
0010
0000
0100
0100
,
0100
0000
1001
0000
,
0000
0000
1000
1000
,
1000
0000
0010
0010
,
0010
0000
0100
0100
,
0100
0000
0001
0001
,
0001
0001
0000
0010
,
0010
0000
0100
0100
,
0000
1000
1000
0000
,
0001
0001
0000
0100
,
0100
0000
0010
0010
,
0010
0010
0000
0010
,
0000
0100
0000
0100
,
0000
0001
0001
0001
,
0001
0001
0000
0010
,
0000
0100
0000
1000
,
0000
0010
0010
0010
,
0000
0100
0000
0001
,
0000
1000
0000
0100
,
0000
0010
0000
0001
,
0001
0001
0000
1000
,
0000
0010
0000
0100
,
0100
0100
0000
0010
,
0010
0010
0000
1000
,
0000
0001
0000
0010
,
0000
0100
0000
0001
,
0000
0100
0000
1000
,
1000
0000
0001
0001
,
0000
0010
0010
0010
,
0010
0000
0000
0100
,
0000
1000
0000
0001
,
0000
0100
0000
0010
,
0010
0000
0000
0100
,
0000
0001
0000
0010
,
0000
0100
0000
1000
,
0000
0001
0000
0100
,
0000
0010
0000
1000
,
1000
0000
0000
1001
,
0000
0000
0000
0001
,
0001
0001
0001
0000
,
0010
0010
0010
0010
,
0010
0000
0100
0100
,
0000
1000
1000
0000
,
0001
0001
0001
0001
,
0001
0000
0000
0100
,
0100
0100
0100
0000
,
0010
0010
0010
0010
,
0010
0000
1000
1000
,
1000
1000
1000
0000
,
0001
0001
0001
0001
,
0001
0000
0010
0010
,
0010
0010
0010
0000
,
0100
0100
0100
0100
,
0100
0000
1000
1000
,
1000
1000
1000
0000
,
0001
0001
0001
0001
,
0001
0000
1000
1000
,
0000
0000
0000
0000
,
0000
0000
0000
1001
,
0000
0000
0000
0000
,
0000
0110
0000
0000
,
0000
0000
0000
0000
,
0000
0000
0000
1001
;
