#TITLE:Advent Infamous;
#SUBTITLE:;
#ARTIST:Blacklolita;
#TITLETRANSLIT:;
#SUBTITLETRANSLIT:;
#ARTISTTRANSLIT:;
#GENRE:;
#CREDIT:;
#BANNER:;
#BACKGROUND:;
#LYRICSPATH:;
#CDTITLE:;
#MUSIC:Advent Infamous.ogg;
#OFFSET:-0.457890;
#SAMPLESTART:80.424561;
#SAMPLELENGTH:11.199997;
#SELECTABLE:YES;
#BPMS:0.000000=150.000000
;
#STOPS:
;
#BGCHANGES:;
#KEYSOUNDS:;
#ATTACKS:;

//---------------dance-single - ----------------
#NOTES:
     dance-single:
     :
     Challenge:
     17:
     0.883665,1.021151,0.343182,0.242739,1.247175,739.000000,698.000000,41.000000,29.000000,0.000000,0.000000,0.883665,1.021151,0.343182,0.242739,1.247175,739.000000,698.000000,41.000000,29.000000,0.000000,0.000000:
0000
0000
0000
0000
,
0000
0000
0000
0000
,
0000
0000
0000
0000
,
0000
0000
0000
0000
,
0000
0000
0000
0000
,
0000
0000
0000
0000
,
0001
0100
0010
0000
1000
0100
0010
0000
0001
0000
1000
0001
1000
0000
1001
0000
,
1000
0010
0100
0001
1000
0000
1000
0100
0010
0001
1000
0000
0010
0000
0100
0000
,
0001
0100
0010
1000
0001
1000
0100
0010
0001
0010
0100
1000
0001
1000
0010
0100
,
0002
0000
0000
0000
1003
0001
0010
0100
1000
0000
0001
0100
0010
0100
0001
1000
,
0001
0000
0000
0000
0101
0000
0000
0000
0000
0000
0100
0001
0010
0000
0100
0000
,
2200
0000
0000
0000
0300
0000
3001
1000
,
1100
0000
0000
0000
1100
0000
1000
0000
0000
0000
0100
1000
0010
0000
0100
0000
,
0202
0000
0000
0000
0300
0000
0000
0000
0013
0000
0100
0010
0100
0010
0100
0010
,
0001
0000
1000
0100
1000
0100
0010
0000
0001
0100
0001
0100
0010
0000
1000
0001
,
1000
0000
0001
0100
0010
1000
0001
0000
1000
0100
0010
0001
2000
0000
3002
0203
,
0310
1000
0010
1000
0100
0010
0100
0010
0001
1000
0001
1000
0010
0100
0010
0100
,
2000
0000
0000
0000
3100
0010
0100
0001
0010
0100
1000
0001
0010
1000
0010
0001
,
1000
0000
0000
0001
0000
0100
0001
0100
0010
1000
0000
0100
1000
0100
1000
0001
,
1000
0010
0000
0100
0001
0100
0001
1000
0001
0010
0000
0001
0100
0010
1000
0001
,
1000
0100
0000
1000
0001
0010
0100
0010
0000
0010
0000
0001
1000
0010
0100
0010
,
0000
0010
0000
1000
0001
0010
0100
0010
0000
0010
0001
0100
0010
1000
0001
0010
,
0100
0000
1000
0100
0010
1000
0010
0100
0000
1000
0000
0001
0100
0010
0001
0010
,
0000
0100
0000
0001
0010
0100
0001
0100
0000
0010
0100
0010
0001
0100
0010
0100
,
1000
0000
0100
0001
0000
0100
1000
0000
0100
0001
0000
0100
1000
0100
0010
0100
,
0001
1000
0001
1000
0100
0010
0100
0010
0001
0010
0100
1000
0001
0100
0010
1000
,
0001
0000
0000
0010
0100
0010
1000
0010
0000
0001
0000
0100
0001
0010
0001
0010
,
0100
1000
0000
0100
1000
0010
1000
0010
0100
0001
0000
0100
0001
0010
0100
1000
,
0001
0100
0000
0001
0010
0100
1000
0010
0000
0010
0000
1000
0010
0100
0001
0010
,
0000
0010
0000
0001
0010
0100
1000
0010
0000
0010
0100
0001
1000
0001
0010
0100
,
1000
0000
0100
1000
0010
0100
0010
0001
0000
0010
0000
1000
0100
0010
0100
0001
,
0000
0100
0000
1000
0010
0100
0010
0001
0000
0010
0100
0010
1000
0001
0010
0100
,
1000
0001
0100
0000
0010
0000
0100
0001
1000
0000
0100
1000
0001
0000
0010
0001
,
1000
0010
0100
0010
1000
0001
0010
0001
2000
0000
0000
0000
0000
0000
0000
0000
,
3200
0000
0000
0000
,
0320
0000
0000
0000
,
0032
0000
0000
0000
,
2000
0000
0000
0000
0003
0000
3010
0100
,
0001
0010
0100
2000
0000
0000
3001
1000
,
0020
0000
0000
0000
0000
0000
0000
0000
0000
0000
0130
0000
0000
0001
0000
0000
,
0020
0000
0000
0200
0000
0000
0330
0000
,
2000
0000
0000
0000
0000
0000
0002
0000
0000
0000
3003
0000
1000
0100
0010
0001
,
1000
1100
0001
0100
0000
0010
0100
0001
,
0021
0000
0130
0000
,
2200
0000
0000
0000
0000
0000
0000
0000
3300
0000
0000
0000
0000
0000
0001
0100
,
2000
0000
0000
0000
3000
0000
0100
0001
,
1000
0100
0010
0001
1000
0001
0100
0001
0100
0001
0100
0001
1000
0010
0100
0001
,
1000
0100
1000
0100
1000
0100
1000
0001
1000
0001
0100
0010
0100
0010
0100
0001
,
1000
0010
1000
0001
1000
0100
0010
0001
0010
0100
1000
0001
1000
0010
0100
0001
,
1000
0100
0010
0100
1000
0010
0100
0010
1000
0100
0001
0100
1000
0010
0100
0001
,
1000
0001
0010
0000
0001
1000
0010
0000
1000
0100
0010
0000
0001
0100
0010
0000
,
1000
0100
1000
0000
1000
0100
1000
0000
0001
0010
0001
0000
0001
0000
1000
0010
,
0110
0000
0000
0000
0010
1000
0001
0010
0110
0000
0000
0000
0010
0001
1000
0010
,
0110
0000
0000
0000
0100
0001
1000
0100
0110
0000
0000
0000
0010
0001
1000
0001
,
0010
0100
1000
0000
0010
0100
0001
0000
0010
0001
0100
0000
0010
1000
0100
0000
,
1000
0010
1000
0000
1000
0010
1000
0000
0001
0100
0001
0000
0001
0000
1000
0100
,
0110
0000
0000
0010
0000
0000
1000
0010
0001
0000
0000
0000
0000
0000
0000
0000
,
0001
0100
0010
1000
0100
0010
0001
0100
0010
1000
0001
0010
0100
1000
0010
0100
,
0001
0100
0010
0000
1000
0001
0010
0000
0100
1000
0010
0000
0100
0001
0010
0000
,
0100
1000
0100
0000
0100
1000
0100
0000
0010
0001
0010
0000
0010
0000
0001
0100
,
0110
0000
0000
0000
0001
0010
0100
1000
1010
0000
0000
0000
1000
0010
0100
0001
,
0011
0000
0000
0000
0001
0010
0100
1000
1010
0000
0000
0000
1000
0010
0100
0001
,
0011
0000
0000
1100
0000
0000
1000
0010
0001
0000
0000
0000
0020
0000
0030
0000
,
1010
0000
0000
0101
0000
0000
0001
0010
1000
0000
0000
0010
0000
0000
0001
0000
,
1000
0100
0010
0001
1000
0010
0100
0010
0001
0010
0100
0010
1000
0001
0010
0100
,
2000
0000
0000
0000
3010
0000
1000
0001
0010
0100
0010
0100
1000
0001
1000
0001
,
0200
0000
0310
0000
0110
0000
0000
0000
0000
0000
1000
0001
1000
0000
1010
0000
,
0011
0110
1100
0101
0110
1010
1001
0000
,
0110
0000
0000
0000
0110
0000
0000
0000
0000
0000
0001
1000
0001
0000
0101
0000
,
1100
0110
0011
1010
0110
0101
1001
0000
,
0001
0100
0010
1000
0001
0100
0010
1000
0010
1000
0100
1000
0001
1000
0100
1000
,
0001
0010
0100
0010
1000
0010
0001
0100
0010
0100
1000
0100
0001
0010
0100
1000
,
0001
0100
0010
0001
0010
0100
0001
1000
0100
0010
1000
0010
0100
1000
0010
0100
,
0002
0000
0000
0000
1003
0100
0010
1000
0002
0000
1003
0010
0100
1000
0001
1000
;

//---------------dance-single - ----------------
#NOTES:
     dance-single:
     :
     Hard:
     15:
     0.709084,0.897375,0.100444,0.301331,0.824475,593.000000,581.000000,12.000000,36.000000,0.000000,0.000000,0.709084,0.897375,0.100444,0.301331,0.824475,593.000000,581.000000,12.000000,36.000000,0.000000,0.000000:
// measure 0
0000
0000
0000
0000
,  // measure 1
0000
0000
0000
0000
,  // measure 2
0000
0000
0000
0000
,  // measure 3
0000
0000
0000
0000
,  // measure 4
0000
0000
0000
0000
,  // measure 5
0000
0000
0000
0000
,  // measure 6
0001
0100
0001
0100
0010
1000
0010
1000
,  // measure 7
0001
0010
0001
0010
0100
1000
0100
1000
,  // measure 8
0001
0010
0001
0000
1000
0100
1000
0000
0001
0100
0001
0100
0010
1000
0010
1000
,  // measure 9
0002
0000
0000
0000
1003
0100
0010
0001
1000
0000
0001
0100
0001
0000
1000
0100
,  // measure 10
1000
0000
0000
0000
1100
0000
0000
0000
0000
0000
1000
0001
0100
0000
0010
0000
,  // measure 11
0120
0000
0000
0130
,  // measure 12
0101
0000
0000
0000
0101
0000
0100
0000
0000
0000
0001
1000
0100
0000
0010
0000
,  // measure 13
0210
0000
1300
0000
,  // measure 14
0001
0000
1000
0100
1000
0100
0010
0000
0001
0100
0001
0100
0010
0000
0000
0000
,  // measure 15
1000
0000
0001
0100
0001
0100
0010
0000
1000
0100
1000
0100
0010
0000
0000
0000
,  // measure 16
0001
0100
0010
0000
1000
0100
0010
0000
0001
0010
0100
1000
0100
0010
0001
1000
,  // measure 17
0002
0000
0000
0000
0103
0000
0010
0000
1000
0001
1000
0001
0010
0100
0010
0100
,  // measure 18
2000
0000
0000
0000
0000
0000
3001
0100
0001
0000
0000
0000
1000
0100
1000
0100
,  // measure 19
0010
0000
0000
0000
0001
1000
0001
1000
0010
0000
0000
0000
0100
0001
1000
0001
,  // measure 20
0010
0000
0000
0000
0001
0010
0100
1000
0000
0001
0000
0000
1000
0010
0100
0001
,  // measure 21
0000
1000
0000
0000
0001
0010
0100
1000
0000
0000
0001
0100
0010
0100
0001
0000
,  // measure 22
1000
0000
0001
0000
0010
0100
0010
0001
0000
1000
0000
0000
0010
0100
0010
1000
,  // measure 23
0000
0001
0000
0000
0010
0100
0010
0001
0000
0000
1000
0100
0010
0001
1000
0000
,  // measure 24
0001
0000
0100
0010
0000
0100
1000
0000
0100
0010
0000
0100
1000
0000
0100
0001
,  // measure 25
1000
0100
1000
0000
0001
0100
0001
0000
0100
0010
0100
0010
1000
0001
1000
0001
,  // measure 26
0020
0000
0000
0100
0000
0000
0031
0000
1000
0001
0000
0000
1000
0010
0100
0010
,  // measure 27
1000
0000
0000
0000
0001
0010
0100
0010
0001
0000
0000
0000
1000
0100
0010
0001
,  // measure 28
1000
0000
0000
0000
0001
0100
0010
1000
0000
0100
0000
0000
1000
0010
0100
0001
,  // measure 29
0000
0010
0000
0000
0001
0010
0100
1000
0000
0000
0100
1000
0001
0100
0010
0000
,  // measure 30
1000
0000
0001
0000
0010
0100
1000
0010
0000
0100
0000
0000
0010
0100
0001
0010
,  // measure 31
0000
0100
0000
0000
0010
0100
1000
0010
0000
0000
0100
0001
0010
0001
1000
0000
,  // measure 32
0001
0010
1000
0001
0100
0010
0001
0100
,  // measure 33
0010
1000
0001
0000
0010
0100
1000
0001
2000
0000
3002
0000
0000
0000
0000
0000
,  // measure 34
0203
0000
0000
0000
,  // measure 35
0320
0000
0000
0000
,  // measure 36
2030
0000
0000
0000
,  // measure 37
0002
0000
0000
0000
3003
0000
0001
1000
,  // measure 38
0001
0010
0100
2000
0000
0000
3010
0100
,  // measure 39
0002
0000
0000
0000
0000
0000
0000
0000
0000
0000
0013
0000
0000
0001
0000
0000
,  // measure 40
2000
0000
0000
0200
0000
0000
3300
0000
,  // measure 41
0020
0000
0000
0002
0000
0000
0033
0000
,  // measure 42
1000
1100
0000
0000
0000
0000
0000
0000
,  // measure 43
1001
0000
0000
0000
,  // measure 44
0101
0000
0000
0000
0000
0000
0000
0000
0000
0000
0000
0000
0000
0000
0010
1000
,  // measure 45
0001
0000
0000
0000
0000
0000
0000
0010
,  // measure 46
0001
0100
0001
0100
0001
0000
0100
0000
0010
0000
1000
0000
0100
0000
0010
0000
,  // measure 47
0100
1000
0100
1000
0100
0000
0010
0000
0001
0000
1000
0000
0010
0000
0100
0000
,  // measure 48
0001
1000
0001
1000
0001
0000
0010
0000
0100
0010
0100
0010
0100
0000
0010
0000
,  // measure 49
0001
0100
0010
0000
1000
0100
0010
0000
0001
0000
0000
0000
1000
0010
0100
0001
,  // measure 50
1000
0100
0010
0000
0001
1000
0010
0000
0100
0000
0001
0000
0010
0100
1000
0000
,  // measure 51
0010
0100
0010
0100
0010
0000
1000
0000
0001
0010
0001
0010
0001
0000
0010
0100
,  // measure 52
2000
0000
0000
0000
3001
0100
0010
1000
0002
0000
0000
0000
1003
0100
0010
0001
,  // measure 53
2000
0000
0000
0000
3001
0100
0010
1000
0002
0000
0000
0000
0013
0100
1000
0001
,  // measure 54
1000
0010
0100
0000
0001
1000
0100
0000
0010
0000
0100
0000
0010
0001
1000
0000
,  // measure 55
0010
0100
0010
0100
0010
0000
1000
0000
0100
0000
1000
0010
0100
0000
0001
0010
,  // measure 56
0100
0000
0000
0100
0000
0000
0010
0001
1000
0000
0000
0000
0010
0000
0000
0000
,  // measure 57
1000
0100
1000
0000
0001
0010
0001
0000
1000
0010
0100
0001
1000
0100
0010
0001
,  // measure 58
1000
0010
0100
0000
0001
0010
0100
0000
1000
0000
0001
0000
0010
0100
1000
0000
,  // measure 59
0001
0100
0001
0100
0010
0000
1000
0000
0001
0010
0001
0010
0100
0000
1000
0010
,  // measure 60
0200
0000
0000
0000
0301
0100
0010
1000
0200
0000
0000
0000
1300
0100
0010
0001
,  // measure 61
0200
0000
0000
0000
0301
0010
0100
1000
0020
0000
0000
0000
1030
0100
0010
0001
,  // measure 62
0100
0000
0010
0100
0000
0001
1000
0001
0010
0000
0000
0000
0200
0000
0000
0000
,  // measure 63
0310
0000
0001
1000
0000
0010
0100
0010
1000
0000
0000
0001
0000
0000
0010
0000
,  // measure 64
0001
0100
0010
0000
1000
0100
0010
0000
0001
0010
0100
1000
0010
0100
0001
1000
,  // measure 65
0002
0000
0000
0000
0000
0000
0013
0100
2000
0000
0000
0000
3001
0100
0010
1000
,  // measure 66
0001
0000
0000
0000
1001
0000
0000
0000
0000
0000
1000
0001
1000
0000
1000
0000
,  // measure 67
0002
0010
1003
0002
0010
1003
0001
0000
,  // measure 68
1001
0000
0000
0000
1001
0000
0000
0000
0000
0000
0001
1000
0001
0000
0001
0000
,  // measure 69
2000
0010
3001
2000
0010
3001
1000
0000
,  // measure 70
0001
1000
0010
0000
1000
0001
0010
0000
0100
0000
0010
0001
0100
0000
0110
0000
,  // measure 71
0010
1000
0100
0010
0001
0000
0010
0001
0100
0010
1000
0000
0001
0000
0020
0000
,  // measure 72
0031
0100
0001
0100
0010
1000
0010
1000
0001
0010
0100
1000
0010
0100
0001
1000
,  // measure 73
0002
0000
0000
0000
1003
0100
0010
0100
0002
0000
0000
0000
0103
0010
0100
0010
;

//---------------dance-single - ----------------
#NOTES:
     dance-single:
     :
     Medium:
     12:
     0.487869,0.618879,0.150665,0.276220,0.154851,408.000000,390.000000,18.000000,33.000000,0.000000,0.000000,0.487869,0.618879,0.150665,0.276220,0.154851,408.000000,390.000000,18.000000,33.000000,0.000000,0.000000:
// measure 0
0000
0000
0000
0000
,  // measure 1
0000
0000
0000
0000
,  // measure 2
0000
0000
0000
0000
,  // measure 3
0000
0000
0000
0000
,  // measure 4
0000
0000
0000
0000
,  // measure 5
0000
0000
0000
0000
,  // measure 6
0001
0000
1001
0000
0000
1000
0100
1000
,  // measure 7
0001
0100
0010
1000
0100
0010
0001
0000
,  // measure 8
1000
0100
0010
0001
0100
0010
1000
0001
,  // measure 9
0200
0000
0310
0100
0002
0000
1003
0001
,  // measure 10
1000
0000
1100
0000
0000
1000
0001
0010
,  // measure 11
0210
0000
0000
1300
,  // measure 12
0001
0000
0101
0000
0000
0001
1000
0010
,  // measure 13
0120
0000
1030
0000
,  // measure 14
0001
0010
0010
0100
1000
1000
0001
0000
,  // measure 15
1000
0010
0010
0100
0001
0001
2000
0000
,  // measure 16
3001
0010
0100
1000
0001
0100
0010
1000
,  // measure 17
0002
0000
0013
0100
0020
0000
0032
0000
,  // measure 18
1003
0000
0000
0001
0100
0000
0001
1000
,  // measure 19
0100
0000
1000
0001
0100
0000
0001
0010
,  // measure 20
0100
0000
0000
0000
1000
0000
0000
0001
0000
0010
0000
0000
0001
0000
0000
1000
,  // measure 21
0000
0010
0000
0000
1000
0000
0000
0001
0000
0000
0010
0000
0200
0000
0000
0000
,  // measure 22
1300
0000
0000
0000
0010
0000
0000
1000
0000
0001
0000
0000
0010
0000
0000
0001
,  // measure 23
0000
1000
0000
0000
0010
0000
0000
0100
0000
0001
0000
0000
0010
0000
0100
0000
,  // measure 24
1000
0000
0000
0010
0000
0000
0100
0000
0001
0000
0000
0010
0000
0000
0100
0000
,  // measure 25
1000
0000
0010
0000
0100
0000
0001
0000
0010
0000
0100
0000
1000
0001
1000
0000
,  // measure 26
0002
0000
0000
1000
0000
0000
1003
0000
0010
0000
0000
0000
0100
0000
0001
0000
,  // measure 27
0010
0000
0100
1000
0010
0000
0001
0010
,  // measure 28
0100
0000
0000
0000
0001
0000
0000
0010
0000
0010
0000
0000
1000
0000
0000
0010
,  // measure 29
0000
0010
0000
0000
0001
0000
0000
1000
0000
0000
0001
0000
0100
0000
0010
0000
,  // measure 30
1000
0000
0000
0000
0100
0000
0000
0010
0000
0100
0000
0000
1000
0000
0000
0001
,  // measure 31
0000
1000
0000
0000
0010
0000
0000
0100
0000
0010
0000
0000
0001
0000
0010
0000
,  // measure 32
0200
0301
0000
2000
3100
0020
0031
0000
,  // measure 33
1000
0010
0100
0000
0001
0020
0000
0000
,  // measure 34
0230
0000
0000
0000
,  // measure 35
2300
0000
0000
0000
,  // measure 36
3002
0000
0000
0000
,  // measure 37
0203
0000
0000
0300
,  // measure 38
0010
1000
0001
2000
0000
0000
3100
0010
,  // measure 39
0002
0000
0000
0000
0000
0000
0000
0000
0000
0000
1003
0000
0000
0001
0000
0000
,  // measure 40
0200
0000
0000
0320
0000
0000
0000
0000
,  // measure 41
2030
0000
0000
3002
0000
0000
0000
0000
,  // measure 42
0013
0010
0100
1000
0000
0000
0001
1000
,  // measure 43
0020
0030
0200
0300
,  // measure 44
0002
0000
0003
0000
0000
0000
0000
0010
,  // measure 45
0200
0000
0300
0000
0000
0000
1000
0001
,  // measure 46
1000
0100
1000
0100
0010
0001
0010
0001
,  // measure 47
1000
0001
1000
0001
1000
0010
1000
0010
,  // measure 48
0100
0001
0010
0100
1000
0001
0100
0010
,  // measure 49
1000
0100
0001
0100
2000
0000
3010
0000
,  // measure 50
1000
0100
0010
0100
1000
0001
0100
0010
,  // measure 51
1000
0010
1000
0010
0100
0001
0100
0001
,  // measure 52
0101
0000
1000
0100
1100
0000
0001
0010
,  // measure 53
0011
0000
1000
0010
1010
0000
0001
0010
,  // measure 54
0001
0100
0010
1000
0010
0100
0010
0100
,  // measure 55
0001
1000
0100
1000
0001
0010
0100
0010
,  // measure 56
0001
0000
0000
0100
0000
0000
0010
0000
1010
0000
0000
0000
0000
0000
0000
0000
,  // measure 57
1000
0000
0100
0000
0010
0000
0001
0000
1000
0000
0001
0000
1000
0001
1000
0000
,  // measure 58
0001
0100
0010
1000
0100
1000
0001
0010
,  // measure 59
0100
1000
0100
1000
0001
0100
0001
0100
,  // measure 60
0110
0000
1000
0100
0110
0000
0001
0100
,  // measure 61
0110
0000
1000
0010
0110
0000
0001
0010
,  // measure 62
0110
0000
0000
0100
0000
0000
1000
0000
0001
0000
0000
0000
0000
0000
0000
0000
,  // measure 63
0101
0000
0000
0100
0000
0000
0001
0000
1000
0000
0000
0100
0000
0000
0100
0000
,  // measure 64
1000
0100
0010
0100
0001
0100
0010
0100
,  // measure 65
2000
0000
0000
0000
3001
0100
1000
0100
,  // measure 66
0001
0000
1001
0000
0000
1000
1000
1000
,  // measure 67
0001
0010
0100
0001
0100
0010
0001
0000
,  // measure 68
1000
0000
1001
0000
0000
0001
0001
0001
,  // measure 69
1000
0010
0100
1000
0100
0010
2000
0000
,  // measure 70
3001
0000
0010
0000
0001
0000
0100
0000
0010
0000
1000
0000
0100
0000
1000
0001
,  // measure 71
1000
0010
1000
0100
0010
0001
1000
0001
,  // measure 72
0100
0010
0100
0000
0010
0000
1000
0000
0001
1000
0001
0000
0010
0000
0100
0000
,  // measure 73
2000
0000
0000
0000
3001
0000
0100
0000
0020
0000
0000
0000
1030
0001
1000
0001
;
