#VERSION:0.83;
#TITLE:Acquire;
#SUBTITLE:;
#ARTIST:ryhki;
#TITLETRANSLIT:;
#SUBTITLETRANSLIT:;
#ARTISTTRANSLIT:;
#GENRE:;
#CREDIT:;
#MUSIC:Acquire.ogg;
#BANNER:bn.png;
#BACKGROUND:bg.png;
#CDTITLE:;
#SAMPLESTART:85.253;
#SAMPLELENGTH:15.000;
#SELECTABLE:YES;
#OFFSET:-0.092;
#BPMS:0.000=155.000
,108.000=77.500
,125.000=155.000
,127.000=77.500
,128.000=155.000
,130.000=77.500
,131.000=155.000
,133.000=77.500
,134.000=155.000
,136.000=77.500
,137.000=155.000
,139.000=77.500
,140.000=155.000
,142.000=77.500
,143.000=155.000
,145.000=38.750
,146.000=155.000
,160.000=77.500
,161.000=155.000
,251.000=77.500
,253.000=155.000
;
#STOPS:40.000=0.774
,106.000=2.323
,181.000=0.774
;
#BGCHANGES:0.000=Acquire.mp4=1.000=0=0=0=StretchNoLoop====,
99999.000=-nosongbg-=1.000=0=0=0=StretchNoLoop====
;
#FGCHANGES:;

//--------------- dance-single - eataninja ----------------
#NOTEDATA:;
#STEPSTYPE:dance-single;
#DESCRIPTION:eataninja;
#DIFFICULTY:Beginner;
#METER:5;
#RADARVALUES:0,0,0,0,0;
#NOTES:
0000
0000
0000
0000
,
0000
0000
0000
0000
,
0000
0000
0000
0000
,
0000
0000
0000
0000
,
0000
0000
0000
0000
,
0001
0001
0001
0000
,
1000
1000
1000
0000
,
0010
0010
1000
0000
,
0001
0010
0001
0010
,
0200
0300
2000
3000
,
0000
0000
0001
0001
,
0001
0000
0100
0100
,
0100
0000
0010
0010
,
0010
0000
1000
1000
,
0001
0000
0000
0010
,
0000
0100
0000
1000
,
0000
0001
0000
0100
,
0000
0010
0000
1000
,
1000
0000
1001
0000
,
0100
0000
1001
0000
,
1000
0000
1001
0000
,
0010
0000
1001
0000
,
0001
0000
1000
1000
,
1000
0000
0001
0001
,
0001
0000
0010
0010
,
0010
0000
0100
1000
,
0100
1000
0001
0000
,
0200
0000
0000
0300
,
0020
0000
0000
0030
,
2000
0000
0000
3000
,
0002
0000
0000
0003
,
0000
2002
3003
0000
,
0200
0300
0000
0020
,
0030
0000
0002
0003
,
0000
2002
3003
0000
,
0020
0030
0000
0200
,
0300
0000
0001
0000
,
1000
0000
0100
0100
,
1000
0000
0001
0010
,
0001
0000
0010
0010
,
0000
0001
0001
0001
,
0000
1000
1000
1000
,
0000
0010
0010
1000
,
0000
0001
0010
0001
,
0010
0200
0000
0000
,
0300
0000
0000
1000
,
0001
1000
0000
0010
,
0010
0100
0000
0001
,
1000
0001
0000
0010
,
0010
0100
0000
0000
,
1000
0000
0001
0000
,
0100
0100
0000
0000
,
0001
0000
1000
0000
,
0100
0100
0000
0010
,
0100
0010
0000
0010
,
0010
0001
0000
1000
,
0001
1000
0000
0010
,
0010
0100
0100
0000
,
0100
0001
0000
0001
,
0001
1000
0000
0100
,
1000
0100
0000
0010
,
0001
1000
0001
0100
,
0000
0010
0100
0000
,
0000
0001
0000
0010
,
0100
0000
1000
0001
,
0001
0000
0010
0100
,
0000
1000
1000
1000
,
0000
0010
0010
0100
,
0000
0001
1000
0001
,
0100
0020
0000
0000
,
0000
0030
0000
0000
;

//--------------- dance-single - eataninja ----------------
#NOTEDATA:;
#STEPSTYPE:dance-single;
#DESCRIPTION:eataninja;
#DIFFICULTY:Easy;
#METER:8;
#RADARVALUES:0,0,0,0,0;
#NOTES:
0000
0000
0000
0000
,
0000
0000
0000
0000
,
0000
0000
0000
0000
,
0000
0000
0000
0000
,
0000
0000
0000
0000
,
0001
0001
1000
1000
,
0010
0100
0010
1000
,
0001
0001
0010
1000
,
0010
0100
0010
0000
0001
1000
0001
0000
,
0100
0000
0000
0000
0000
0000
0000
0000
0000
0000
0000
0000
0000
0000
0000
0000
0000
0000
0000
0000
0000
0000
0000
0000
0000
0000
0000
0000
0000
0000
0000
0000
0000
0000
0000
0000
0000
0000
0000
0000
0000
0000
0000
0000
0000
0000
0000
0000
0010
0000
0000
0000
0000
0000
0000
0000
0000
0000
0000
0000
0000
0000
0000
0000
0000
0000
0000
0000
0000
0000
0000
0000
0000
0000
0000
0000
0000
0000
0000
0000
0000
0000
0000
0000
0000
0000
0000
0000
0000
0000
0000
0000
0000
0000
0000
0000
2000
0000
0000
0000
0000
0000
0000
0000
0000
0000
0000
0000
0000
0000
0000
0000
0000
0000
0000
0000
0000
0000
0000
0000
0000
0000
0000
0000
0000
0000
0000
0000
0000
0000
0000
0000
0000
0000
0000
0000
0000
0000
0000
0000
0000
0000
0000
0000
3002
0000
0000
0000
0000
0000
0000
0000
0000
0000
0000
0000
0000
0000
0000
0000
0000
0000
0000
0000
0000
0000
0000
0000
0000
0000
0000
0000
0000
0000
0000
0000
0000
0000
0000
0000
0000
0000
0000
0000
0000
0000
0000
0000
0000
0000
0000
0003
,
0000
0000
0010
0010
,
0100
0100
0020
0032
,
2003
3020
0130
0100
,
0010
0000
0010
0000
1000
0000
0001
0010
,
0001
0100
0000
0101
,
0000
1001
2000
3200
,
0320
0032
0003
0011
,
0000
1001
1000
0010
,
0100
0001
1000
0000
1001
0000
0000
0000
,
0010
0010
1001
0000
,
1000
0010
1001
0000
,
0100
0100
1001
0000
,
0001
1001
0100
0100
,
0010
0001
1000
0000
0010
0000
0010
0000
,
0100
0001
1000
0000
0001
0100
0001
0000
,
1000
0010
1000
0000
0001
0010
0100
0000
,
1000
0001
0100
0000
1001
0000
0000
0000
,
0002
0000
0000
0000
,
0203
0000
0000
0000
,
0320
0000
0000
0000
,
2030
0001
0001
3001
,
0100
0000
2002
0000
3003
0000
0010
1000
,
0200
0300
0010
2002
,
3003
0000
0001
0010
2000
0000
3000
0000
,
0010
0000
2002
0000
3003
0000
0100
0001
,
0020
0030
0100
2002
,
3003
2000
3001
0001
,
0100
0010
1000
1000
,
0001
0010
1000
0010
,
0100
1000
0001
0001
,
0000
1000
1000
0001
,
0001
0010
0100
0010
,
0001
1000
1000
0010
,
0001
0000
0010
0100
0010
0000
1000
0001
,
1000
0200
0000
0000
,
0000
0000
0000
0000
0000
0000
0000
0000
0000
0000
0000
0000
0000
0000
0000
0000
0000
0000
0000
0000
0000
0000
0000
0000
0000
0000
0000
0000
0000
0000
0000
0000
0000
0000
0000
0000
0000
0000
0000
0000
0000
0000
0000
0000
0000
0000
0000
0300
0000
0000
0000
0000
0000
0000
0000
0000
0000
0000
0000
0000
0000
0000
0000
0000
0000
0000
0000
0000
0000
0000
0000
0000
0000
0000
0000
0000
0000
0000
0000
0000
0000
0000
0000
0000
0000
0000
0000
0000
0000
0000
0000
0000
0000
0000
0000
0000
0000
0000
0000
0000
0000
0000
0000
0000
0000
0000
0000
0000
0000
0000
0000
0000
0000
0000
0000
0000
0000
0000
0000
0000
0000
0000
0000
0000
0000
0000
0000
0000
0000
0000
0000
0000
0000
0000
0000
0000
0000
0000
0000
0000
0000
0000
0000
0000
0110
0000
0000
0000
0000
0000
0000
0000
0000
0000
0000
0000
0000
0000
0000
0000
0000
0000
0000
0000
0000
0000
0000
0000
0000
0000
0000
0000
0000
0000
0000
0000
0000
0000
0000
0000
0000
0000
0000
0000
0000
0000
0000
0000
0000
0000
0000
0000
,
0011
0000
0110
0000
0000
0000
0010
0001
,
1000
0010
0000
0110
,
1010
0000
0110
0000
0000
0000
0010
1000
,
0001
0010
0000
0100
,
0100
0010
0010
0001
,
1000
0000
0010
0100
0001
0000
1000
1000
,
1000
0000
0001
0010
0001
0000
0000
0000
,
0010
0100
0000
0110
,
0010
0000
0001
1000
0001
0000
0100
0000
,
0100
0000
0010
1000
0001
0000
0010
0000
,
1000
0010
0001
1000
,
1000
0010
0100
0000
,
1001
0000
0001
1000
0001
0000
0100
0000
,
0010
0000
0100
0001
1000
0000
0100
0000
,
0001
0100
1000
0001
,
0100
1000
0000
0100
,
0010
0000
1000
0001
1000
0000
0000
0100
,
0110
0000
0010
0000
0010
0000
0001
1000
,
0010
0000
0100
0100
0100
0000
1000
0000
,
0100
0000
0000
0000
0001
0000
1000
0001
,
0100
0001
0001
0110
,
1000
0000
0001
0001
0001
0000
0010
0000
,
1000
0010
0001
1000
,
0010
0200
0000
0000
,
0000
0300
0000
0000
;

//--------------- dance-single - eataninja ----------------
#NOTEDATA:;
#STEPSTYPE:dance-single;
#DESCRIPTION:eataninja;
#DIFFICULTY:Medium;
#METER:12;
#RADARVALUES:0,0,0,0,0;
#NOTES:
0000
0000
0000
0000
,
0000
0000
0000
0000
,
0000
0000
0000
0000
,
0000
0000
0000
0000
,
0000
0000
0000
0000
,
0001
0001
1000
1000
,
0100
0010
0001
0000
0100
0010
1000
0000
,
0001
0010
0001
0000
1000
0010
0001
0000
,
0010
0100
0010
0100
0001
1000
0001
1000
,
0200
0000
0000
0000
0000
0000
0000
0000
0000
0000
0000
0000
0000
0000
0000
0000
0000
0000
0000
0000
0000
0000
0000
0000
0000
0000
0000
0000
0000
0000
0000
0000
0000
0000
0000
0000
0000
0000
0000
0000
0000
0000
0000
0000
0000
0000
0000
0000
0320
0000
0000
0000
0000
0000
0000
0000
0000
0000
0000
0000
0000
0000
0000
0000
0000
0000
0000
0000
0000
0000
0000
0000
0000
0000
0000
0000
0000
0000
0000
0000
0000
0000
0000
0000
0000
0000
0000
0000
0000
0000
0000
0000
0000
0000
0000
0000
0032
0000
0000
0000
0000
0000
0000
0000
0000
0000
0000
0000
0000
0000
0000
0000
0000
0000
0000
0000
0000
0000
0000
0000
0000
0000
0000
0000
0000
0000
0000
0000
0000
0000
0000
0000
0000
0000
0000
0000
0000
0000
0000
0000
0000
0000
0000
0000
2003
0000
0000
0000
0000
0000
0000
0000
0000
0000
0000
0000
0000
0000
0000
0000
0000
0000
0000
0000
0000
0000
0000
0000
0000
0000
0000
0000
0000
0000
0000
0000
0000
0000
0000
0000
0000
0000
0000
0000
0000
0000
0000
0000
0000
0000
0000
3000
,
0000
0000
0000
1000
0001
0000
0100
0000
0110
0000
0000
0000
0110
0000
0000
0000
,
1001
0000
1001
0000
0001
0010
0100
1000
,
0002
0000
0000
1003
0010
0000
0100
0000
0110
0000
0000
0000
0110
0000
0000
0000
,
1001
0000
1000
0001
0001
0000
0010
1000
,
0010
0000
0001
0000
0100
0000
0000
0000
0010
0000
1000
0000
0010
1000
0000
0000
,
0001
0000
0100
0000
0001
0100
0000
0000
0001
0000
1000
0000
0100
0000
0010
0000
,
0001
0000
1000
0000
0010
0001
0000
0000
0010
0000
0100
0000
0010
1000
0000
0000
,
0001
0000
1000
0000
0001
0010
0000
0000
0100
0000
0010
0000
0000
0000
0010
0000
,
0001
0000
1000
0000
0020
0000
0030
0000
1010
0000
0000
0010
1000
0000
0001
0000
,
1000
0000
0100
0000
0010
0001
0000
0000
0011
0000
0000
0010
0001
0000
1000
0000
,
0010
0000
0001
0000
0010
0100
0000
0000
0101
0000
0000
0100
0001
0000
1000
0000
,
0001
0000
0010
0000
0100
1000
0000
0000
1100
0000
0000
0100
1000
0000
0001
0000
,
0100
0010
0000
0000
1001
0000
0000
0000
0001
0000
0001
0000
0100
0000
0100
0000
,
0010
0000
0000
1000
0000
0000
0001
0000
0010
0000
0010
0000
0100
0000
0100
0000
,
1000
0000
0000
0001
0000
0000
0100
0000
0010
0000
1000
0000
0010
0000
1000
0000
,
0001
0100
0001
0100
0010
1000
0100
0001
,
0100
1000
0010
0100
2001
0000
0000
0000
,
3020
0000
0000
0000
,
0230
0000
0000
0000
,
0302
1000
1000
1000
,
2003
0100
0100
3100
,
0100
0010
0001
0000
2002
0000
0000
0000
3003
0000
0000
0000
1000
0010
0100
0000
,
0202
0000
0000
0000
0303
0000
0000
0000
0001
1000
0100
0000
2200
0000
0000
0000
,
3300
0000
0000
0000
1000
0100
0001
0000
0200
0000
0000
0000
0310
0000
0000
0000
,
0010
0100
1000
0000
2002
0000
0000
0000
3003
0000
0000
0000
0001
0100
0010
0000
,
2020
0000
0000
0000
3030
0000
0000
0000
1000
0001
0010
0000
0022
0000
0000
0000
,
0033
2000
3010
0010
,
0100
0001
1000
1000
,
0100
0000
0001
0000
0100
0000
0010
0001
,
0100
0000
0000
0000
1000
0000
0000
0000
0100
0000
0000
0100
0000
0000
0100
0000
,
0020
1030
1000
0001
,
0001
0000
0010
0100
1000
0000
0010
0100
,
0001
0000
1000
0100
1000
0000
0001
0100
,
1000
0000
0100
0010
0100
0010
1000
0001
,
1000
0001
0020
0000
0000
0000
0230
0000
,
0000
0000
0000
0000
0000
0000
0000
0000
0000
0000
0000
0000
0000
0000
0000
0000
0000
0000
0000
0000
0000
0000
0000
0000
0000
0000
0000
0000
0000
0000
0000
0000
0000
0000
0000
0000
0000
0000
0000
0000
0000
0000
0000
0000
0000
0000
0000
0300
0000
0000
0000
0000
0000
0000
0000
0000
0000
0000
0000
0000
0000
0000
0000
0000
0000
0000
0000
0000
0000
0000
0000
0000
0000
0000
0000
0000
0000
0000
0000
0000
0000
0000
0000
0000
0100
0000
0000
0000
0000
0000
0000
0000
0000
0000
0000
0000
1000
0000
0000
0000
0000
0000
0000
0000
0000
0000
0000
0000
0000
0000
0000
0000
0000
0000
0000
0000
0000
0000
0000
0000
0001
0000
0000
0000
0000
0000
0000
0000
0000
0000
0000
0000
0000
0000
0000
0000
0000
0000
0000
0000
0000
0000
0000
0000
1001
0000
0000
0000
0000
0000
0000
0000
0000
0000
0000
0000
0000
0000
0000
0000
0000
0000
0000
0000
0000
0000
0000
0000
0000
0000
0000
0000
0000
0000
0000
0000
0000
0000
0000
0000
0000
0000
0000
0000
0000
0000
0000
0000
0000
0000
0000
0000
,
0110
0000
1001
0000
0001
0001
0100
1000
,
0100
0001
1000
0100
0010
0000
1001
0000
,
0110
0000
1001
0000
1000
1000
0010
0001
,
0010
0100
0001
0100
1000
0100
0001
1000
,
0001
1000
0000
0000
0100
0000
1000
0000
0100
1000
0000
0000
0001
0000
0010
0100
,
0000
0010
0100
0000
1000
0000
0001
0000
0110
0000
0000
0000
0100
0000
0100
0000
,
0001
1000
0100
0001
0100
1000
0000
0010
,
1000
0010
1000
0100
0010
0000
0110
0000
,
1001
0001
1000
0010
0100
0000
0101
0000
,
0101
0000
0000
0001
1000
0000
0100
0000
0010
0000
0000
0000
0110
0000
0000
0000
,
0010
0000
1000
0000
0010
0000
0001
0000
1000
0000
0000
0000
0010
0000
0000
0010
,
0000
0000
0010
0000
0100
0000
0000
0001
0000
0000
1000
0000
0000
0000
0001
0010
,
0001
0000
1000
0100
0010
0000
0011
0000
,
0011
0000
0000
0001
1000
0000
0010
0000
0100
0000
0000
0000
0110
0000
0000
0000
,
0100
0000
1000
0000
0100
0000
0001
0000
1000
0000
0000
0000
0100
0000
0000
0010
,
0000
0001
0200
0000
0320
0000
1030
0000
,
0001
0010
1000
0010
0100
0000
0020
0032
,
2003
0000
3020
0000
0130
0000
0000
0000
0100
0000
1000
0000
0100
0000
0000
0010
,
0000
0100
0100
0001
1000
0100
0020
0031
,
0200
0301
0000
1000
0001
0010
0100
1000
,
0001
0000
0100
0000
0010
0000
0000
0010
0000
0000
0010
0000
1001
0000
0000
0000
,
0001
0010
1000
1000
0010
0100
0010
0001
,
1000
0000
0010
0000
0100
0000
0001
1000
0000
0001
1000
0000
0100
0000
0001
0000
,
0100
1000
0020
0000
0000
0000
0000
0000
,
0000
0030
0000
0000
;

//--------------- dance-single - eataninja ----------------
#NOTEDATA:;
#STEPSTYPE:dance-single;
#DESCRIPTION:eataninja;
#DIFFICULTY:Hard;
#METER:15;
#RADARVALUES:0,0,0,0,0;
#NOTES:
0000
0000
0000
0000
,
0000
0000
0000
0000
,
0000
0000
0000
0000
,
0000
0000
0000
0000
,
0000
0000
0000
0000
,
0001
0100
0101
1010
,
0010
1000
0100
0000
0010
0001
0100
0000
,
0010
1000
0010
1000
0001
0010
0100
1000
,
0001
1000
0001
0000
1000
0010
1000
0000
0001
0010
0100
1000
0001
0010
0001
1000
,
0020
0000
0000
0000
0000
0000
0000
0000
0000
0000
0000
0000
0000
0000
0000
0000
0000
0000
0000
0000
0000
0000
0000
0000
0000
0000
0000
0000
0000
0000
0000
0000
0000
0000
0000
0000
0000
0000
0000
0000
0000
0000
0000
0000
0000
0000
0000
0000
0230
0000
0000
0000
0000
0000
0000
0000
0000
0000
0000
0000
0000
0000
0000
0000
0000
0000
0000
0000
0000
0000
0000
0000
0000
0000
0000
0000
0000
0000
0000
0000
0000
0000
0000
0000
0000
0000
0000
0000
0000
0000
0000
0000
0000
0000
0000
0000
0302
0000
0000
0000
0000
0000
0000
0000
0000
0000
0000
0000
0000
0000
0000
0000
0000
0000
0000
0000
0000
0000
0000
0000
0000
0000
0000
0000
0000
0000
0000
0000
0000
0000
0000
0000
0000
0000
0000
0000
0000
0000
0000
0000
0000
0000
0000
0000
0023
0000
0000
0000
0000
0000
0000
0000
0000
0000
0000
0000
0000
0000
0000
0000
0000
0000
0000
0000
0000
0000
0000
0000
0000
0000
0000
0000
0000
0000
0000
0000
0000
0000
0000
0000
0000
0000
0000
0000
0000
0000
0000
0000
0000
0000
0000
0030
,
0000
0000
0000
0010
0100
0000
0010
0000
0001
0000
1000
0010
1000
0000
0001
0100
,
0001
0000
1000
0010
1000
0000
0001
0010
0100
0000
1000
0010
0100
0000
0001
0010
,
0001
0000
0000
0001
1000
0000
0010
0000
0010
0000
0100
0001
0100
0000
0010
1000
,
0010
0000
0100
0001
0100
0000
0100
0000
0010
0000
1000
0100
0010
0000
0001
1000
,
0001
0000
0100
0000
1000
0000
0100
0000
0001
0000
1000
0000
0001
0010
0000
0000
,
0001
0000
1000
0000
0001
0010
0000
0000
0200
0000
0320
0000
0032
0000
2003
0000
,
3010
0000
0100
0000
1000
0100
0000
0001
1000
0000
0100
0000
1000
0001
0000
0000
,
1000
0000
0100
0000
1000
0001
0000
0000
0010
0000
1000
0000
0010
0000
0001
0000
,
0100
0000
0001
0000
0020
0000
0030
0000
0110
0000
0000
0100
1000
0000
0001
0000
,
1000
0010
1000
0000
0001
0010
0000
0000
0110
0000
0000
0010
0001
0000
0001
0000
,
1000
0100
0000
0010
0001
1000
0010
0000
0110
0000
0000
0100
0001
0000
1000
0000
,
0001
0010
0001
0000
1000
0010
0000
0000
0110
0000
0000
0010
1000
0000
1000
0000
,
0001
0010
0000
0001
1000
0000
0000
0000
0001
0000
0001
0000
0100
0000
0100
0000
,
0010
0000
0100
0001
0000
0010
0100
1000
0001
0000
0001
0000
0010
0000
0010
0000
,
0100
0000
0010
0001
0000
1000
0010
0100
0001
1000
0001
0000
1000
0100
0010
0000
,
0001
1000
0001
0000
0100
0010
1000
0000
0001
0100
0001
0000
0100
1000
0100
0000
,
0001
0100
0001
1000
0100
0010
0001
1000
0020
0000
0000
0000
0000
0000
0000
0000
,
0230
0000
0000
0000
,
0302
0000
0000
0000
,
2003
0100
0100
0100
,
3002
0100
0100
0103
,
0001
0000
0010
0000
1000
0000
0000
0000
0220
0000
0000
0000
0000
0000
0000
0000
0000
0000
0000
0000
0330
0000
0000
0000
0010
0000
0001
1000
0001
0010
0100
0000
,
2002
0000
0000
0000
0000
0000
0000
0000
0000
0000
0000
0000
3003
0000
0000
0000
1000
0010
0100
0000
1000
0000
0000
0000
0202
0000
0000
0000
0000
0000
0000
0000
,
0000
0000
0000
0000
0303
0000
0000
0000
0001
0010
0001
0010
1000
0000
0000
0000
0012
0000
0000
0000
0000
0000
0000
0000
2000
0000
0000
0000
3003
0000
0000
0000
,
1000
0000
0100
0000
0001
0000
0000
0000
0220
0000
0000
0000
0000
0000
0000
0000
0000
0000
0000
0000
0330
0000
0000
0000
0100
0000
1000
0001
1000
0100
0010
0000
,
2002
0000
0000
0000
0000
0000
0000
0000
0000
0000
0000
0000
3003
0000
0000
0000
0001
0100
0010
0000
0001
0000
0000
0000
2020
0000
0000
0000
0000
0000
0000
0000
,
0000
3030
0002
0000
0013
0000
0010
0000
,
0100
0000
0010
0000
0001
0000
1000
0010
0100
0000
0000
0000
0100
0000
0000
0001
,
1000
0100
0001
1000
0010
0100
0010
0001
,
1000
0000
0010
1000
0000
0000
0001
1000
0010
0000
0000
0010
0000
0000
0010
0000
,
0200
0302
1003
0000
0100
0000
1100
0000
,
0011
0000
0010
0001
0100
0000
0010
1000
,
0100
0000
0010
0001
0010
0001
1000
0010
,
0100
0000
0001
0000
1000
0001
1000
0000
0001
0010
0001
0000
1000
0010
0100
0001
,
1000
0010
1000
0001
0020
0000
0000
0000
0000
0000
0000
0000
0200
0000
0000
0000
,
0000
0000
0000
0000
0000
0000
0000
0000
0000
0000
0000
0000
0000
0000
0000
0000
0000
0000
0000
0000
0000
0000
0000
0000
0000
0000
0000
0000
0000
0000
0000
0000
0000
0000
0000
0000
0000
0000
0000
0000
0000
0000
0000
0000
0000
0000
0000
0330
0000
0000
0000
0000
0000
0000
0000
0000
0000
0000
0000
0000
0000
0000
0000
0000
0000
0000
0000
0000
0000
0000
0000
0000
0000
0000
0000
0000
0000
0000
0000
0000
0000
0000
0000
0000
0100
0000
0000
0000
0000
0000
0000
0000
0000
0000
0000
0000
0010
0000
0000
0000
0000
0000
0000
0000
0000
0000
0000
0000
0000
0000
0000
0000
0000
0000
0000
0000
0000
0000
0000
0000
0100
0000
0000
0000
0000
0000
0000
0000
0000
0000
0000
0000
0000
0000
0000
0000
0000
0000
0000
0000
0000
0000
0000
0000
1000
0000
0000
0000
0000
0000
0000
0000
0000
0000
0000
0000
0000
0000
0000
0000
0000
0000
0000
0000
0000
0000
0000
0000
0100
0000
0000
0000
0000
0000
0000
0000
0000
0000
0000
0000
0000
0000
0000
0000
0000
0000
0000
0000
0000
0000
0000
0000
,
0001
0100
0010
0001
1000
1000
0001
0100
,
1000
0001
0010
0100
0001
0000
0001
0100
,
1000
0000
0100
0000
0010
0000
1000
0000
0001
0000
0001
0000
0010
0100
0000
0100
,
0010
0001
1000
0000
0010
0001
0010
0000
0100
0000
0001
0000
1000
0000
0001
0000
,
0010
0100
0000
0010
0001
0000
1000
0000
0010
0100
0000
0010
1000
0000
0001
0010
,
0000
0001
0010
0000
0100
0010
0100
0010
0001
0000
0000
0000
1000
0000
1000
0000
,
0010
0001
1000
0100
0010
1000
0001
0010
,
0200
0310
0002
2003
3010
0100
0001
1000
,
0001
0000
0010
0000
1000
0000
0010
0000
0001
0000
1000
0010
1000
0000
0001
0000
,
0100
0000
0010
1000
0001
0000
0010
0000
0100
0000
1000
0001
1000
0000
0010
0000
,
0100
0000
0001
0000
0010
0000
1000
0010
0000
0001
1000
0010
0100
0000
0001
0100
,
0000
0001
0100
0000
0020
0000
1030
0000
0100
0000
0010
0000
0000
0000
0001
1000
,
0001
0000
1000
0000
0010
0000
0001
0000
0010
0000
0100
0001
1000
0000
0100
0000
,
0010
0000
0001
0010
0001
0000
1000
0000
0010
0000
0001
0000
1000
0000
0100
0000
,
0010
0000
0100
0000
0001
0000
1000
0100
0000
0010
0001
1000
0010
0000
0100
0001
,
0100
0000
0010
1000
0010
0000
0100
0000
0001
0000
0010
0000
0100
0000
1000
0000
,
0001
0000
1000
0000
0010
0000
0100
0000
0001
0000
1000
0100
0020
0032
2003
3000
,
0102
0000
2003
3200
0310
0000
0100
0000
0010
0000
0001
0000
1000
0000
0010
0001
,
0000
0010
0100
0010
1000
0000
0001
0000
0010
0000
1000
0000
0002
0000
0103
0000
,
0020
0031
0000
1000
0001
0001
0100
0010
,
1000
0000
0001
0010
0001
0000
1000
0100
0000
1000
0100
0000
1001
0000
0000
0000
,
0001
0000
0100
0000
0010
0000
0010
0000
1000
0000
0001
0010
0100
0000
0001
0100
,
0000
1000
0001
0000
1000
0010
1000
0010
0100
0001
0100
0001
1000
0000
0001
0010
,
0001
0000
1000
0010
0200
0000
0000
0000
0000
0000
0000
0000
0000
0000
0000
0000
,
0000
0300
0000
0000
;
