#TITLE:ASDF;
#SUBTITLE:;
#ARTIST:Doin;
#TITLETRANSLIT:;
#SUBTITLETRANSLIT:;
#ARTISTTRANSLIT:;
#GENRE:;
#CREDIT:;
#MUSIC:ASDF.ogg;
#BANNER:ASDF-bn.png;
#BACKGROUND:ASDF-bg.png;
#CDTITLE:;
#SAMPLESTART:11.471;
#SAMPLELENGTH:15.002;
#SELECTABLE:YES;
#OFFSET:-0.190;
#BPMS:0.000=170.000;
#STOPS:;
#BGCHANGES:;
#FGCHANGES:;

//--------------- dance-single - Peter ----------------
#NOTES:
     dance-single:
     Peter:
     Beginner:
     4:
     0,0,0,0,0:
0000
0000
0000
0000
,
0000
0000
0000
0000
,
0000
0000
0000
0000
,
0000
0000
0000
0000
,
0000
0000
0000
0000
,
0000
0000
0000
0000
,
0000
0000
0000
0000
,
0000
0000
0000
0000
,
1000
0000
0001
0000
,
1000
0100
0010
0001
,
0000
0100
0000
0010
,
0000
0000
1000
0000
,
0001
0000
1000
0000
,
0001
0010
0100
1000
,
0000
0001
0000
1000
,
0000
0010
0100
0001
,
1000
0000
0100
0000
,
0001
0000
0100
0000
,
1000
0000
0010
0000
,
0100
0000
0001
0000
,
0010
0000
1000
0000
,
0010
0000
0001
0000
,
0100
0000
0010
0000
,
1000
0000
0001
0000
,
2000
0000
0000
0000
,
0000
0000
0000
0000
,
3001
0010
0100
1000
,
0000
0000
0000
0000
,
0002
0000
0000
0000
,
0000
0000
0000
0000
,
2003
0000
0000
0000
,
0000
0000
0000
0000
,
3001
0000
0000
0000
,
0100
0000
0000
0000
,
0001
0010
0100
1000
,
0000
0000
0000
0000
,
0001
0000
0000
0000
,
1000
0000
0000
0000
,
0100
0000
0000
0000
,
0000
0000
0000
0000
,
0020
0000
0000
0000
,
0031
0000
0100
0000
,
0001
0000
0010
0000
,
1000
0000
0001
0000
,
0100
0000
1000
0000
,
0001
0000
0010
0000
,
0001
0000
0100
0000
,
1000
0000
0001
0000
,
0010
0000
1000
0000
,
0001
0000
0000
0000
,
1000
0000
0000
0000
,
0001
0010
0100
1000
,
0000
0000
0000
0000
,
0001
0000
0000
0000
,
1000
0100
0010
0001
,
0000
0000
0000
0000
,
1000
0000
0000
0000
,
0001
0000
0100
0000
,
0001
0010
0100
1000
,
0000
0010
0000
0100
,
0000
0001
1000
0001
,
1000
0000
0001
0000
,
1000
0100
0010
0001
,
0000
0100
0000
0010
,
1000
0000
0001
1000
,
0002
0000
0000
0000
,
0000
0000
0000
0000
,
1003
0100
0010
0001
,
0000
0000
0000
0000
,
2000
0000
0000
0000
,
0000
0000
0000
0000
,
3002
0000
0000
0000
,
0000
0000
0000
0003
,
2002
0000
0000
0000
,
0000
0000
0000
0000
,
3003
0000
0000
0000
;

//--------------- dance-single - Peter ----------------
#NOTES:
     dance-single:
     Peter:
     Easy:
     5:
     0,0,0,0,0:
0000
0000
0000
0000
,
0000
0000
0000
0000
,
0000
0000
0000
0000
,
0000
0000
0000
0000
,
0000
0000
0000
0000
,
0000
0000
0000
0000
,
0000
0000
0000
0000
,
0000
0000
0000
0000
,
1000
0000
0000
0000
0000
0001
0000
0000
,
1000
0010
0001
0100
,
0000
1000
0000
0000
0000
0001
0000
0000
,
0000
0000
0100
0100
,
0010
0010
1000
0000
,
0001
0010
1000
0100
,
0000
0000
0000
0001
0000
0000
0000
0000
,
0000
1000
0000
0000
0100
0000
0010
0000
,
0001
0000
0100
0000
,
0010
0000
1000
1000
,
0001
0000
0010
0000
,
1000
0000
0010
0001
,
1000
0000
0010
0000
,
0100
0000
0001
0001
,
1000
0000
0100
0000
,
0001
0000
0100
1000
,
0002
0000
0000
0000
,
0000
0000
0000
0000
,
1003
0010
0001
0100
,
0000
0000
0000
0000
,
2000
0000
0000
0000
,
0000
0000
0000
0000
,
3002
0000
0000
0000
,
0000
0000
0000
0000
,
1003
0000
0000
0000
,
0001
0000
0000
0000
,
1000
0100
0001
0010
,
0000
0000
0000
1000
,
0000
0020
0000
0000
0000
0000
0030
0000
,
0100
0000
0001
0000
,
1000
0000
0000
0100
,
0010
0000
0000
0000
,
0002
0000
0000
0000
,
1003
0000
0010
0000
,
0100
0000
0001
0000
,
0010
0000
1000
0000
,
0010
0000
0001
1000
,
0001
0000
0010
0000
,
0100
0000
1000
0000
,
0010
0000
0001
0000
,
0010
0000
1000
0001
,
1000
0000
0000
0000
,
0000
0000
0000
0001
0000
0000
0000
0000
,
1000
0010
0001
0100
,
0000
1000
0000
0000
,
0001
0000
0000
0000
0000
1000
0000
0000
,
0001
0100
1000
0010
,
0000
0000
0001
0000
0000
0100
0000
0000
,
0000
0000
0010
0000
,
1000
0000
0100
0000
0000
0010
0000
0000
,
0001
0100
1000
0010
,
0001
0000
0100
0000
,
0010
0000
0000
2000
0000
0000
0000
0000
,
3001
0000
0010
0000
0000
0100
0000
0000
,
1000
0010
0001
0100
,
1000
0000
0010
0000
,
0100
0000
0001
1000
,
0002
0000
0000
0000
,
0000
0000
0000
0000
,
1003
0010
0001
0100
,
0000
0000
0000
0000
,
2000
0000
0000
0000
,
0000
0000
0000
0000
,
3002
0000
0000
0000
,
0000
0000
0000
0003
,
2002
0000
0000
0000
,
0000
0000
0000
0000
,
3003
0000
0000
0000
;

//--------------- dance-single - Peter ----------------
#NOTES:
     dance-single:
     Peter:
     Medium:
     7:
     0,0,0,0,0:
0000
0000
0000
0000
,
0000
0000
0000
0000
,
0000
0000
0000
0000
,
0000
0000
0000
0000
,
0000
0000
0000
0000
,
0000
0000
0000
0000
,
0000
0000
0000
0000
,
0000
0000
0000
0000
,
1000
0000
0010
0000
0000
0100
0000
0000
,
1000
0100
0001
1000
,
0000
0001
0000
0010
0000
0100
0000
0000
,
0100
0000
0010
0001
,
1000
0010
0100
0001
,
0010
1000
0010
0001
,
1000
0000
0000
0010
0000
0000
0100
0000
,
0000
0001
0000
0000
0010
0000
0100
0000
,
1000
0000
0001
0000
0100
0010
0000
0000
,
1000
0001
0100
0010
,
1000
0000
0001
0000
0010
0000
0000
0001
,
1000
0000
0000
0001
0010
0000
0100
0000
,
1000
0000
0001
0000
0100
0010
0000
0000
,
1000
0001
0100
0010
,
1000
0000
0001
0000
0010
0000
0000
0001
,
1000
0000
0000
0100
0010
0000
0001
0000
,
2000
0000
0000
0000
,
0000
0000
0000
0000
,
3020
0032
0023
0230
,
0000
0000
0000
0000
,
0302
0000
0000
0000
,
0000
0000
0000
0000
,
2003
0000
0000
0000
,
0000
0000
0000
0000
,
3001
0000
0000
0000
,
0100
0000
0010
0000
,
1000
0100
0001
0100
,
1000
0000
0001
0000
,
0000
0200
0000
0000
0000
0300
0000
0000
,
0010
0000
1000
0000
,
0001
0000
0000
0010
,
0100
0000
0000
1000
,
1000
1000
1000
1000
,
0001
0010
1000
0010
,
0100
0001
0100
0010
,
0001
0100
1000
0100
,
0010
0000
1000
0000
0001
0000
0010
0100
,
1000
0010
0001
0010
,
0100
1000
0100
0010
,
1000
0100
0001
0100
,
0010
0000
0001
0000
0100
0000
0010
1000
,
0001
0000
0000
0000
0000
0010
0000
0000
,
0100
0000
0000
0000
0000
1000
0000
0000
,
0001
0010
1000
0010
,
0001
0000
0100
0000
0000
0010
0000
0010
,
1000
0000
0000
0000
0000
0001
0000
0000
,
0010
1000
0010
0001
,
1000
0000
0010
0000
0000
0100
0000
0000
,
0001
0000
0010
0100
,
1000
0000
0010
0000
0000
0001
0000
0000
,
0010
0100
1000
0100
,
0001
0010
0100
1000
,
0001
0000
0000
0000
0010
0000
0100
1000
,
0001
0100
0010
0001
,
0010
1000
0001
0100
,
1000
0100
0001
1000
,
0100
0010
0001
1000
,
0002
0000
0000
0000
,
0000
0000
0000
0000
,
0203
0000
0000
0000
,
0000
0000
0000
0000
,
0320
0000
0000
0000
,
0000
0000
0000
0000
,
2030
0000
0000
0000
,
0000
0000
0000
3000
,
2002
0000
0000
0000
,
0000
0000
0000
0000
,
3003
0000
0000
0000
;

//--------------- dance-single - Peter ----------------
#NOTES:
     dance-single:
     Peter:
     Hard:
     10:
     0,0,0,0,0:
0000
0000
0000
0000
,
0000
0000
0000
0000
,
0000
0000
0000
0000
,
0000
0000
0000
0000
,
0000
0000
0000
0000
,
0000
0000
0000
0000
,
0000
0000
0000
0000
,
0000
0000
0000
0000
,
1000
0000
0000
0000
0000
0001
0100
0000
,
0001
0010
0100
1000
0100
0010
0001
0000
,
1000
0010
1000
0000
0001
0010
0001
0000
,
0100
0110
1000
0001
,
1000
0000
0001
0000
0010
0100
0110
0000
,
0001
0010
0100
1000
0100
0010
0001
0000
,
1000
0000
0000
0010
0100
0000
1000
0000
,
0000
0100
0001
0000
1000
0000
0100
0010
,
0001
0000
0100
0100
0010
1000
0000
0001
,
0010
0000
0100
0100
0010
0001
1000
0000
,
0010
0000
0001
0000
0010
0000
0000
1000
,
0001
0000
0000
0001
0010
0100
1000
0001
,
0000
0000
0010
0010
0100
1000
0000
0001
,
0100
0000
0010
0010
0100
0001
1000
0000
,
0100
0000
0001
0000
0100
0000
0000
0010
,
0001
0000
0000
0001
0100
0010
1000
0001
,
2000
0000
0000
0000
0000
0100
0100
0000
,
0000
0000
0000
0000
0000
0001
0001
0000
,
3001
0010
0100
1000
0100
0010
0001
0000
,
0200
0000
0000
0000
0310
1000
0100
0010
,
0002
0000
0000
0000
,
0000
0000
0000
0000
,
2003
0000
0000
0000
,
0000
0000
0000
0000
,
3001
0000
0000
0000
,
1000
0000
0000
0001
0000
0000
0000
0000
,
0001
0010
0100
1000
0100
0010
0001
0000
,
0000
0000
0100
0010
0100
0000
0001
0000
,
1000
0000
0000
0000
,
0100
0000
0000
0010
0001
0000
0000
0100
,
0010
0000
0000
1000
,
1000
0000
0010
0100
0010
0000
1000
0000
,
1000
1000
1000
1000
,
0001
0000
0010
1000
0010
0000
0100
0000
,
0001
0000
0100
1000
0010
0000
0100
0000
,
0001
0000
0100
1000
0100
0000
0010
0000
,
1000
0000
0100
0010
0001
0000
0100
0010
,
1000
0000
0100
0001
0100
0000
0010
0000
,
1000
0000
0010
0001
0100
0000
0010
0000
,
1000
0000
0010
0001
0010
0000
0100
0000
,
0001
0000
0010
0100
1000
0000
0001
0000
,
1000
0000
0000
0000
0000
0010
0000
0000
,
0100
0000
0000
0010
1000
0000
0000
0000
,
0001
0010
0100
1000
0100
0010
0001
0000
,
1000
0000
0010
0000
0000
0100
0100
0100
,
0000
0000
0000
0000
0000
0001
0000
0000
,
0001
0010
0100
1000
0100
0010
0001
0000
,
1000
0000
0001
0000
0000
0010
0001
0000
,
0100
0000
1000
0000
0100
0001
0100
0001
,
1000
0000
0000
0000
0000
0010
0100
0000
,
0001
0010
0100
1000
0100
0010
0001
0000
,
0100
0000
0010
0000
1000
0001
0010
0000
,
0100
0001
0100
1000
,
0001
0000
0100
0010
0100
0001
1000
0000
,
0001
0010
0100
1000
0100
0010
0001
0000
,
0100
0000
0010
0000
1000
0100
0010
0000
,
0001
0000
0010
0000
1000
0010
0001
1000
,
0000
0000
0000
0000
,
0000
0000
0000
0000
,
0001
0010
0100
1000
0100
0010
0001
0000
,
0000
0000
0000
0000
,
2000
0000
0000
0000
,
0000
0000
0000
0000
,
3002
0000
0000
0000
,
0000
0000
0000
0003
,
2002
0000
0000
0000
,
0000
0000
0000
0000
,
3003
0000
0000
0000
;

//--------------- dance-single - Peter ----------------
#NOTES:
     dance-single:
     Peter:
     Challenge:
     14:
     0,0,0,0,0:
0000
0000
0000
0000
,
0000
0000
0000
0000
,
0000
0000
0000
0000
,
0000
0000
0000
0000
,
0000
0000
0000
0000
,
0000
0000
0000
0000
,
0000
0000
0000
0000
,
0000
0000
0000
0000
,
1000
0000
1001
0000
0000
0001
0100
0000
,
0001
0010
0100
1000
0100
0010
0001
0000
,
1000
0100
1000
1000
0001
0100
1000
0000
,
0100
0000
0000
0000
0001
0000
1000
0000
0001
0000
0010
0000
0001
0000
0100
0010
,
1000
0000
0000
0000
1001
0000
0000
0000
1000
0100
1000
0100
1000
0000
0000
0000
,
0001
0100
0010
1000
0100
0010
0001
0000
,
1000
0000
0000
0010
0100
0100
0001
0001
,
0000
0000
0010
0000
0001
0000
0000
0000
1000
0001
0010
0100
1000
0001
1000
0001
,
1000
1000
0010
0010
0100
0001
0000
1000
,
0001
0001
0010
0010
0100
1000
0001
0000
,
0100
0000
0010
0001
0010
0001
0000
1000
,
0100
0000
0000
0000
0000
0000
0001
0000
1000
0100
1000
0000
0001
0100
0010
1000
,
0001
0000
0010
0010
0100
1000
0000
0001
,
1000
1000
0010
0010
0100
0001
1000
0000
,
0100
0000
0010
1000
0010
1000
0000
0001
,
0100
0000
0000
0000
0000
0000
1000
0000
0001
0100
0001
0000
1000
0100
0010
0001
,
2000
0100
0000
0100
,
0000
0010
0000
0010
,
3001
0100
0010
0001
0010
1000
0001
0000
,
2000
0000
0000
0000
0100
0000
0000
0000
3001
0100
0010
1000
0001
1000
0001
1000
,
0002
0000
0000
0000
,
0000
0000
0000
0000
,
2003
0000
0000
0000
,
0000
0000
0000
0000
,
3001
0000
0000
0000
,
1000
0000
0000
0100
0010
0001
0000
1000
,
0001
0100
1000
0100
0001
0010
0001
0000
,
0001
0000
0000
0000
1000
0010
1000
0010
1000
0000
0000
0000
0001
0000
0000
0000
,
0000
2000
0000
0000
0000
0000
3000
0000
,
0001
0100
0001
0100
0001
0000
1000
0000
0100
0000
1000
0000
0000
0000
0001
0000
,
1000
0000
0000
0000
0100
0100
0010
0000
,
0010
0000
0000
0000
0001
1000
0001
1000
0001
0000
0000
0000
0001
0000
0000
0000
,
2001
0001
0001
0001
,
3001
1000
0010
0001
0010
0000
0100
1000
,
0100
0000
0010
0001
0010
0000
1000
0001
,
1000
0100
0001
0100
0010
0000
1000
0010
,
0100
0000
0000
0000
1000
0000
0001
0000
0100
0001
0000
0000
1000
0100
0000
0000
,
1000
0001
0100
1000
0100
0000
0010
0001
,
0010
0000
0100
1000
0100
0000
0001
1000
,
0001
0010
1000
0001
0100
0000
1000
0100
,
0010
0000
0000
0000
0001
0000
1000
0000
0010
0000
0100
0000
0001
1000
0001
1000
,
0001
0000
0000
0010
0000
0100
0000
0000
,
1000
0000
0000
0001
0100
0100
0100
0000
,
0001
0010
1000
0001
1000
0010
0001
0000
,
1000
0000
1010
0000
0000
0001
0001
0001
,
1000
0000
0000
0100
0010
0000
0010
0000
,
0001
0100
1000
0100
0001
0010
0001
0000
,
1000
0000
0001
0000
0000
0010
0100
0000
,
0001
0000
0000
0000
0100
0000
0000
0000
1000
0100
1000
0100
1000
0100
1000
0100
,
1000
0000
1001
0000
1000
0100
0010
0000
,
0001
0100
0010
0001
0010
1000
0001
0000
,
0010
0000
0000
0000
0010
0000
0000
0000
0010
0100
0010
0100
0010
0000
0000
0000
,
0001
0000
0000
0000
1000
0000
0020
0000
0100
0000
0000
0000
0100
0030
0001
1000
,
0010
0000
0000
0000
0100
0001
0100
0001
0100
0000
1000
0000
0100
0000
0000
0000
,
0001
0100
0010
1000
0100
0010
0001
0000
,
0100
0000
0000
0000
0100
0000
0000
0000
0100
0001
0100
0001
0100
0000
0000
0000
,
0010
0000
0000
0000
0100
0000
0001
0000
1000
0100
0010
0001
1000
0001
1000
0001
,
2000
0000
0000
0000
,
0000
0000
0000
0000
,
3001
0010
0100
1000
0100
0010
0001
0000
,
2000
0000
0000
0000
,
3200
0000
0000
0000
,
0000
0000
0000
0000
,
0320
0000
0000
0000
,
0000
0000
0000
0030
,
2002
0000
0000
0000
,
0000
0000
0000
0000
,
3003
0000
0000
0000
;

//--------------- dance-single - Bursts (not judged) ----------------
#NOTES:
     dance-single:
     Bursts (not judged):
     Edit:
     18:
     0,0,0,0,0:
0000
0000
0000
0000
,
0000
0000
0000
0000
,
0000
0000
0000
0000
,
0000
0000
0000
0000
,
0000
0000
0000
0000
,
0000
0000
0000
0000
,
0000
0000
0000
0000
,
0000
0000
0000
0000
0000
0000
0000
0000
0000
0000
0000
0000
0000
0000
0000
0000
0000
0000
0000
0000
0000
1000
0001
1000
,
0001
0000
0000
0100
0000
0000
0010
0000
0000
0010
0000
0000
0000
0000
0000
1000
0001
1000
0001
0000
0000
0000
0000
0000
,
0010
0000
0100
0000
1000
0100
0001
0100
1000
0000
0000
0000
0001
0000
0000
0000
,
0100
0000
0000
0010
1000
0010
1000
0000
0000
0001
0000
0000
0010
0000
0000
0100
1000
0100
1000
0000
0000
0000
0000
0000
,
0001
0000
0000
0000
0000
0000
1001
0000
0000
0100
0000
0000
1000
0001
1000
0001
0000
0000
0100
0010
0100
0010
0000
0000
,
1000
0000
0100
0000
1000
0000
0100
0000
0000
0000
0000
0000
0010
0000
0001
0000
0010
0000
0001
0000
0000
0000
0000
0000
1000
0000
0010
0000
0100
0000
0001
0000
0000
0100
0000
0000
0001
0000
0000
0000
0000
0000
0000
0000
0000
0000
0000
0000
,
1000
0000
0000
0000
0000
0000
0000
0000
0000
0001
0100
0001
0100
0000
0000
0000
0000
0000
0001
0000
0000
0000
0000
0000
,
1000
0000
0000
0000
0000
0000
0100
0000
0000
0010
0001
0010
0001
0000
0000
0001
0000
0000
0100
0000
0000
0010
0000
0000
,
0000
0000
0000
0000
0000
0000
1000
0000
0010
0000
1000
0000
0010
0000
0000
0000
0000
0000
0000
0000
0000
0000
0000
0000
1000
0000
0000
0100
0000
0000
0010
0000
0000
0001
0000
0000
0100
0000
0000
0010
0000
0000
0100
0000
0000
0010
0000
0000
,
1000
0000
0000
0000
0000
0000
0001
0000
0000
0000
0000
0000
0100
0000
0000
0001
0100
0001
0100
0000
0000
0010
0000
0000
,
1000
0000
0000
0100
1000
0100
1000
0000
0000
0000
0000
0000
0000
0000
0000
1000
0000
0000
0010
0000
0000
0001
0000
0000
,
0010
0000
0100
0000
0010
0000
0100
0000
0000
0000
0000
0000
0001
0000
0100
0000
0001
0000
0100
0000
0000
0000
0000
0000
0001
0000
0010
0000
0100
0000
1000
0000
0000
0100
0000
0000
0010
0000
0000
0000
0000
0000
0000
0000
0000
0000
0000
0000
,
0100
0000
0000
0000
0000
0000
1000
0000
0000
0001
1000
0001
1000
0001
1000
0001
1000
0001
1000
0001
1000
0001
1000
0001
,
0100
0000
0000
0000
0000
0000
0000
0000
0000
0000
0000
0000
0010
0000
0000
0001
0000
0000
0010
0000
0000
1000
0000
0000
0001
0000
0000
0000
0000
0000
0010
0000
0001
0000
0010
0000
0001
0000
0000
0000
0000
0000
1000
0000
0000
0000
0000
0000
,
0010
0000
0000
0100
0001
0100
0001
0000
0000
0000
0000
0000
1000
0000
0000
0010
0000
0000
0001
0000
0000
1000
0000
0000
,
0100
0000
0001
0000
0100
0000
0001
0000
0000
0000
0000
0000
1000
0000
0100
0000
1000
0000
0100
0000
0000
0000
0000
0000
1000
0000
0010
0000
0100
0000
0001
0000
0000
0010
0000
0000
0001
0000
0000
0000
0000
0000
0000
0000
0000
0000
0000
0000
,
1000
0000
0000
0000
1001
0000
0001
0000
1000
0100
0010
1000
0001
0100
0010
0001
,
2000
0000
0010
0000
0000
0010
0010
0000
,
0010
0000
0010
0000
0000
0010
0010
0000
,
3001
0010
0100
1000
0100
0010
0002
0000
,
0010
0000
0000
0000
0010
0000
0000
0000
1003
0010
0100
1000
0100
0001
0010
0100
,
2000
0000
0000
0000
,
0000
0000
0000
0000
,
3002
0000
0000
0000
,
0000
0000
0000
0000
,
1003
0000
0000
0000
,
0100
0000
0000
0000
0000
0000
1000
0000
0000
0001
0100
0010
0100
0000
0000
0100
0000
0000
0000
0000
0000
0010
1000
0001
,
0010
0000
0000
0000
0000
0000
0100
0000
0000
0000
0000
0000
0001
0000
0000
0001
0000
0000
0100
1000
0100
0010
0000
0000
,
0001
0000
0010
0000
0100
0000
1000
0000
0000
0000
0000
0000
0001
0000
0100
0000
1000
0000
0100
0000
0000
0010
0000
0000
1000
0000
0000
0000
0000
0000
0000
0000
0000
0000
0000
0000
0001
0000
0000
0000
0000
0000
0000
0000
0000
0000
0000
0000
,
0000
0000
0000
1000
0001
1000
0001
1000
0001
1000
0001
1000
0001
1000
0001
1000
0001
1000
0001
0000
0000
0000
0000
0000
,
1000
0000
0000
0010
0000
0000
0001
0000
0000
1000
0000
0000
0100
0000
0000
0000
0000
0000
0001
0000
0100
0000
0010
0000
1000
0000
0000
0000
0000
0000
1000
0000
0000
0000
0000
0000
0000
0000
0000
0000
0000
0000
0010
0000
0100
0000
0001
0000
,
1000
0000
0000
0000
0000
0000
0000
0000
0000
0000
0000
0000
0001
0000
0000
0001
0000
0000
0100
0010
0100
0001
0000
0000
,
1000
0000
0100
0000
1000
0000
0001
0000
0000
0000
0000
0000
1000
0000
0010
0000
0001
0000
0010
0000
0000
1000
0000
0000
0001
0000
0000
0000
0000
0000
0000
0000
0000
0000
0000
0000
1000
0000
0000
0000
0000
0000
0000
0000
0000
0000
0000
0000
,
1000
0001
1000
0001
1000
0001
1000
0001
,
1000
0010
0100
1000
0100
0001
0010
1000
,
0010
0000
0100
0001
0100
1000
0010
0100
,
0001
0010
1000
0010
0100
1000
0010
0001
,
0010
0000
0000
0000
0100
0000
1000
0000
0100
0001
1000
0000
0100
1000
0001
0000
,
1000
0100
0010
1000
0010
0001
0100
1000
,
0100
0000
0010
0001
0010
1000
0100
0010
,
0001
0100
1000
0100
0010
1000
0100
0001
,
0100
0000
0000
0000
0010
0000
1000
0000
0010
0000
0001
0000
0100
0010
0100
0010
,
1000
0000
0000
0100
0100
1000
0001
0000
,
0100
0000
0000
0000
0000
0000
0010
0000
0000
1000
0001
0010
0001
0000
0000
0100
0000
0000
0001
0000
0000
0010
0000
0000
,
0100
0000
0000
0000
0000
0000
0010
0000
0100
0000
1000
0000
0100
0000
0000
0000
0000
0000
0000
0000
0000
0000
0000
0000
0000
0000
0000
0000
0000
0000
1000
0000
0000
0000
0000
0000
0010
0000
0000
0001
0000
0000
1000
0000
0000
0100
0000
0000
,
0001
0000
0000
0000
0000
0000
0100
0000
0000
0010
0000
0000
0000
0000
0000
0010
1000
0010
0100
0001
0100
0010
1000
0010
,
1000
0000
0000
0100
0100
0010
0001
0000
,
0100
0000
0000
0000
0000
0000
0000
0000
0000
0000
0100
0000
1000
0100
0001
1000
,
0100
0000
0000
0000
0000
0000
0010
0000
0000
0000
0000
0000
0000
0000
0000
0001
0010
0100
1000
0000
0000
0000
0000
0000
,
0001
0000
0000
0000
1000
0000
0000
0000
0010
0001
0010
1000
0100
0001
0100
1000
,
0001
0000
0000
0000
0000
0000
1001
0000
0000
0000
0000
0000
0001
0000
0000
0100
0001
1000
0100
0000
0000
0010
0000
0000
,
0100
0000
0000
0001
0100
1000
0001
0000
0000
0000
0000
0000
0100
0000
0000
1000
0000
0000
0100
0000
0000
0001
0000
0000
,
1000
0000
0010
0000
0100
0000
0010
0000
0000
0000
0000
0000
0001
0000
1000
0000
0100
0000
0010
0000
0000
0000
0000
0000
0100
0000
0001
0000
1000
0000
0100
0000
0000
0010
0000
0000
0001
0000
0000
0000
0000
0000
0000
0000
0000
0000
0000
0000
,
0100
0000
0000
0000
0000
0000
0001
0000
0000
1000
0001
1000
0001
1000
0001
1000
0001
1000
0001
1000
0001
1000
0001
1000
,
0010
0000
0000
0000
0000
0000
0000
0000
0000
0000
0000
0000
0001
0000
0000
1000
0000
0000
0100
0000
0000
1000
0000
0000
0001
0000
0000
0000
0000
0000
0010
0000
1000
0000
0001
0000
0010
0000
0000
0000
0000
0000
0100
0000
0000
0000
0000
0000
,
0001
0000
0000
0100
1000
0100
0010
0000
0000
0000
0000
0000
0001
0000
0000
1000
0000
0000
0010
0000
0000
0010
0000
0000
,
1000
0000
0100
0000
0010
0000
0100
0000
0000
0000
0000
0000
0001
0000
1000
0000
0010
0000
0100
0000
0000
0000
0000
0000
0010
0000
0001
0000
1000
0000
0010
0000
0000
0100
0000
0000
0001
0000
0000
0000
0000
0000
0000
0000
0000
0000
0000
0000
,
0010
0000
0000
0000
1001
0000
0001
0000
1000
0010
0100
1000
0001
0010
0100
0001
,
2000
0000
0000
0000
,
0000
0000
0000
0000
,
3001
0010
0100
1000
0100
0010
0001
0000
,
2000
0000
0000
0000
,
3200
0000
0000
0000
,
0000
0000
0000
0000
,
0320
0000
0000
0000
,
0000
0000
0000
0030
,
2002
0000
0000
0000
,
0000
0000
0000
0000
,
3003
0000
0000
0000
;

//--------------- dance-double - Peter ----------------
#NOTES:
     dance-double:
     Peter:
     Challenge:
     14:
     0,0,0,0,0:
00000000
00000000
00000000
00000000
,
00000000
00000000
00000000
00000000
,
00000000
00000000
00000000
00000000
,
00000000
00000000
00000000
00000000
,
00000000
00000000
00000000
00000000
,
00000000
00000000
00000000
00000000
,
00000000
00000000
00000000
00000000
,
00000000
00000000
00000000
00000000
,
00011000
00000000
00001000
00000000
00000000
01000000
00100000
00000000
,
10000000
01000000
00100000
00010000
00001000
00000100
00000010
00000000
,
00000000
00000001
00000100
00000010
00000000
00000001
00001000
00000000
,
00010000
00000000
00001000
00000100
00001000
00010000
01000000
00010000
,
00001000
00000000
00000000
00000000
00100000
00000000
00000000
00000000
00010000
01000000
00100000
10000000
01000000
00000000
00000000
00000000
,
10000000
01000000
00100000
00010000
00001000
00000100
00000010
00000000
,
00000001
00000000
00000000
00000100
00001000
00010000
00001000
00000010
,
00000000
00000000
00001000
00000000
00010000
00000000
00000000
00000000
00100000
10000000
00100000
10000000
00010000
10000000
00010000
10000000
,
01000000
00000000
00100000
00100000
00001000
00001000
00000000
00010000
,
00100000
00100000
00010000
00010000
00001000
00001000
00000100
00000000
,
00001000
00000000
00010000
00000100
00001000
00010000
00000000
00000010
,
00000100
00000000
00000000
00001000
00000001
00000010
00001000
00010000
,
01000000
00000000
10000000
10000000
00100000
00100000
00000000
00010000
,
00001000
00001000
00000010
00000010
00001000
00001000
00010000
00000000
,
00000010
00000000
00000100
00001000
00010000
00001000
00000000
01000000
,
00100000
00000000
00000000
10000000
01000000
00010000
00001000
00000010
,
00002000
00100000
10000000
01000000
,
00023000
00000100
00000001
00000010
,
00030001
00000010
00000100
00001000
00010000
00100000
01000000
00000000
,
10000000
00000000
00000000
00000000
00100000
00000000
00010000
00000000
00001000
00010000
00000100
00010000
00001000
00010000
00000100
00010000
,
00002000
00000000
00000000
00000000
,
00000000
00000000
00000000
00000000
,
00023000
00000000
00000000
00000000
,
00000000
00000000
00000000
00000000
00031000
00000100
00000010
00000000
,
00010000
00000000
00000000
00000000
,
00001000
00000000
00000000
00100000
01000000
01000000
00000000
00000000
,
10000000
01000000
00100000
00010000
00001000
00000100
00000010
00000000
,
00000001
00000000
00000000
00000000
00000100
00000001
00000100
00000001
00000100
00000000
00000000
00000000
00001000
00000000
00000000
00000000
,
00000000
00020000
00000000
00000000
00000000
00000000
00030000
00000000
,
00100000
10000000
00100000
10000000
00100000
00000000
01000000
00000000
00001000
00000000
00010000
00000000
00000000
00000000
00000010
00000000
,
00000100
00000000
00001000
00000000
01000000
00100000
00010000
00000000
,
00100000
00000000
00000000
00000000
01000000
00010000
01000000
00010000
01000000
00000000
00000000
00000000
00001000
00000000
00000000
00000000
,
00000200
00000000
00000000
00000000
,
00000301
00000010
00001000
00010000
00100000
00000000
00010000
00001000
,
00000100
00000000
00001000
00010000
01000000
00000000
10000000
00010000
,
10000000
00100000
00010000
00001000
00000010
00000000
00001000
00010000
,
01000000
00000000
00000000
00000000
00010000
00000000
00001000
00000000
00000100
00001000
00000000
00000000
00010000
00100000
00000000
00000000
,
10000000
01000000
00010000
00001000
00000100
00000000
00001000
00010000
,
00100000
00000000
00010000
00001000
00000010
00000000
00000001
00001000
,
00000001
00000100
00001000
00010000
01000000
00000000
00010000
00001000
,
00000010
00000000
00000000
00000000
00001000
00000000
00010000
00000000
00100000
00000000
10000000
00000000
00010000
00100000
00010000
00100000
,
00001000
00000000
00000000
00000000
00000000
00000010
00000000
00000000
,
00000100
00000000
00000000
00010000
00000000
01000000
10000000
00100000
,
10000000
00000000
01000000
00000000
00100000
00000000
00010000
00000000
00001000
00000000
00000100
00000000
00000010
00000001
00000010
00000001
,
00000010
00000000
00001000
00000000
00000000
00100000
01000000
00100000
,
00000010
00000000
00000000
00000000
00000000
00001000
00000000
00000000
,
00000001
00000000
00000010
00000000
00000100
00000000
00001000
00000000
00010000
00000000
00100000
00000000
01000000
10000000
01000000
10000000
,
01000000
00000000
00010000
00000000
00000000
00000100
00000000
00000000
,
00000001
00000000
00000000
00000000
00000100
00000000
00000000
00000000
00001000
00000010
00001000
00000010
00010000
00001000
00010000
00001000
,
00010000
00000000
00001000
00000000
00000000
01000000
00100000
00000000
,
10000000
01000000
00100000
00010000
00001000
00000100
00000010
00000000
,
00000001
00000000
00000000
00000000
00000100
00000000
00000000
00000000
00000010
00010000
00001000
01000000
00001000
00000000
00000000
00000000
,
00010000
00000000
00001000
00000010
00001000
00010000
00100000
00010000
,
00001000
00000000
00000000
00000000
00100000
00010000
01000000
00100000
10000000
00000000
01000000
00000000
00010000
00000000
01000000
00000000
,
10000000
01000000
00100000
00010000
00001000
00000100
00000010
00000000
,
00000001
00000000
00000000
00000000
00000100
00000000
00000000
00000000
00001000
00100000
00010000
00100000
00001000
00000000
00000000
00000000
,
00000100
00000000
00000000
00000000
00001000
00000000
01000000
00000000
00100000
10000000
00010000
00100000
00010000
10000000
00100000
01000000
,
00020000
00000000
00000000
00000000
,
00000000
00000000
00000000
00000000
,
10030000
01000000
00100000
00010000
00001000
00000100
00000010
00000000
,
00000002
00000000
00000000
00000000
,
00002003
00000000
00000000
00000000
,
00000000
00000000
00000000
00000000
,
00023000
00000000
00000000
00000000
,
00000000
00000000
00000000
00000000
10030000
00001000
00010000
00000000
,
00022000
00000000
00000000
00000000
,
00000000
00000000
00000000
00000000
,
00033000
00000000
00000000
00000000
;
