#TITLE:AM-3P;
#SUBTITLE:;
#ARTIST:KTz;
#TITLETRANSLIT:;
#SUBTITLETRANSLIT:;
#ARTISTTRANSLIT:;
#GENRE:;
#CREDIT:;
#MUSIC:am3p.ogg;
#BANNER:am3pbn.png;
#BACKGROUND:am3pbg.png;
#CDTITLE:;
#SAMPLESTART:44.299;
#SAMPLELENGTH:14.758;
#SELECTABLE:YES;
#OFFSET:-0.026;
#BPMS:0.000=130.100;
#STOPS:;
#BGCHANGES:;
#FGCHANGES:;

//--------------- dance-single - ----------------
#NOTES:
     dance-single:
     :
     Hard:
     13:
     0,0,0,0,0:
0000
0000
0000
0000
,
0000
0000
0000
0000
,
0000
0000
0000
0000
,
0000
0000
0000
0000
0000
0000
0000
0000
0000
0000
0000
0000
0000
0000
0000
0000
0000
0000
0000
0000
0000
0000
0000
0000
0000
0000
0000
0000
0000
0000
0000
0000
0000
0000
0000
0000
0000
0000
0000
0000
0000
0000
0000
0000
0000
0000
0000
0000
0000
0000
0000
0000
0000
0000
0000
0000
0000
0000
0000
0000
0000
0000
0000
0000
0000
0000
0000
0000
0000
0000
0000
0000
0000
0000
0000
0000
0000
0000
0000
0000
0000
0000
0000
0000
0000
0000
0000
0000
0000
0000
0000
0001
0000
0000
0000
0000
,
0010
0100
1000
0010
0100
0001
0010
0001
,
2000
0100
3002
0100
2003
0010
3001
1000
,
0001
0000
1000
0000
0100
00M0
0100
0000
0001
0000
1000
0000
0010
0M00
0020
0000
,
0100
0000
0032
0000
0100
0000
2003
0000
3100
0000
0010
0000
0001
1000
0010
0200
,
0001
031M
1000
0100
0001
0001
0100
1000
,
0010
0000
0100
0000
0001
0000
0100
0000
0010
1000
0001
1000
0100
0000
0010
0200
,
1000
M310
0001
0100
1000
1000
0100
0001
,
0010
0000
0100
0000
1000
0000
0010
0000
0100
0010
0000
0010
0100
0000
0001
0020
,
0100
0M31
1000
0010
0001
0001
0010
1000
,
0100
0000
0010
0000
0001
0000
0010
0000
0100
1000
0001
1000
0010
0000
0100
0020
,
1000
M130
0001
0010
1000
1000
0010
0001
,
2000
0000
0000
3002
0000
0000
2003
0000
0000
3002
0000
0000
2003
3000
2000
3000
,
0100
0000
0100
1000
0000
1000
0100
0000
00M0
0100
0001
0000
0010
0000
0001
0000
,
0100
0000
0100
0001
0000
0001
0100
0000
00M0
0100
1000
0000
0010
0000
1000
0000
,
0100
0000
0100
1000
0000
1000
0100
0000
00M0
0100
0001
0000
0010
0000
0001
0000
,
1000
0100
00M0
0100
0001
0000
1000
0010
0M00
0010
0001
0000
0200
0000
0000
0000
,
0310
0000
0010
1000
0000
1000
0010
0000
0M00
0010
0001
0000
0100
0000
0001
0000
,
0010
0000
0010
0001
0000
0001
0010
0000
0M00
0010
1000
0000
0100
0000
1000
0000
,
0010
0000
0010
1000
0000
1000
0010
0000
0M00
0010
0001
0000
0100
0000
0001
0000
,
0040
0430
4300
3001
,
2000
0000
0000
3000
0000
0000
0001
0000
0000
2000
0000
0000
3000
0000
0000
0100
0000
0000
2000
0000
0000
3000
0000
0000
0001
0000
0000
2000
0000
0000
3000
0000
0000
0000
0000
0000
0200
0000
0000
0300
00M0
0000
0200
0000
0000
0300
0000
0000
,
0002
0003
0100
0002
0003
0100
0020
0030
1000
0020
0030
1000
0020
0M30
0020
0030
,
0002
0000
0000
0003
0000
0000
1000
0000
0000
0002
0000
0000
0003
0000
0000
0100
0000
0000
0002
0000
0000
0003
0000
0000
1000
0000
0000
0002
0000
0000
0003
0000
0000
0000
0000
0000
0200
0000
0000
0300
00M0
0000
0200
0000
0000
0300
0000
0000
,
2000
3000
0100
2000
3000
0100
0020
0030
0001
0020
0030
0001
0040
0000
0000
0000
,
0032
0000
0000
0003
0000
0000
1000
0000
0000
0002
0000
0000
0003
0000
0000
0010
0000
0000
0002
0000
0000
0003
0000
0000
1000
0000
0000
0002
0000
0000
0003
0000
0000
0000
0000
0000
0020
0000
0000
0030
0M00
0000
0020
0000
0000
0030
0000
0000
,
2000
3000
0010
2000
3000
0010
0200
0300
0001
0200
0300
0001
0200
03M0
0200
0300
,
2000
0000
0000
3000
0000
0000
0001
0000
0000
2000
0000
0000
3000
0000
0000
0010
0000
0000
2000
0000
0000
3000
0000
0000
0001
0000
0000
2000
0000
0000
3000
0000
0000
0000
0000
0000
0020
0000
0000
0030
0M00
0000
0020
0000
0000
0030
0000
0000
,
0002
0003
0010
0002
0003
0010
0200
0300
1000
0200
0300
1000
0020
0000
0130
0000
,
0002
0010
0103
0020
1000
0130
0001
0010
,
0200
0000
0000
0000
0000
0000
0000
0000
0000
0000
0000
0000
1000
0000
0000
0000
0000
0000
0000
0000
0000
0000
0000
0000
1000
0000
0000
0000
0000
0000
0000
0000
0000
0000
0000
0000
0310
0000
0000
0000
0000
0000
0000
0000
0000
0000
0000
0000
0001
0000
0000
0000
0000
0000
0000
0000
0000
0000
0000
0000
2000
0000
0000
0000
0000
0000
0000
0100
0000
0000
0000
0000
0000
0000
0000
0000
0000
0000
3010
0000
0000
0000
0000
0000
0000
0000
0000
0000
0000
0000
0000
0000
0000
0000
0000
0000
,
2000
0010
3100
0020
0001
0130
1000
0010
,
0200
0001
0001
0310
1000
0100
0010
0001
,
2000
0000
0010
0000
3002
0000
0100
0000
2003
0000
0001
0000
3100
00M0
0100
0000
,
0001
0000
1000
0000
0001
0020
0000
0031
0000
1000
0001
0000
0010
000M
0010
0000
,
2000
0000
0100
0000
3002
0000
0100
0000
2003
0000
0001
0000
3100
00M0
0100
0000
,
0001
0000
0010
0000
0100
1000
0000
1000
0001
0000
0100
0010
0200
0000
0000
0000
,
0001
031M
2000
0010
3002
0010
1003
0001
,
0010
0000
0100
0010
0002
1000
0000
0103
0000
0010
1000
0000
0100
0000
0000
0000
,
0012
0103
0000
2010
3100
0000
0102
0013
,
0000
2100
3010
0000
0010
1000
1001
0101
;

//--------------- dance-single - ----------------
#NOTES:
     dance-single:
     :
     Challenge:
     16:
     0,0,0,0,0:
0000
0000
0000
0000
,
0000
0000
0000
0000
,
0000
0000
0000
0000
,
0000
0000
0000
0000
0000
0000
0000
0000
0000
0000
0000
0000
0000
0000
0000
0000
0000
0000
0000
0000
0000
0000
0000
0000
0000
0000
0000
0000
0000
0000
0000
0000
0000
0000
0000
0000
0000
0000
0000
0000
0000
0000
0000
0000
0000
0000
0000
0000
0000
0000
0000
0000
0000
0000
0000
0000
0000
0000
0000
0000
0000
0000
0000
0000
0000
0000
0000
0000
0000
0000
0000
0000
1000
0000
0000
0000
0000
0000
0000
0000
0001
0000
0000
0000
0100
0000
0000
0000
0000
0000
0000
0001
0000
0000
0000
0000
,
0010
0000
0000
0000
0000
0000
0000
0000
0000
0000
0000
0000
0100
0000
0000
0000
0000
0000
0000
0000
0000
0000
0000
0000
1000
0000
0000
0000
0000
0000
0000
0000
0000
0000
0000
0000
0010
0000
0000
0000
0000
0000
0000
0100
0000
0000
0000
0000
0001
0000
0000
0000
0000
0000
0000
0000
0000
0000
0000
0000
0010
0000
0000
0000
0000
0000
0000
0000
0000
0000
0000
0000
0001
0000
0000
0000
0000
0000
0000
0000
0000
0000
0000
0000
1000
0000
0000
0000
0000
0000
0000
0000
0000
0000
0000
0000
,
0010
0000
0000
0000
0000
0000
0000
0000
0000
0000
0000
0000
0100
0000
0000
0000
0000
0000
0000
0000
0000
0000
0000
0000
0001
0000
0000
0000
0000
0000
0000
0000
0000
0000
0000
0000
0010
0000
0000
0000
0000
0000
0000
0100
0000
0000
0000
0000
1000
0000
0000
0000
0000
0000
0000
0000
0100
0000
0000
0000
0010
0000
0000
0000
0000
0000
0000
0000
0000
0000
0000
0000
0001
0000
0000
0000
0000
0000
0000
0000
0000
0000
0000
0000
1000
0000
0000
0000
0000
0000
0000
0000
0000
0000
0000
0000
,
0001
0000
1000
0000
0100
00M0
0100
0000
0001
0000
1000
0000
0010
0M00
0020
0000
,
0100
0000
0032
0000
0100
0000
2003
0000
3100
0000
0010
0000
0001
1000
0010
0200
,
0001
0000
0000
0000
0000
0000
0000
0000
0000
0300
0000
0000
010M
0000
0000
0000
0000
0000
0000
0000
0000
0000
0000
0000
1000
0000
0000
0000
0000
0000
0000
0000
0000
0000
0000
0000
0010
0000
0000
0000
0000
0000
0000
0100
0000
0000
0000
0000
0001
0000
0000
0000
0000
0000
0000
0000
1000
0000
0000
0000
0001
0000
0000
0000
0000
0000
0000
0010
0000
0000
0000
0000
0100
0000
0000
0000
0000
0000
0000
0000
0000
0000
0000
0000
1000
0000
0000
0000
0000
0000
0000
0000
0000
0000
0000
0000
,
0010
0000
0000
0000
0000
0000
0000
0000
0000
0000
0000
0000
1000
0000
0000
0000
0000
0000
0000
0000
0000
0000
0000
0000
0100
0000
0000
0000
0000
0000
0000
0000
0000
0000
0000
0000
0010
0000
0000
0000
0000
0000
0000
0001
0000
0000
0000
0000
0100
0000
0000
0000
0000
0000
0010
0000
0000
0000
0000
0000
1000
0000
0000
0000
0000
0000
0010
0000
0000
0000
0000
0000
0100
0000
0000
0000
0000
0000
0001
0000
0000
0000
0000
0000
0010
0000
0000
0000
0000
0000
0200
0000
0000
0000
0000
0000
,
1000
0000
0000
0000
0000
0000
0000
0000
0000
0300
0000
0000
M100
0000
0000
0000
0000
0000
0000
0000
0000
0000
0000
0000
0001
0000
0000
0000
0000
0000
0000
0000
0000
0000
0000
0000
0010
0000
0000
0000
0000
0000
0000
0100
0000
0000
0000
0000
1000
0000
0000
0000
0000
0000
0000
0000
0001
0000
0000
0000
1000
0000
0000
0000
0000
0000
0000
0010
0000
0000
0000
0000
0100
0000
0000
0000
0000
0000
0000
0000
0000
0000
0000
0000
0001
0000
0000
0000
0000
0000
0000
0000
0000
0000
0000
0000
,
0010
0000
0000
0000
0000
0000
0000
0000
0000
0000
0000
0000
0001
0000
0000
0000
0000
0000
0000
0000
0000
0000
0000
0000
0100
0000
0000
0000
0000
0000
0000
0000
0000
0000
0000
0000
0010
0000
0000
0000
0000
0000
0000
1000
0000
0000
0000
0000
0002
0000
0000
0000
0000
0000
0100
0000
0000
0000
0000
0000
0000
0000
0000
0000
0000
0000
1000
0000
0000
0000
0000
0000
0000
0000
0000
0000
0000
0000
0013
0000
0000
0000
0000
0000
0100
0000
0000
0000
0000
0000
0020
0000
0000
0000
0000
0000
,
0001
0000
0000
0000
0000
0000
0000
0000
0000
0030
0000
0000
001M
0000
0000
0000
0000
0000
0000
0000
0000
0000
0000
0000
1000
0000
0000
0000
0000
0000
0000
0000
0000
0000
0000
0000
0100
0000
0000
0000
0000
0000
0000
0010
0000
0000
0000
0000
0001
0000
0000
0000
0000
0000
0000
0000
1000
0000
0000
0000
0001
0000
0000
0000
0000
0000
0000
0100
0000
0000
0000
0000
0010
0000
0000
0000
0000
0000
0000
0000
0000
0000
0000
0000
1000
0000
0000
0000
0000
0000
0000
0000
0000
0000
0000
0000
,
0100
0000
0000
0000
0000
0000
0000
0000
0000
0000
0000
0000
1000
0000
0000
0000
0000
0000
0000
0000
0000
0000
0000
0000
0010
0000
0000
0000
0000
0000
0000
0000
0000
0000
0000
0000
0100
0000
0000
0000
0000
0000
0000
0001
0000
0000
0000
0000
0010
0000
0000
0000
0000
0000
0100
0000
0000
0000
0000
0000
1000
0000
0000
0000
0000
0000
0100
0000
0000
0000
0000
0000
0010
0000
0000
0000
0000
0000
0001
0000
0000
0000
0000
0000
0100
0000
0000
0000
0000
0000
0020
0000
0000
0000
0000
0000
,
1000
0000
0000
0000
0000
0000
0000
0000
0000
0030
0000
0000
M010
0000
0000
0000
0000
0000
0000
0000
0000
0000
0000
0000
0001
0000
0000
0000
0000
0000
0000
0000
0000
0000
0000
0000
0100
0000
0000
0000
0000
0000
0000
0010
0000
0000
0000
0000
1000
0000
0000
0000
0000
0000
0000
0000
0001
0000
0000
0000
1000
0000
0000
0000
0000
0000
0000
0100
0000
0000
0000
0000
0010
0000
0000
0000
0000
0000
0000
0000
0000
0000
0000
0000
0001
0000
0000
0000
0000
0000
0000
0000
0000
0000
0000
0000
,
0100
00M0
0100
1000
0000
1000
0010
0M00
0010
0001
0000
0001
0100
0000
0010
0000
,
1000
0100
1000
0001
0100
0001
1000
0100
1000
0010
0100
0001
0010
0001
0100
0001
,
1000
0010
1000
0001
0010
0001
1000
0010
1000
0100
0010
0001
0100
0001
0010
0001
,
1000
0100
1000
0001
0100
0001
1000
0100
1000
0010
0100
0001
0010
0001
0100
0001
,
0010
0100
0000
0100
1000
0000
1000
0010
0000
0010
0200
0000
0302
0000
2003
0000
,
3001
0100
0001
1000
0100
1000
0001
0100
0001
0010
0100
1000
0010
1000
0100
1000
,
0001
0010
0001
1000
0010
1000
0001
0010
0001
0100
0010
1000
0100
1000
0010
1000
,
0001
0100
0001
1000
0100
1000
0001
0100
0001
0010
0100
1000
0010
1000
0100
1000
,
0040
0430
0304
1003
,
0002
0000
0000
0000
0003
0000
0000
0000
0000
0000
0000
0000
0100
0000
0000
0000
0000
0000
0000
0020
0000
0000
0000
0000
1030
0000
0000
0000
0000
0000
0000
0000
0000
0000
0000
0000
0020
0000
0000
0000
0030
0000
0000
0000
0000
0000
0000
0000
0100
0000
0000
0000
0000
0000
0020
0000
0000
0000
0000
0000
1030
0000
0000
0000
0000
0000
0000
0000
0000
0000
0000
0000
0200
0000
0000
0000
0300
0000
0000
0000
00M0
0000
0000
0000
0200
0000
0000
0000
0300
0000
0000
0000
0000
0000
0000
0000
,
0002
0000
0000
0000
0003
0000
0000
0000
0000
0000
0000
0000
0010
0000
0000
0000
0000
0000
0000
0200
0000
0000
0000
0000
1300
0000
0000
0000
0000
0000
0000
0000
0000
0000
0000
0000
0020
0000
0000
0000
0030
0000
0000
0000
0000
0000
0000
0000
0100
0000
0000
0000
0000
0000
0020
0000
0000
0000
0000
0000
1030
0000
0000
0000
0000
0000
0000
0000
0000
0000
0000
0000
0002
0000
0000
0000
0003
0000
0000
0000
0000
0000
0000
0000
0002
0000
0000
0000
0003
0000
0000
0000
0000
0000
0000
0000
,
2000
0000
0000
0000
3000
0000
0000
0000
0000
0000
0000
0000
0100
0000
0000
0000
0000
0000
0000
0020
0000
0000
0000
0000
0031
0000
0000
0000
0000
0000
0000
0000
0000
0000
0000
0000
0020
0000
0000
0000
0030
0000
0000
0000
0000
0000
0000
0000
0100
0000
0000
0000
0000
0000
0020
0000
0000
0000
0000
0000
0031
0000
0000
0000
0000
0000
0000
0000
0000
0000
0000
0000
0200
0000
0000
0000
0300
0000
0000
0000
00M0
0000
0000
0000
0200
0000
0000
0000
0300
0000
0000
0000
0000
0000
0000
0000
,
2000
0000
0000
0000
3000
0000
0000
0000
0000
0000
0000
0000
0010
0000
0000
0000
0000
0000
0000
0200
0000
0000
0000
0000
0301
0000
0000
0000
0000
0000
0000
0000
0000
0000
0000
0000
0020
0000
0000
0000
0030
0000
0000
0000
0000
0000
0000
0000
0100
0000
0000
0000
0000
0000
0020
0000
0000
0000
0000
0000
0031
0000
0000
0000
0000
0000
0000
0000
0000
0000
0000
0000
2000
0000
0000
0000
0000
0000
0000
0000
0000
0000
0000
0000
0000
0000
0000
0000
0000
0000
0000
0000
0000
0000
0000
0000
,
3002
0000
0000
0000
0003
0000
0000
0000
0000
0000
0000
0000
0010
0000
0000
0000
0000
0000
0000
0200
0000
0000
0000
0000
1300
0000
0000
0000
0000
0000
0000
0000
0000
0000
0000
0000
0200
0000
0000
0000
0300
0000
0000
0000
0000
0000
0000
0000
0010
0000
0000
0000
0000
0000
0200
0000
0000
0000
0000
0000
1300
0000
0000
0000
0000
0000
0000
0000
0000
0000
0000
0000
0020
0000
0000
0000
0030
0000
0000
0000
0M00
0000
0000
0000
0020
0000
0000
0000
0030
0000
0000
0000
0000
0000
0000
0000
,
0002
0000
0000
0000
0003
0000
0000
0000
0000
0000
0000
0000
0100
0000
0000
0000
0000
0000
0000
0020
0000
0000
0000
0000
1030
0000
0000
0000
0000
0000
0000
0000
0000
0000
0000
0000
0200
0000
0000
0000
0300
0000
0000
0000
0000
0000
0000
0000
0010
0000
0000
0000
0000
0000
0200
0000
0000
0000
0000
0000
1300
0000
0000
0000
0000
0000
0000
0000
0000
0000
0000
0000
0002
0000
0000
0000
0003
0000
0000
0000
0000
0000
0000
0000
0002
0000
0000
0000
0003
0000
0000
0000
0000
0000
0000
0000
,
2000
0000
0000
0000
3000
0000
0000
0000
0000
0000
0000
0000
0010
0000
0000
0000
0000
0000
0000
0200
0000
0000
0000
0000
0301
0000
0000
0000
0000
0000
0000
0000
0000
0000
0000
0000
0200
0000
0000
0000
0300
0000
0000
0000
0000
0000
0000
0000
0010
0000
0000
0000
0000
0000
0200
0000
0000
0000
0000
0000
0301
0000
0000
0000
0000
0000
0000
0000
0000
0000
0000
0000
0020
0000
0000
0000
0030
0000
0000
0000
0M00
0000
0000
0000
0020
0000
0000
0000
0030
0000
0000
0000
0000
0000
0000
0000
,
2000
0000
0000
0000
3000
0000
0000
0000
0000
0000
0000
0000
0100
0000
0000
0000
0000
0000
0000
0020
0000
0000
0000
0000
0031
0000
0000
0000
0000
0000
0000
0000
0000
0000
0000
0000
0200
0000
0000
0000
0300
0000
0000
0000
0000
0000
0000
0000
0010
0000
0000
0000
0000
0000
0200
0000
0000
0000
0000
0000
0301
0000
0000
0000
0000
0000
0000
0000
0000
0000
0000
0000
2000
0000
0000
0000
0000
0000
0000
0000
0000
0000
0000
0000
0000
0000
0000
0000
0000
0000
0000
0000
0000
0000
0000
0000
,
3002
0000
0000
0000
0003
0000
0000
0000
1000
0000
0000
0000
0010
0000
0000
0000
0000
0000
0000
1000
0000
0000
0000
0000
0100
0000
0000
0000
0000
0000
00M0
0000
0000
0000
0000
0000
0100
0000
0000
0000
0000
0000
0000
0001
0000
0000
0000
0000
1000
0000
0000
0000
0000
0000
0000
0000
0001
0000
0000
0000
0010
0000
0000
0000
0000
0000
0M00
0000
0000
0000
0000
0000
0010
0000
0000
0000
0000
0000
0000
0000
1000
0000
0000
0000
0100
0000
0000
0000
0000
0000
0000
1000
0000
0000
0000
0000
,
0000
0000
0000
0000
0000
0000
0001
0000
0000
0000
0000
0000
1000
0000
0000
0000
0000
0000
0001
0000
0000
0000
0000
0000
0100
0000
0000
0000
0000
0000
0000
0000
0001
0000
0000
0000
0010
0000
0000
0000
0000
0000
0000
0000
0000
0000
0000
0000
0100
0000
0000
0000
0000
0000
0000
0000
0000
0000
0000
0000
2000
0000
0000
0000
0000
0000
0000
0100
0000
0000
0000
0000
0000
0000
0000
0000
0000
0000
3010
0000
0000
0000
0000
0000
0000
0000
0000
0000
0000
0000
0000
0000
0000
0000
0000
0000
,
1000
0000
0000
0000
0000
0000
0000
0000
0001
0000
0000
0000
0010
0000
0000
0000
0000
0000
0000
0001
0000
0000
0000
0000
0100
0000
0000
0000
0000
0000
00M0
0000
0000
0000
0000
0000
0100
0000
0000
0000
0000
0000
0000
1000
0000
0000
0000
0000
0001
0000
0000
0000
0000
0000
0000
0000
1000
0000
0000
0000
0010
0000
0000
0000
0000
0000
0M00
0000
0000
0000
0000
0000
0010
0000
0000
0000
0000
0000
0000
0000
0001
0000
0000
0000
0100
0000
0000
0000
0000
0000
0000
0001
0000
0000
0000
0000
,
0000
1000
0001
1000
0100
0000
0010
0001
1000
0001
0100
0010
1000
0100
0010
0001
,
0100
0000
0010
0000
2000
0000
0100
0000
3002
0000
0010
0000
0103
00M0
0100
0000
,
1000
0000
0001
0000
1000
0010
0100
0001
0010
0001
0100
0000
0010
0M00
0010
0000
,
0002
0000
0100
0000
2003
0000
0100
0000
3002
0000
0010
0000
0103
00M0
0100
0000
,
1000
0000
0010
0000
0100
0001
0000
0001
1000
0100
0010
0100
1000
0001
0100
0020
,
1000
0030
M010
0000
0002
0000
0010
0000
2003
0000
0010
0000
3001
0000
0100
0000
,
0010
0000
0100
0010
1000
0100
0010
0100
1000
0010
0100
0000
0001
0000
0010
0000
,
0110
0100
1000
1010
0010
0100
0101
0001
,
0010
0011
0001
1000
0010
1000
1001
0101
;
