#VERSION:0.83;
#TITLE:A.U.T.I.S.M.;
#SUBTITLE:;
#ARTIST:cupcakKe;
#TITLETRANSLIT:;
#SUBTITLETRANSLIT:;
#ARTISTTRANSLIT:;
#GENRE:;
#ORIGIN:;
#CREDIT:;
#BANNER:AUTISM banner.png;
#BACKGROUND:AUTISM bg.png;
#PREVIEWVID:;
#JACKET:AUTISM jk.png;
#CDIMAGE:;
#DISCIMAGE:;
#LYRICSPATH:;
#CDTITLE:;
#MUSIC:AUTISM.ogg;
#OFFSET:0.000000;
#SAMPLESTART:47.710842;
#SAMPLELENGTH:15.000000;
#SELECTABLE:YES;
#DISPLAYBPM:166.000000;
#BPMS:0.000=166.000,
96.000=332.000,
104.000=166.000,
296.000=83.000;
#STOPS:;
#DELAYS:;
#WARPS:;
#TIMESIGNATURES:0.000=4=4;
#TICKCOUNTS:0.000=4;
#COMBOS:0.000=1;
#SPEEDS:0.000=1.000=0.000=0;
#SCROLLS:0.000=1.000,
96.000=0.250,
104.000=1.000;
#FAKES:;
#LABELS:0.000=Song Start;
#BGCHANGES:;
#KEYSOUNDS:;
#ATTACKS:
;

//---------------dance-single - XO- DS- JA- XMOD FL- RH- JU- Mines-----------------
#NOTEDATA:;
#CHARTNAME:;
#STEPSTYPE:dance-single;
#DESCRIPTION:XO- DS- JA- XMOD FL- RH- JU- Mines-;
#CHARTSTYLE:;
#DIFFICULTY:Hard;
#METER:15;
#RADARVALUES:0.618009,1.011983,0.041919,0.209596,0.809041,516.000000,511.000000,5.000000,25.000000,24.000000,0.000000,0.000000,0.000000,0.000000,0.618009,1.011983,0.041919,0.209596,0.809041,516.000000,511.000000,5.000000,25.000000,24.000000,0.000000,0.000000,0.000000,0.000000;
#CREDIT:A Unique Thinking Individual who Strongly Matters;
#DISPLAYBPM:83.000000:166.000000;
#NOTES:
// measure 0
0000
0000
0000
0000
,  // measure 1
0000
0000
0000
0000
,  // measure 2
0000
0000
0000
0000
,  // measure 3
0000
0000
0000
0000
,  // measure 4
0000
0000
0000
0000
,  // measure 5
0000
0000
0000
0000
,  // measure 6
0000
0000
0000
0000
,  // measure 7
0000
0000
0000
0000
,  // measure 8
0000
0000
0000
0000
,  // measure 9
1000
0000
0000
1000
0000
0000
1000
0000
,  // measure 10
0000
1000
0000
0001
1000
1000
0010
1000
,  // measure 11
0001
0000
0000
0001
0000
0000
0001
0000
,  // measure 12
0000
0001
0000
1000
0001
0001
0010
0001
,  // measure 13
1000
0000
0000
0001
0000
0000
1000
0000
,  // measure 14
0100
1000
0000
0001
0100
0010
0100
0100
,  // measure 15
0001
0000
0000
1000
0000
0000
0001
0000
,  // measure 16
0010
0000
0001
0000
1000
0000
0010
0000
0100
0000
0001
0000
,  // measure 17
1000
0000
0000
0000
0000
0000
0001
0000
0010
0000
0001
0000
0010
0000
0000
0001
0000
0000
1000
0000
0000
0000
0000
0000
,  // measure 18
0010
0000
0000
0000
0000
0000
0100
0000
0000
0001
0000
0000
0000
0000
0000
0000
1000
0000
0000
0000
0001
0000
0000
0000
1000
0000
0000
0000
0000
0000
0100
0000
0000
0010
0000
0000
0000
0000
0000
0000
0000
0000
0100
0000
0000
0000
0000
0000
,  // measure 19
1000
0000
0000
0001
0100
0000
0001
0000
1000
0000
0000
1000
0001
0000
0100
0000
,  // measure 20
1000
0000
0000
0100
0000
0000
0001
0000
1000
0000
0001
0000
0010
0000
0001
0000
,  // measure 21
1000
0100
0010
1000
0010
0100
0100
1000
,  // measure 22
1000
0000
0000
0010
0000
0000
1000
0000
0001
0000
1000
0000
0010
0000
0100
0000
,  // measure 23
0000
0001
1000
0100
0010
0000
0010
0001
,  // measure 24
0000
0000
0000
0000
,  // measure 25
0001
0100
0010
0100
,  // measure 26
0001
0000
0000
0000
0000
0000
0010
0000
0000
0100
0000
0000
0000
0000
0000
0000
0000
0000
0010
0000
0000
0000
0000
0000
0001
0000
0000
0000
0100
0000
0000
0000
0010
0000
0000
0000
0100
0000
0000
0000
0001
0000
0000
0000
0100
0000
0000
0000
,  // measure 27
0010
1000
0001
1000
0100
0000
0010
0100
1000
0100
0010
0001
,  // measure 28
1000
0000
0000
0000
0000
0000
0010
0000
0000
0100
0000
0000
0000
0000
0000
0000
0000
0000
0010
0000
0000
0000
0000
0000
1000
0000
0000
0000
0100
0000
0000
0000
0010
0000
0000
0000
0100
0000
0000
0000
1000
0000
0000
0000
0100
0000
0000
0000
,  // measure 29
0010
0001
1000
0001
0100
0001
0010
0100
1000
0010
0100
0001
,  // measure 30
1000
0000
0001
0000
0010
0000
0000
0000
0000
0001
0000
0000
1000
0000
0010
0000
0100
0000
0000
0000
0100
0000
0010
0000
,  // measure 31
0100
0001
1000
0000
1000
0000
0100
0010
0001
0100
0001
0000
,  // measure 32
1000
0000
0000
0000
0000
0000
0000
0000
0000
0000
0000
0000
0000
0000
0000
0000
0000
0000
0010
0000
0000
0000
0000
0000
0000
0000
0000
0000
0000
0000
0000
0000
0000
0000
0000
0000
0100
0000
0000
0000
0000
0000
0000
0000
0000
0000
0000
0000
0000
0000
0000
0000
0000
0000
0000
0000
0000
0000
0000
0000
0010
0000
0000
0000
0000
0000
0000
0000
0000
0000
0000
0000
0000
0000
0000
0000
0000
0000
1000
0000
0000
0000
0000
0000
0000
0000
0000
0000
0000
0000
0000
0000
0000
0000
0000
0000
0100
0000
0000
0000
0000
0000
0000
0000
0000
0000
0000
0000
0000
0000
0000
0000
0010
0000
0000
0000
0000
0000
0000
0000
0000
0000
0000
0000
0000
0000
0000
0000
0100
0000
0000
0000
0000
0000
0000
0000
0000
0000
0000
0000
0000
0000
0000
0000
0000
0000
0000
0000
0000
0000
0000
0000
0000
0000
0000
0000
0000
0000
0000
0000
0100
0000
0000
0000
0000
0000
0000
0000
0000
0000
0000
0000
0000
0000
0000
0000
0010
0000
0000
0000
0000
0000
0000
0000
0000
0000
0000
0000
0000
0000
0000
0000
,  // measure 33
0001
1000
0001
0000
0001
0100
0010
1000
0001
0010
0000
0000
,  // measure 34
0200
0000
0000
0000
0300
0000
0100
1000
,  // measure 35
0020
0000
0000
0000
0030
0000
0010
0100
,  // measure 36
0010
1000
0001
0000
0010
0000
0200
0000
,  // measure 37
0000
0000
0000
0000
0300
0000
1000
0100
,  // measure 38
0010
0000
0010
0001
1000
0001
0100
0010
,  // measure 39
0001
0010
0100
0010
1000
0000
0001
0100
,  // measure 40
0010
0000
0010
1000
0001
1000
0100
0010
,  // measure 41
1000
0010
0100
0010
0001
0000
1000
0000
,  // measure 42
0001
0010
0001
1000
0001
0100
0002
0000
0000
1003
0000
0000
,  // measure 43
1000
0000
0010
0000
1000
0000
0001
0000
1000
0000
0100
0000
1000
0000
0000
0001
0000
0000
0100
0000
0000
0010
0000
0000
,  // measure 44
1000
0000
0010
0000
1000
0000
0100
0000
1000
0000
0001
0000
0020
0000
0000
0000
0000
0000
0130
0000
0000
1000
0000
0000
,  // measure 45
0001
0000
0010
0001
0000
0000
0100
0000
0001
0000
0001
0000
0010
0000
0100
0000
,  // measure 46
1000
0000
0001
0000
1000
0000
0001
0000
0100
0000
0000
0001
0000
1000
0000
0001
0000
1000
0000
0100
0000
0000
0000
0010
,  // measure 47
0000
0100
0000
0010
0000
0100
0000
0010
0000
0000
0000
0000
0001
0000
0000
0001
0000
0000
0010
0000
0000
0001
0000
0000
,  // measure 48
1000
0000
0000
0000
0000
0000
0010
0000
0000
0100
0000
0000
0000
0000
0000
0000
0000
0000
0010
0000
0000
0000
0000
0000
1000
0000
0000
0000
0000
0000
0000
0000
0001
0000
0000
0000
0100
0000
0000
0000
0001
0000
0000
0000
0000
0000
0000
0000
,  // measure 49
0010
0000
0000
0100
0000
0000
0010
0000
0000
0000
0001
0000
1000
0000
0000
0000
0020
0000
0000
0000
0000
0000
0000
0000
0030
0000
0000
0000
0000
0000
0000
0000
,  // measure 50
2000
0000
0000
3001
0000
0100
0001
0000
0020
0000
0000
0000
0030
0000
0001
0000
,  // measure 51
2000
0000
0000
3001
0000
0100
0001
0000
0020
0000
0100
0000
0130
0000
1000
0000
,  // measure 52
0001
0000
0010
0100
0000
0000
0010
0001
2000
0000
0000
0000
3000
0000
0001
0000
,  // measure 53
1000
0000
0000
0010
0000
0000
0100
0010
2000
0000
0000
0000
3001
0000
0100
0000
,  // measure 54
0010
0000
0000
0000
0000
0000
0100
0000
0000
1000
0000
0000
0000
0000
0000
0000
0000
0000
0100
0000
0000
0000
0000
0000
0010
0000
0000
0000
1000
0000
0000
0000
0100
0000
0000
0000
0010
0000
0000
0000
0001
0000
0000
0000
0000
0000
0000
0000
,  // measure 55
0010
0000
0000
0000
0100
0000
0000
0000
0001
0000
0100
0000
0010
0000
0000
0010
0000
0000
0001
0000
0000
1000
0000
0000
,  // measure 56
0001
0000
0000
1000
0000
0000
0001
0000
0000
1000
0000
0000
0000
0000
0000
0000
0100
0000
0000
0000
0010
0000
0000
0000
0001
0000
0000
0000
0000
0000
0100
0000
0000
0010
0000
0000
0000
0000
0000
0000
0000
0000
0010
0000
0000
1000
0000
0000
,  // measure 57
0001
0000
0010
0000
2000
0000
0000
0000
0000
3001
0000
0000
0100
0000
0000
0000
0000
0000
0110
0000
0000
0010
0000
0000
,  // measure 58
0001
0000
0100
0000
0001
0000
0000
0000
1000
0100
0000
0000
0010
0000
0000
0100
0000
0000
MMMM
0000
0000
0000
0000
0000
,  // measure 59
2000
0000
0000
0000
3010
0000
0000
0000
0200
0000
0000
0000
0310
0000
0000
1000
0000
0000
MMMM
0000
0000
1000
0000
0000
,  // measure 60
0001
0000
0000
0000
0010
0000
0000
0000
0200
0000
0000
0000
0000
0000
0000
0000
2300
0000
0000
0000
0000
0000
0000
0000
3010
0000
0000
0000
0000
0000
0100
0000
0000
0000
0000
0000
MMMM
0000
0000
0000
0000
0000
0000
0000
0000
0100
0000
0000
,  // measure 61
0002
0000
0000
0000
0203
0000
0000
0000
0302
0000
0000
0000
0013
0000
0000
0100
0000
0000
MMMM
0000
0000
0100
0000
0000
,  // measure 62
1000
0100
0010
0001
1000
0000
MMMM
0000
,  // measure 63
0001
0000
0000
0000
0000
0000
0100
0000
0000
0010
0000
0000
0000
0000
0000
0000
0000
0000
1000
0000
0000
0000
0000
0000
0001
0000
0000
0000
0000
0000
0000
0000
0000
0000
0000
0000
MMMM
0000
0000
0000
0001
0000
0000
0000
0100
0000
0000
0000
,  // measure 64
0010
0000
0100
0000
0001
0000
0000
1000
0000
0001
0000
0000
0010
0000
0100
0000
1000
0000
0001
0000
1000
0000
0000
0000
,  // measure 65
0010
0000
1000
0000
0100
0000
0000
0000
0000
0020
0000
0000
0031
0000
0000
0001
0000
0000
0010
0000
0000
0001
0000
0000
,  // measure 66
1000
0010
0100
0010
1000
0001
0010
0100
0010
0001
1000
0000
,  // measure 67
0001
0010
0100
0010
0001
1000
0010
0100
0010
1000
0001
0000
,  // measure 68
2000
0000
0000
0000
0000
0000
0000
0000
0100
0000
0000
0000
0000
0000
0000
0000
3001
0000
0000
0000
0100
0000
0000
0000
0010
0000
0000
0000
0000
0000
0100
0000
0000
0000
0000
0000
0001
0000
0000
1000
0000
0000
0000
0000
0000
0000
0000
0000
,  // measure 69
0001
0000
0000
0100
0000
0000
0001
0000
0000
0000
0000
0000
1000
0000
0000
0000
0100
0000
0000
0000
0010
0000
0000
0000
0100
0000
0000
1000
0000
0000
0001
0000
0000
0000
0000
0000
0100
0000
0000
0000
0010
0000
0000
0000
0000
0000
0000
0000
,  // measure 70
1001
0000
0000
0000
0000
0000
0000
0000
0000
0000
1000
0100
,  // measure 71
2000
0000
0000
0000
0000
0000
0000
0000
3200
0000
0000
0000
0000
0000
0000
0000
1300
0000
0000
0000
0000
0000
0000
0000
0010
0000
0000
0000
0000
0000
0010
0000
0000
0000
0000
0000
0100
0000
0000
0001
0000
0000
0100
0000
0000
0000
0000
0000
,  // measure 72
0010
0000
0000
0000
0000
0000
1000
0000
0000
0001
0000
0000
0000
0000
0000
1000
0000
0000
0001
0000
0000
0000
0000
0000
0010
0000
0000
0000
0000
0000
0001
0000
0000
2000
0000
0000
0000
0000
0000
0000
3001
0000
0000
0000
0100
0000
0000
0000
,  // measure 73
0001
0000
1000
0100
0000
1000
0100
0000
0110
0000
0000
0000
1001
0000
0000
0000
,  // measure 74
1000
0000
0000
1000
0000
0000
1000
0000
0000
1000
0000
0000
1000
0000
0100
0010
,  // measure 75
0001
0000
0000
0000
0000
0000
0000
0000
0000
0000
0000
0000
0001
0000
0000
0000
0000
0000
0000
0000
0000
0000
0000
0000
0001
0000
0000
0000
0000
0000
0000
0000
0000
0000
0000
0000
0001
0000
0000
0000
0000
0000
0000
0000
0000
0000
0000
0000
0010
0000
0000
0000
0000
0000
0000
0000
0001
0010
0000
0000
0000
0000
0000
0000
,  // measure 76
0001
1000
0000
0000
0000
0000
0000
0000
0001
0000
0000
0000
0100
0000
0000
0000
0010
0000
0000
0000
0000
0000
0000
0000
0010
0000
0000
0000
0100
0000
0000
0000
0001
0000
0000
0000
0010
0000
0000
0000
0100
0000
0000
0000
0010
0000
0000
0000
1000
0000
0000
0000
0010
0000
0000
0000
0100
0000
0000
0000
0010
0000
0000
0000
,  // measure 77
0001
0000
1000
0100
0010
0000
0010
0100
1000
0010
0100
0010
0001
0010
0110
0000
;

//---------------dance-single - XO- DS- JA- XMOD FL- RH+ JU- Mines-----------------
#NOTEDATA:;
#CHARTNAME:RH SPECIAL;
#STEPSTYPE:dance-single;
#DESCRIPTION:XO- DS- JA- XMOD FL- RH+ JU- Mines-;
#CHARTSTYLE:;
#DIFFICULTY:Edit;
#METER:15;
#RADARVALUES:0.618009,1.011983,0.041919,0.209596,0.884496,516.000000,511.000000,5.000000,25.000000,24.000000,0.000000,0.000000,0.000000,0.000000,0.618009,1.011983,0.041919,0.209596,0.884496,516.000000,511.000000,5.000000,25.000000,24.000000,0.000000,0.000000,0.000000,0.000000;
#CREDIT:A Unique Thinking Individual who Strongly Matters;
#DISPLAYBPM:83.000000:166.000000;
#NOTES:
// measure 0
0000
0000
0000
0000
,  // measure 1
0000
0000
0000
0000
,  // measure 2
0000
0000
0000
0000
,  // measure 3
0000
0000
0000
0000
,  // measure 4
0000
0000
0000
0000
,  // measure 5
0000
0000
0000
0000
,  // measure 6
0000
0000
0000
0000
,  // measure 7
0000
0000
0000
0000
,  // measure 8
0000
0000
0000
0000
,  // measure 9
1000
0000
0000
1000
0000
0000
1000
0000
,  // measure 10
0000
1000
0000
0001
1000
1000
0010
1000
,  // measure 11
0001
0000
0000
0001
0000
0000
0001
0000
,  // measure 12
0000
0001
0000
1000
0001
0001
0010
0001
,  // measure 13
1000
0000
0000
0001
0000
0000
1000
0000
,  // measure 14
0100
1000
0000
0001
0100
0010
0100
0100
,  // measure 15
0001
0000
0000
1000
0000
0000
0001
0000
,  // measure 16
0010
0000
0001
0000
1000
0000
0010
0000
0100
0000
0001
0000
,  // measure 17
1000
0000
0000
0000
0000
0000
0001
0000
0010
0000
0001
0000
0010
0000
0000
0001
0000
0000
1000
0000
0000
0000
0000
0000
,  // measure 18
0010
0000
0000
0000
0000
0000
0100
0000
0000
0001
0000
0000
0000
0000
0000
0000
1000
0000
0000
0000
0001
0000
0000
0000
1000
0000
0000
0000
0000
0000
0100
0000
0000
0010
0000
0000
0000
0000
0000
0000
0000
0000
0100
0000
0000
0000
0000
0000
,  // measure 19
1000
0000
0000
0001
0100
0000
0001
0000
1000
0000
0000
1000
0001
0000
0100
0000
,  // measure 20
1000
0000
0000
0100
0000
0000
0001
0000
1000
0000
0001
0000
0010
0000
0001
0000
,  // measure 21
1000
0100
0010
1000
0010
0100
0100
1000
,  // measure 22
1000
0000
0000
0010
0000
0000
1000
0000
0001
0000
1000
0000
0010
0000
0100
0000
,  // measure 23
0000
0001
1000
0100
0010
0000
0010
0001
,  // measure 24
0000
0000
0000
0000
,  // measure 25
0001
0100
0010
0100
,  // measure 26
0001
0000
0000
0000
0000
0000
0010
0000
0000
0100
0000
0000
0000
0000
0000
0000
0000
0000
0010
0000
0000
0000
0000
0000
0001
0000
0000
0000
0100
0000
0000
0000
0010
0000
0000
0000
0100
0000
0000
0000
0001
0000
0000
0000
0100
0000
0000
0000
,  // measure 27
0010
1000
0001
1000
0100
0000
0010
0100
1000
0100
0010
0001
,  // measure 28
1000
0000
0000
0000
0000
0000
0010
0000
0000
0100
0000
0000
0000
0000
0000
0000
0000
0000
0010
0000
0000
0000
0000
1000
0000
0000
0000
0100
0000
0000
0000
0010
0000
0000
0000
0100
0000
0000
0000
1000
0000
0000
0000
0100
0000
0000
0000
0010
,  // measure 29
0000
0000
0001
0000
0000
0000
0000
1000
0000
0000
0000
0001
0000
0000
0000
0100
0000
0000
0001
0000
0000
0000
0000
0000
0010
0000
0000
0100
0000
0000
0000
1000
0000
0000
0000
0010
0000
0000
0000
0100
0000
0000
0000
0001
0000
0000
0000
0000
,  // measure 30
1000
0000
0000
0001
0000
0000
0000
0010
0000
0000
0000
0000
0000
0000
0000
0000
0000
0000
0001
0000
0000
0000
0000
0000
1000
0000
0000
0000
0010
0000
0000
0000
0100
0000
0000
0000
0000
0000
0000
0000
0100
0000
0000
0000
0010
0000
0000
0000
,  // measure 31
0100
0001
1000
0000
1000
0000
0100
0010
0001
0100
0001
0000
,  // measure 32
1000
0000
0000
0000
0000
0000
0000
0000
0000
0000
0000
0000
0000
0000
0000
0000
0000
0000
0010
0000
0000
0000
0000
0000
0000
0000
0000
0000
0000
0000
0000
0000
0000
0000
0000
0000
0100
0000
0000
0000
0000
0000
0000
0000
0000
0000
0000
0000
0000
0000
0000
0000
0000
0000
0000
0000
0000
0000
0000
0000
0010
0000
0000
0000
0000
0000
0000
0000
0000
0000
0000
0000
0000
0000
0000
0000
0000
0000
1000
0000
0000
0000
0000
0000
0000
0000
0000
0000
0000
0000
0000
0000
0000
0000
0000
0000
0100
0000
0000
0000
0000
0000
0000
0000
0000
0000
0000
0000
0000
0000
0000
0000
0010
0000
0000
0000
0000
0000
0000
0000
0000
0000
0000
0000
0000
0000
0000
0000
0100
0000
0000
0000
0000
0000
0000
0000
0000
0000
0000
0000
0000
0000
0000
0000
0000
0000
0000
0000
0000
0000
0000
0000
0000
0000
0000
0000
0000
0000
0000
0000
0100
0000
0000
0000
0000
0000
0000
0000
0000
0000
0000
0000
0000
0000
0000
0000
0010
0000
0000
0000
0000
0000
0000
0000
0000
0000
0000
0000
0000
0000
0000
0000
,  // measure 33
0001
0000
0000
0000
1000
0000
0000
0001
0000
0000
0000
0000
0000
0000
0000
0000
0001
0000
0000
0000
0100
0000
0000
0000
0010
0000
0000
0000
1000
0000
0000
0000
0001
0000
0000
0000
0010
0000
0000
0000
0000
0000
0000
0000
0000
0000
0000
0000
,  // measure 34
0200
0000
0000
0000
0300
0000
0100
1000
,  // measure 35
0020
0000
0000
0000
0030
0000
0010
0100
,  // measure 36
0010
1000
0001
0000
0010
0000
0200
0000
,  // measure 37
0000
0000
0000
0000
0300
0000
1000
0100
,  // measure 38
0010
0000
0010
0001
1000
0001
0100
0010
,  // measure 39
0001
0010
0100
0010
1000
0000
0001
0100
,  // measure 40
0010
0000
0010
1000
0001
1000
0100
0010
,  // measure 41
1000
0010
0100
0010
0001
0000
1000
0000
,  // measure 42
0001
0010
0001
1000
0001
0100
0002
0000
0000
1003
0000
0000
,  // measure 43
1000
0000
0000
0000
0000
0000
0000
0000
0000
0000
0000
0000
0000
0000
0000
0000
0010
0000
0000
0000
0000
0000
0000
0000
0000
0000
0000
0000
0000
0000
0000
0000
1000
0000
0000
0000
0000
0000
0000
0000
0000
0000
0000
0000
0000
0000
0000
0000
0001
0000
0000
0000
0000
0000
0000
0000
0000
0000
0000
0000
0000
0000
0000
0000
0000
0000
1000
0000
0000
0000
0000
0000
0000
0000
0000
0000
0000
0000
0000
0000
0000
0100
0000
0000
0000
0000
0000
0000
0000
0000
0000
0000
0000
0000
0000
0000
1000
0000
0000
0000
0000
0000
0000
0000
0000
0000
0000
0000
0000
0000
0000
0000
0000
0000
0000
0000
0000
0000
0000
0000
0001
0000
0000
0000
0000
0000
0000
0000
0000
0000
0000
0000
0000
0000
0000
0000
0000
0000
0000
0000
0000
0000
0000
0000
0100
0000
0000
0000
0000
0000
0000
0000
0000
0000
0000
0000
0000
0000
0000
0000
0000
0000
0000
0000
0000
0000
0000
0000
0010
0000
0000
0000
0000
0000
0000
0000
0000
0000
0000
0000
0000
0000
0000
0000
0000
0000
0000
0000
0000
0000
0000
0000
,  // measure 44
1000
0000
0010
0000
1000
0000
0100
0000
1000
0000
0001
0000
0020
0000
0000
0000
0000
0000
0130
0000
0000
1000
0000
0000
,  // measure 45
0001
0000
0010
0001
0000
0000
0100
0000
0001
0000
0001
0000
0010
0000
0100
0000
,  // measure 46
1000
0000
0000
0000
0000
0000
0000
0000
0000
0000
0000
0000
0000
0000
0000
0000
0001
0000
0000
0000
0000
0000
0000
0000
0000
0000
0000
0000
0000
0000
0000
0000
1000
0000
0000
0000
0000
0000
0000
0000
0000
0000
0000
0000
0000
0000
0000
0000
0000
0000
0000
0000
0000
0000
0001
0000
0000
0000
0000
0000
0000
0000
0000
0000
0100
0000
0000
0000
0000
0000
0000
0000
0000
0000
0000
0000
0000
0000
0000
0000
0000
0000
0000
0000
0000
0000
0000
0000
0001
0000
0000
0000
0000
0000
0000
0000
0000
0000
0000
0000
0000
0000
0000
0000
1000
0000
0000
0000
0000
0000
0000
0000
0000
0000
0000
0000
0000
0000
0000
0000
0001
0000
0000
0000
0000
0000
0000
0000
0000
0000
0000
0000
0000
0000
0000
0000
1000
0000
0000
0000
0000
0000
0000
0000
0000
0000
0000
0000
0000
0000
0000
0000
0100
0000
0000
0000
0000
0000
0000
0000
0000
0000
0000
0000
0000
0000
0000
0000
0000
0000
0000
0000
0000
0000
0000
0000
0000
0000
0000
0000
0000
0000
0000
0000
0010
0000
0000
0000
0000
0000
0000
0000
,  // measure 47
0000
0100
0000
0010
0000
0100
0000
0010
0000
0000
0000
0001
0000
0000
0000
0001
0000
0000
0010
0000
0000
0001
0000
0000
,  // measure 48
1000
0000
0000
0000
0000
0000
0010
0000
0000
0100
0000
0000
0000
0000
0000
0000
0000
0000
0010
0000
0000
0000
0000
0000
1000
0000
0000
0000
0000
0000
0000
0000
0001
0000
0000
0000
0100
0000
0000
0000
0001
0000
0000
0000
0000
0000
0000
0000
,  // measure 49
0010
0000
0000
0100
0000
0000
0010
0000
0000
0000
0001
0000
1000
0000
0000
0000
0020
0000
0000
0000
0000
0000
0000
0000
0030
0000
0000
0000
0000
0000
0000
0000
,  // measure 50
2000
0000
0000
3001
0000
0100
0001
0000
0020
0000
0000
0000
0030
0000
0001
0000
,  // measure 51
2000
0000
0000
3001
0000
0100
0001
0000
0020
0000
0100
0000
0130
0000
1000
0000
,  // measure 52
0001
0000
0010
0100
0000
0000
0010
0001
2000
0000
0000
0000
3000
0000
0001
0000
,  // measure 53
1000
0000
0000
0010
0000
0000
0100
0010
2000
0000
0000
0000
3001
0000
0100
0000
,  // measure 54
0010
0000
0000
0000
0000
0000
0100
0000
0000
1000
0000
0000
0000
0000
0000
0000
0000
0000
0100
0000
0000
0000
0000
0000
0010
0000
0000
0000
1000
0000
0000
0000
0100
0000
0000
0000
0010
0000
0000
0000
0001
0000
0000
0000
0000
0000
0000
0000
,  // measure 55
0010
0000
0000
0000
0000
0000
0000
0000
0000
0000
0000
0000
0000
0000
0000
0000
0000
0000
0000
0000
0000
0000
0000
0000
0000
0000
0000
0000
0000
0000
0100
0000
0000
0000
0000
0000
0000
0000
0000
0000
0000
0000
0000
0000
0000
0000
0000
0000
0000
0000
0000
0000
0000
0000
0000
0000
0000
0000
0000
0000
0000
0000
0000
0000
0001
0000
0000
0000
0000
0000
0000
0000
0000
0000
0000
0000
0000
0000
0000
0000
0100
0000
0000
0000
0000
0000
0000
0000
0000
0000
0000
0000
0000
0000
0000
0000
0010
0000
0000
0000
0000
0000
0000
0000
0000
0000
0000
0000
0000
0000
0000
0000
0000
0000
0000
0000
0000
0000
0000
0000
0010
0000
0000
0000
0000
0000
0000
0000
0000
0000
0000
0000
0000
0000
0000
0000
0000
0000
0000
0000
0000
0000
0000
0000
0001
0000
0000
0000
0000
0000
0000
0000
0000
0000
0000
0000
0000
0000
0000
0000
0000
0000
0000
0000
0000
0000
0000
0000
1000
0000
0000
0000
0000
0000
0000
0000
0000
0000
0000
0000
0000
0000
0000
0000
0000
0000
0000
0000
0000
0000
0000
0000
,  // measure 56
0001
0000
0000
1000
0000
0000
0001
0000
0000
1000
0000
0000
0000
0000
0000
0000
0100
0000
0000
0000
0010
0000
0000
0000
0001
0000
0000
0000
0000
0000
0100
0000
0000
0010
0000
0000
0000
0000
0000
0000
0000
0000
0010
0000
0000
1000
0000
0000
,  // measure 57
0001
0000
0010
0000
2000
0000
0000
0000
0000
3001
0000
0000
0100
0000
0000
0000
0000
0000
0110
0000
0000
0010
0000
0000
,  // measure 58
0001
0000
0100
0000
0001
0000
0000
0000
1000
0100
0000
0000
0010
0000
0000
0100
0000
0000
MMMM
0000
0000
0000
0000
0000
,  // measure 59
2000
0000
0000
0000
3010
0000
0000
0000
0200
0000
0000
0000
0310
0000
0000
1000
0000
0000
MMMM
0000
0000
1000
0000
0000
,  // measure 60
0001
0000
0000
0000
0010
0000
0000
0000
0200
0000
0000
0000
0000
0000
0000
0000
2300
0000
0000
0000
0000
0000
0000
0000
3010
0000
0000
0000
0000
0000
0100
0000
0000
0000
0000
0000
MMMM
0000
0000
0000
0000
0000
0000
0000
0000
0100
0000
0000
,  // measure 61
0002
0000
0000
0000
0203
0000
0000
0000
0302
0000
0000
0000
0013
0000
0000
0100
0000
0000
MMMM
0000
0000
0100
0000
0000
,  // measure 62
1000
0100
0010
0001
1000
0000
MMMM
0000
,  // measure 63
0001
0000
0000
0000
0000
0000
0100
0000
0000
0010
0000
0000
0000
0000
0000
0000
0000
0000
1000
0000
0000
0000
0000
0000
0001
0000
0000
0000
0000
0000
0000
0000
0000
0000
0000
0000
MMMM
0000
0000
0000
0001
0000
0000
0000
0100
0000
0000
0000
,  // measure 64
0010
0000
0100
0000
0001
0000
0000
1000
0000
0001
0000
0000
0010
0000
0100
0000
1000
0000
0001
0000
1000
0000
0000
0000
,  // measure 65
0010
0000
1000
0000
0100
0000
0000
0000
0000
0020
0000
0000
0031
0000
0000
0001
0000
0000
0010
0000
0000
0001
0000
0000
,  // measure 66
1000
0000
0000
0000
0000
0010
0000
0000
0000
0000
0100
0000
0000
0000
0000
0000
0010
0000
0000
0000
0000
1000
0000
0000
0000
0000
0001
0000
0000
0000
0010
0000
0000
0000
0100
0000
0000
0000
0000
0000
0010
0000
0000
0000
0000
0000
0001
0000
0000
0000
1000
0000
0000
0000
0000
0000
0000
0000
0000
0000
0000
0000
0000
0000
,  // measure 67
0001
0000
0000
0000
0000
0010
0000
0000
0000
0000
0100
0000
0000
0000
0000
0010
0000
0000
0000
0000
0001
0000
0000
0000
0000
1000
0000
0000
0000
0000
0000
0010
0000
0000
0000
0000
0100
0000
0000
0000
0000
0010
0000
0000
0000
0000
0000
1000
0000
0000
0000
0000
0001
0000
0000
0000
0000
0000
0000
0000
0000
0000
0000
0000
,  // measure 68
2000
0000
0000
0000
0000
0000
0000
0000
0000
0000
0000
0000
0100
0000
0000
0000
0000
0000
0000
0000
0000
0000
3001
0000
0000
0000
0000
0100
0000
0000
0000
0000
0010
0000
0000
0000
0000
0000
0000
0000
0100
0000
0000
0000
0000
0000
0000
0000
0001
0000
0000
0000
1000
0000
0000
0000
0000
0000
0000
0000
0000
0000
0000
0000
,  // measure 69
0001
0000
0000
0100
0000
0000
0001
0000
0000
0000
0000
1000
0000
0000
0000
0100
0000
0000
0000
0010
0000
0000
0000
0000
0100
0000
0000
1000
0000
0000
0001
0000
0000
0000
0000
0100
0000
0000
0000
0010
0000
0000
0000
0000
0000
0000
0000
0000
,  // measure 70
1001
0000
0000
0000
0000
0000
0000
0000
0000
0000
1000
0100
,  // measure 71
2000
0000
0000
0000
0000
0000
0000
0000
3200
0000
0000
0000
0000
0000
0000
0000
1300
0000
0000
0000
0000
0000
0000
0000
0010
0000
0000
0000
0000
0000
0010
0000
0000
0000
0000
0000
0100
0000
0000
0001
0000
0000
0100
0000
0000
0000
0000
0000
,  // measure 72
0010
0000
0000
0000
0000
0000
0000
0000
0000
0000
0000
0000
0000
0000
0000
0000
0000
0000
1000
0000
0000
0000
0000
0000
0000
0000
0000
0000
0000
0000
0001
0000
0000
0000
0000
0000
0000
0000
0000
0000
0000
0000
0000
0000
0000
0000
0000
0000
0000
0000
0000
0000
0000
0000
1000
0000
0000
0000
0000
0000
0000
0000
0000
0000
0000
0000
0001
0000
0000
0000
0000
0000
0000
0000
0000
0000
0000
0000
0000
0000
0000
0000
0000
0000
0000
0000
0000
0000
0000
0000
0010
0000
0000
0000
0000
0000
0000
0000
0000
0000
0000
0000
0000
0000
0000
0000
0000
0000
0000
0000
0000
0000
0000
0000
0001
0000
0000
0000
0000
0000
0000
0000
0000
0000
0000
0000
2000
0000
0000
0000
0000
0000
0000
0000
0000
0000
0000
0000
0000
0000
0000
0000
0000
0000
0000
0000
0000
0000
0000
0000
0000
0000
0000
0000
0000
0000
0000
0000
0000
0000
3001
0000
0000
0000
0000
0000
0000
0000
0000
0000
0000
0000
0000
0000
0000
0000
0100
0000
0000
0000
0000
0000
0000
0000
0000
0000
0000
0000
0000
0000
0000
0000
,  // measure 73
0001
0000
0000
1000
0000
0100
0000
0000
0000
1000
0000
0100
0000
0000
0000
0000
0110
0000
0000
0000
0000
0000
0000
0000
1001
0000
0000
0000
0000
0000
0000
0000
,  // measure 74
1000
0000
0000
1000
0000
0000
1000
0000
0000
1000
0000
0000
1000
0000
0100
0010
,  // measure 75
0001
0000
0000
0000
0000
0000
0000
0000
0000
0000
0000
0000
0001
0000
0000
0000
0000
0000
0000
0000
0000
0000
0000
0000
0001
0000
0000
0000
0000
0000
0000
0000
0000
0000
0000
0000
0001
0000
0000
0000
0000
0000
0000
0000
0000
0000
0000
0000
0010
0000
0000
0000
0000
0000
0000
0000
0001
0010
0000
0000
0000
0000
0000
0000
,  // measure 76
0001
1000
0000
0000
0000
0000
0000
0000
0001
0000
0000
0000
0100
0000
0000
0000
0010
0000
0000
0000
0000
0000
0000
0000
0010
0000
0000
0000
0100
0000
0000
0000
0001
0000
0000
0000
0010
0000
0000
0000
0100
0000
0000
0000
0010
0000
0000
0000
1000
0000
0000
0000
0010
0000
0000
0000
0100
0000
0000
0000
0010
0000
0000
0000
,  // measure 77
0001
0000
1000
0100
0010
0000
0010
0100
1000
0010
0100
0010
0001
0010
0110
0000
;

//---------------dance-single - DS- JA- XMOD RH- Mines-----------------
#NOTEDATA:;
#CHARTNAME:;
#STEPSTYPE:dance-single;
#DESCRIPTION:DS- JA- XMOD RH- Mines-;
#CHARTSTYLE:;
#DIFFICULTY:Medium;
#METER:12;
#RADARVALUES:0.352122,0.483381,0.000000,0.075455,0.201212,294.000000,294.000000,0.000000,9.000000,24.000000,0.000000,0.000000,0.000000,0.000000,0.352122,0.483381,0.000000,0.075455,0.201212,294.000000,294.000000,0.000000,9.000000,24.000000,0.000000,0.000000,0.000000,0.000000;
#CREDIT:A Unique Thinking Individual who Strongly Matters;
#OFFSET:0.000000;
#BPMS:0.000000=166.000000
,292.000000=83.000000
;
#STOPS:;
#DELAYS:;
#WARPS:;
#TIMESIGNATURES:0.000000=4=4
;
#TICKCOUNTS:0.000000=4
;
#COMBOS:0.000000=1
;
#SPEEDS:0.000000=1.000000=0.000000=0
;
#SCROLLS:0.000000=1.000000
,96.000000=0.500000
,100.000000=1.000000
;
#FAKES:;
#LABELS:0.000000=Song Start
;
#DISPLAYBPM:83.000000:166.000000;
#NOTES:
// measure 0
0000
0000
0000
0000
,  // measure 1
0000
0000
0000
0000
,  // measure 2
0000
0000
0000
0000
,  // measure 3
0000
0000
0000
0000
,  // measure 4
0000
0000
0000
0000
,  // measure 5
0000
0000
0000
0000
,  // measure 6
0000
0000
0000
0000
,  // measure 7
0000
0000
0000
0000
,  // measure 8
0000
0000
0000
0000
,  // measure 9
1000
0000
0000
1000
0000
0000
1000
0000
,  // measure 10
0000
1000
0000
0000
1000
0000
0010
0100
,  // measure 11
0001
0000
0000
0001
0000
0000
0001
0000
,  // measure 12
0000
0001
0000
0000
0001
0000
0010
0100
,  // measure 13
1000
0000
0000
1000
0000
0000
1000
0000
,  // measure 14
0000
1000
0000
0000
1000
0001
0100
0000
,  // measure 15
0001
0000
0000
0001
0000
0000
0001
0000
,  // measure 16
1000
0000
0001
0000
1000
0000
0001
0000
1000
0000
0001
0000
,  // measure 17
1000
0000
0100
1000
0020
0000
0130
0000
,  // measure 18
0001
0000
0000
0001
0000
0000
0100
0000
0020
0000
0000
0000
1030
0000
0001
0000
,  // measure 19
1000
0000
0000
0100
0000
0000
0010
0000
0001
0000
0000
0100
0000
0000
0001
0000
,  // measure 20
0010
0000
0000
0001
0000
0000
1000
0000
0001
0000
0000
0000
1000
0000
0000
0000
,  // measure 21
1000
0000
0010
0100
0010
0000
1000
0000
,  // measure 22
0001
0000
0000
0010
0000
0000
0001
0000
0000
0000
0000
0000
0010
0000
0001
0000
,  // measure 23
0000
0001
1000
0000
0001
0000
1000
0000
,  // measure 24
0000
0000
0100
0100
,  // measure 25
1000
0000
0000
1000
0000
0000
0001
0000
0000
0000
0100
0000
0010
0000
0000
0000
,  // measure 26
0010
1000
0000
0001
1000
0100
0010
0000
,  // measure 27
0001
0000
0000
0001
0000
0000
1000
0000
0000
0000
0010
0000
0100
0000
0000
0000
,  // measure 28
0100
0001
0000
1000
0001
0010
0100
0000
,  // measure 29
1000
0000
0000
0000
1000
0000
0000
0000
0000
0001
0000
0000
0000
0000
0000
0010
0000
0000
0100
0000
0000
0000
0000
0000
,  // measure 30
0100
1000
0000
0001
1000
0010
0100
0000
,  // measure 31
0001
0000
0000
0000
0000
0000
0000
0000
0000
0001
0000
0000
0000
0000
0000
0000
0000
0000
1000
0000
0000
0000
0000
0000
0100
0000
0000
0000
0000
0000
0000
0000
0010
0000
0000
0000
0000
0000
0000
0000
0000
0000
0000
0000
0000
0000
0000
0000
,  // measure 32
0010
0000
0000
0000
0001
0000
0000
0000
0000
1000
0000
0000
0010
0000
0000
0000
0000
0000
0100
0000
0000
0000
0000
0000
,  // measure 33
0002
0000
0000
0013
,  // measure 34
0020
0000
0030
0010
,  // measure 35
0001
1000
0010
0200
,  // measure 36
0000
0000
0300
0001
,  // measure 37
0002
1000
0100
1003
,  // measure 38
0200
0010
1300
0001
,  // measure 39
2000
0001
0100
3001
,  // measure 40
0200
0010
0301
0100
,  // measure 41
0001
1000
0010
0000
,  // measure 42
1000
0100
0010
0000
,  // measure 43
0001
1000
0100
0000
,  // measure 44
1000
0010
0100
0000
,  // measure 45
0001
0010
0100
1000
,  // measure 46
0010
0100
0001
0000
,  // measure 47
1000
0010
0100
0001
,  // measure 48
0010
0100
1000
0000
,  // measure 49
0001
0100
0001
0000
,  // measure 50
0001
0100
0001
0000
,  // measure 51
1000
0100
1000
0000
,  // measure 52
1000
0100
1000
0000
,  // measure 53
0001
0100
0010
0100
,  // measure 54
0001
1000
0100
0000
,  // measure 55
1000
0100
0010
0100
,  // measure 56
1000
0000
0100
0000
0010
0000
0001
0000
0000
MMMM
0000
0000
,  // measure 57
0001
0000
0000
0000
1000
0000
0000
0000
0000
0100
0000
0000
0010
0000
0000
0000
0000
0000
MMMM
0000
0000
0000
0000
0000
,  // measure 58
0010
0000
0100
0000
1000
0000
0001
0000
0000
MMMM
0000
0000
,  // measure 59
0001
0000
1000
0000
0010
0000
0100
0000
0000
MMMM
0000
0000
,  // measure 60
0100
0000
0010
0000
1000
0000
0001
0000
0000
MMMM
0000
0000
,  // measure 61
0001
0100
0001
0000
1000
0000
MMMM
0000
,  // measure 62
1000
0000
0000
0100
0000
0000
1000
0000
0001
0000
0000
0000
0000
0000
0000
0000
,  // measure 63
1000
0000
0000
1000
0000
0000
0000
0000
0001
0000
0000
0001
0000
0000
0000
0000
,  // measure 64
0010
0000
0000
0100
0000
0000
1000
0000
0010
0000
0000
0000
1000
0000
0000
0000
,  // measure 65
0001
0000
0001
0010
0000
0010
0100
0000
0100
1000
0000
0000
,  // measure 66
0001
0000
0001
0100
0000
0100
0010
0000
0010
1000
0000
0000
,  // measure 67
0001
0000
0000
0000
1000
0000
0000
0000
0000
0000
0000
0000
0100
0000
0000
0010
0000
0000
0100
0000
0000
0000
0000
0000
,  // measure 68
1000
0000
1000
0001
0000
0001
0100
0000
0100
0010
0000
0000
,  // measure 69
1000
0000
0000
0001
0000
0000
1000
0010
,  // measure 70
0100
0000
0000
0001
0000
0000
1000
0000
0001
0000
0000
0000
0000
0000
0001
0000
,  // measure 71
1000
0000
0000
1000
0000
0000
0100
0000
0010
0000
0000
0100
0000
0000
1000
0000
,  // measure 72
0001
0000
0000
1000
0000
0000
0001
0000
0010
0000
0000
0000
0001
0000
0000
0000
,  // measure 73
1000
0000
0000
1000
0000
0000
1000
0000
0000
1000
0000
0000
1000
0000
0010
0000
,  // measure 74
0100
0000
0000
0100
0000
0000
0100
0000
0000
0100
0000
0000
0100
0000
0100
0000
,  // measure 75
0010
0000
0000
0010
0000
0000
0010
0000
0000
0010
0000
0000
0100
0000
0010
0000
,  // measure 76
1000
0001
0001
0001
0001
0010
0100
0010
;
