#VERSION:0.83;
#TITLE:1,2,3,4!;
#SUBTITLE:;
#ARTIST:Cansol;
#TITLETRANSLIT:;
#SUBTITLETRANSLIT:;
#ARTISTTRANSLIT:;
#GENRE:;
#ORIGIN:;
#CREDIT:;
#BANNER:;
#BACKGROUND:;
#PREVIEWVID:;
#JACKET:;
#CDIMAGE:;
#DISCIMAGE:;
#LYRICSPATH:;
#CDTITLE:;
#MUSIC:1234.ogg;
#OFFSET:0.000000;
#SAMPLESTART:45.842697;
#SAMPLELENGTH:15.000000;
#SELECTABLE:YES;
#BPMS:0.000=178.000,
32.000=356.000,
40.000=89.000,
42.000=356.000,
43.000=178.000,
43.500=89.000,
44.000=178.000,
46.000=356.000,
47.000=178.000,
47.500=89.000,
48.000=178.000,
66.000=356.000,
82.000=178.000,
114.000=356.000,
178.000=178.000,
210.000=356.000,
274.000=89.000,
282.000=356.000,
306.000=89.000,
317.000=178.000,
357.000=356.000,
460.500=178.000,
460.750=89.000,
461.500=178.000,
464.000=356.000,
520.000=178.000,
524.000=356.000;
#STOPS:306.000=0.674;
#DELAYS:;
#WARPS:;
#TIMESIGNATURES:0.000=4=4;
#TICKCOUNTS:0.000=4;
#COMBOS:0.000=1;
#SPEEDS:0.000=1.000=0.000=0;
#SCROLLS:0.000=1.000,
58.000=1.200,
60.000=1.400,
62.000=1.600,
64.000=1.800,
66.000=1.000,
142.000=-15.000,
144.000=1.000,
258.000=0.900,
262.000=0.800,
266.000=0.700,
270.000=0.600,
274.000=1.000,
548.000=1.250,
550.000=1.500,
552.000=1.750,
554.000=2.000,
556.000=1.000;
#FAKES:;
#LABELS:0.000=Song Start;
#BGCHANGES:;
#KEYSOUNDS:;
#ATTACKS:
;

//---------------dance-single - XO DS- JA XMOD FL BU- RH- JU----------------
#NOTEDATA:;
#CHARTNAME:;
#STEPSTYPE:dance-single;
#DESCRIPTION:XO DS- JA XMOD FL BU- RH- JU;
#CHARTSTYLE:;
#DIFFICULTY:Challenge;
#METER:18;
#RADARVALUES:0.848642,1.568473,0.370835,0.370835,0.374401,833.000000,781.000000,52.000000,52.000000,24.000000,0.000000,5.000000,0.000000,0.000000,0.848642,1.568473,0.370835,0.370835,0.374401,833.000000,781.000000,52.000000,52.000000,24.000000,0.000000,5.000000,0.000000,0.000000;
#CREDIT:Karl with a K;
#NOTES:
// measure 0
0000
0000
0000
0000
,  // measure 1
0000
0000
0000
0000
,  // measure 2
0000
0000
0000
0000
,  // measure 3
0000
0000
0000
0000
,  // measure 4
0000
0000
0000
0000
,  // measure 5
0000
0000
0000
0000
,  // measure 6
1000
0000
0000
0000
0100
0000
0000
0000
0010
0000
0000
0010
0100
0000
1000
0000
,  // measure 7
0001
0000
0000
0000
0000
0000
1000
0000
0000
0000
0000
0000
0020
0000
0000
0000
0000
0000
0000
0000
0000
0000
0000
0000
0130
0000
0000
0010
0000
0000
0100
0000
0000
0010
0000
0000
1000
0000
0000
0000
0001
0000
0000
0000
0010
0000
0000
0000
,  // measure 8
0100
0010
2002
0000
,  // measure 9
0000
0000
3003
0000
,  // measure 10
0000
0000
0002
0003
1100
0000
0000
0000
,  // measure 11
0002
0000
0000
0000
0003
0000
0000
0000
0101
0000
0000
0000
0000
0000
0000
1000
,  // measure 12
2000
0000
0000
3100
0000
0000
1100
0000
1000
0000
0010
0000
,  // measure 13
0200
0000
0301
1000
0101
0001
0100
0001
,  // measure 14
0020
0000
0000
0100
0000
0130
1000
0000
2100
0000
0000
0000
3010
0000
0000
0000
,  // measure 15
0102
0000
0000
1000
0000
0000
0013
0000
0000
0000
0000
0000
1100
0000
0100
0000
1000
0000
0010
0000
0000
0000
0000
0000
,  // measure 16
0101
0100
0001
0010
0240
0000
0000
0000
,  // measure 17
0000
0000
0000
0000
,  // measure 18
0000
0030
0010
0000
,  // measure 19
0010
0000
0010
0000
,  // measure 20
0310
0000
0000
0000
1100
0100
0000
0010
,  // measure 21
0001
0000
0000
0000
0000
0000
1000
0000
0010
0000
0010
2000
0000
0000
0000
0000
,  // measure 22
3001
0010
0100
0000
0010
0000
0001
1000
0001
0100
0010
0000
0000
0000
0010
0000
,  // measure 23
1000
0000
0000
0000
0000
0000
0001
0000
0010
0000
0010
0002
0000
0000
0000
0000
,  // measure 24
1003
0000
1000
0000
0001
0000
0001
0000
0200
0000
0310
1000
0010
0000
1000
0000
,  // measure 25
0000
0100
1000
0000
0001
0000
0010
0000
0002
0000
0103
0001
0000
0000
0010
0000
,  // measure 26
0200
0000
2300
0000
3001
0100
0010
0010
,  // measure 27
1000
0001
1000
0000
0100
0000
0010
0000
0002
0000
0000
0000
0103
0000
0001
1000
,  // measure 28
0001
0000
0010
0000
0010
0001
1000
0010
1000
0000
0000
0000
0010
0000
0100
0000
,  // measure 29
0010
0000
1000
0100
0010
0001
0000
0000
,  // measure 30
0010
0001
1000
0010
1000
0000
0100
0010
,  // measure 31
0100
0000
1000
0010
0100
0001
0100
0000
,  // measure 32
0001
1000
0001
0010
0001
1000
0010
0100
,  // measure 33
0000
0000
0001
0010
0100
0000
0000
1000
,  // measure 34
0100
0000
1000
0001
0100
0001
1000
0100
,  // measure 35
0000
0010
0001
1000
0000
0000
0000
0000
,  // measure 36
0000
0000
0000
0000
1000
0000
0010
0100
,  // measure 37
0010
0000
1000
0100
0010
0001
0000
0000
,  // measure 38
0010
0001
1000
0010
1000
0000
0100
0010
,  // measure 39
0100
0000
1000
0010
0100
0001
0100
0000
,  // measure 40
0001
1000
0001
0010
0001
1000
0010
0100
,  // measure 41
0000
0000
0001
0010
0100
0000
0000
1000
,  // measure 42
0100
0000
1000
0001
0100
0001
1000
0100
,  // measure 43
0000
0010
0001
1000
0010
0000
0110
0000
,  // measure 44
1010
0000
0110
0000
1001
0000
1000
0010
,  // measure 45
0100
0010
0000
1000
0001
0010
0000
0001
,  // measure 46
0200
0000
0000
0001
0000
0000
0301
0100
0010
0000
0000
0000
0010
0000
1000
0000
,  // measure 47
0000
1000
0001
0000
0001
1000
0000
1000
,  // measure 48
0200
0000
0000
0000
0310
0000
0100
1000
0001
0000
0010
0000
0100
0000
0010
0000
,  // measure 49
0000
0001
1000
0020
0000
0130
2000
0000
,  // measure 50
3100
0000
0000
0010
0000
0000
1000
0000
0000
0001
0000
0000
1000
0000
0000
0000
0010
0000
0000
0000
0100
0000
0000
0000
0001
0000
0000
0000
0000
0000
1000
0000
0000
0000
0000
0000
0200
0000
0000
0000
0000
0000
0000
0000
0000
0000
0000
0000
,  // measure 51
0301
0100
0000
1000
0001
0100
0010
0100
,  // measure 52
0001
0000
0000
0000
0010
0001
0000
0000
1000
0000
0000
0000
0100
0000
0000
0000
0010
0000
0000
0000
0000
0000
0000
0000
0001
0000
0000
0000
0100
0000
0000
0000
,  // measure 53
0010
0000
1000
0100
0010
0001
0000
0000
,  // measure 54
0001
1000
0010
0100
0010
0000
1000
0100
,  // measure 55
0010
0000
0001
0100
0010
1000
0000
0000
,  // measure 56
1000
0001
0010
0100
0010
0001
1000
0100
,  // measure 57
0000
0000
1000
0001
0100
0000
0000
0001
,  // measure 58
1000
0000
0000
0000
0010
1000
0001
0100
,  // measure 59
0000
0000
0001
1000
0100
0000
0000
1000
,  // measure 60
0001
1000
0100
1000
0010
0000
1000
0100
,  // measure 61
0010
0000
0001
0100
0010
1000
0000
0000
,  // measure 62
1000
0001
0010
0100
0010
0000
0001
0100
,  // measure 63
0010
0000
1000
0100
0010
0001
0000
0000
,  // measure 64
0001
1000
0010
0100
0010
1000
0001
0100
,  // measure 65
0000
0000
0001
1000
0100
0000
0000
1000
,  // measure 66
0001
0000
0000
0000
0010
0001
1000
0100
,  // measure 67
0000
0000
1000
0001
0100
0000
0000
0001
,  // measure 68
1000
0000
0001
0000
0100
0000
0001
0000
2000
0000
0000
0000
0000
0000
3010
0100
,  // measure 69
0200
0000
0010
0000
0301
0000
0100
0001
2000
0000
0000
0000
3000
0001
0010
0100
,  // measure 70
2000
0000
0000
0000
3001
0010
0100
0010
0001
0000
0000
0000
0000
0000
0100
0000
,  // measure 71
0010
0110
0010
1000
,  // measure 72
0100
0000
1000
0001
1000
0000
0000
0100
,  // measure 73
0010
0000
0110
0000
0010
0001
1000
0000
,  // measure 74
0001
0000
0100
0001
1000
0000
0000
1000
,  // measure 75
0100
0000
0100
0000
0010
0100
1000
0100
,  // measure 76
1000
0001
0100
0010
2000
3000
1000
0100
,  // measure 77
0010
0000
0000
0000
0000
0000
0001
0000
0000
0000
0000
1000
0010
0000
0000
0000
0000
0000
0100
0000
0000
0001
0000
0000
0100
0000
0000
0001
0000
0000
0000
0000
0000
0100
0000
0000
0001
0000
0000
0010
0000
0000
0000
0000
0000
0001
0000
0000
,  // measure 78
0200
0000
0000
0000
0000
0000
0000
0000
0000
0000
0000
0000
0001
0000
0000
0000
0000
0000
0000
0000
0000
0000
0000
0000
0301
0000
0000
0000
0000
0000
0000
0000
0000
0000
0000
0000
1000
0000
0000
0000
0000
0000
0100
0000
0000
0000
0000
0000
0010
0000
0000
0000
0000
0000
0000
0000
0000
0000
0000
0000
0100
0000
0000
0000
0000
0000
0000
0000
0000
0000
0000
0000
0010
0000
0000
0000
0000
0000
0000
0000
0000
0000
0000
0000
0100
0000
0000
0000
0000
0000
0000
0000
0000
0000
0000
0000
0000
0000
0000
0000
0000
0000
0000
0000
0000
0000
0000
0000
1000
0000
0000
0000
0000
0000
0000
0000
0000
0000
0000
0000
0100
0000
0000
0000
0000
0000
0000
0000
0000
0000
0000
0000
1000
0000
0000
0000
0000
0000
0000
0000
0001
0000
0000
0000
2000
0000
0000
0000
0000
0000
0000
0000
0000
0000
0000
0000
0000
0000
0000
0000
0000
0000
0000
0000
0000
0000
0000
0000
3100
0000
0000
0000
0000
0000
0000
0000
0000
0000
0000
0000
2000
0000
0000
0000
0000
0000
0000
0000
0000
0000
0000
0000
,  // measure 79
0010
0000
0000
0000
3001
0000
0000
1001
0000
0000
0000
0000
0000
0000
0000
0000
0000
0000
1010
0000
0000
0000
0000
0000
0101
0000
0000
0000
0000
0000
0000
0000
,  // measure 80
0000
0011
0000
0000
1100
0000
0011
0000
0000
0000
0001
0100
1000
0000
0100
0000
,  // measure 81
0010
0000
1000
0100
0000
0000
0000
0000
0000
1100
0000
0000
0011
0000
0000
0000
,  // measure 82
0000
0101
0000
0000
1010
0000
0101
0000
0000
0000
0000
1001
0000
0000
0110
0000
,  // measure 83
0011
1010
1001
0000
0021
0000
1030
0010
,  // measure 84
1020
0000
0000
0000
0000
0000
0031
0000
0100
0000
0010
0000
0002
0000
0000
0000
0000
0000
0013
0000
0000
1000
0000
0000
,  // measure 85
0100
0000
0001
0000
0100
0010
0001
0100
0000
0010
0100
0001
0000
0000
1000
0001
,  // measure 86
0000
0000
0000
1000
0001
0100
0001
1000
0100
1000
0001
0100
0010
1000
0100
0010
,  // measure 87
0001
0000
0000
1001
0000
0000
0000
0000
0000
0110
0000
0000
1010
0000
0000
0000
,  // measure 88
0000
0011
0000
0000
1100
0000
0101
0000
0000
0000
0000
2001
0000
0000
3010
0000
,  // measure 89
1000
0000
0100
0010
0000
0000
0000
0000
0000
0000
0001
0000
0010
0000
0001
0000
,  // measure 90
0000
0000
0011
0000
0000
0001
1000
0001
,  // measure 91
0000
0000
0000
1000
0010
0000
0000
0000
1020
0000
0000
0000
0130
0000
0000
0000
,  // measure 92
0001
0020
0100
0000
1030
0000
0010
0000
,  // measure 93
0100
1000
0000
0001
0100
0010
0001
0010
,  // measure 94
0100
0001
1000
0001
1000
0001
0100
0001
,  // measure 95
1000
0200
0000
0301
0100
0010
0001
1000
,  // measure 96
0010
0000
0000
0100
0000
0000
1000
0000
0000
0100
0000
0000
0010
0000
0000
0100
0000
0000
0001
0000
1000
0000
0001
0000
,  // measure 97
1000
0000
0001
0000
1000
0000
0001
0000
0000
0010
0000
0000
0100
0000
0000
0000
0000
0000
1000
0000
0000
0001
0000
0000
,  // measure 98
0100
0010
0001
0000
0010
1000
0000
0001
,  // measure 99
0010
0100
0001
0100
0010
0100
1000
0001
,  // measure 100
0100
0010
1000
0000
0010
0100
0010
0000
,  // measure 101
0001
0010
0000
0210
0000
0000
0000
0000
,  // measure 102
0000
0010
0320
0000
0000
0000
0000
0000
,  // measure 103
0000
0100
0130
0000
0002
0000
0000
0000
,  // measure 104
0000
0000
0000
0013
1000
0000
0010
0000
,  // measure 105
0001
0000
0000
1001
0000
0000
MMMM
0000
,  // measure 106
0000
0001
1000
0000
0000
0000
MMMM
0000
,  // measure 107
0000
1000
0001
0000
1001
0000
MMMM
0000
,  // measure 108
0000
0000
0000
0000
1000
0000
0100
0000
0010
0000
0000
0001
1000
0000
0000
0000
,  // measure 109
0010
0220
0330
MMMM
,  // measure 110
1000
2002
3003
MMMM
,  // measure 111
0001
0100
0010
0000
0110
0000
MMMM
0000
,  // measure 112
1000
0010
1000
0000
1000
0000
0100
0010
,  // measure 113
0100
0020
2000
0000
0000
0000
3000
0032
,  // measure 114
0000
0000
0203
0000
,  // measure 115
0300
0110
0000
0000
0000
0000
0000
0000
,  // measure 116
0001
0010
0100
1000
0010
0100
0001
0000
,  // measure 117
0100
0001
0000
0000
1000
0000
0000
0000
,  // measure 118
1000
0000
0000
0000
0100
1000
0000
0000
,  // measure 119
0010
0100
0010
0000
0001
0010
0100
0001
,  // measure 120
0010
0000
0000
0000
0100
0000
0000
0000
0010
0000
0000
0000
0001
0000
0000
1000
0000
0000
0010
0000
0000
1000
0000
0000
,  // measure 121
0100
0100
1000
0000
,  // measure 122
1000
0000
0000
0000
0000
0000
0010
0000
0100
0000
0010
0000
,  // measure 123
0100
0000
0100
0000
0001
0010
0001
0010
,  // measure 124
0000
0000
0001
0000
0001
0100
0010
0100
,  // measure 125
0000
0000
0100
0001
0000
0000
1000
0000
,  // measure 126
0000
0000
1000
0000
0000
0000
0100
1000
,  // measure 127
0010
0100
0000
0000
0001
0010
0100
0010
,  // measure 128
0001
0100
0010
0100
1000
0000
0000
0000
,  // measure 129
0001
0000
0000
0010
0000
0000
0100
0000
0000
0001
0000
0000
0010
0000
0000
0000
0100
0000
0000
0000
0010
0000
0000
0000
,  // measure 130
0000
0000
0000
0000
0000
0000
0001
0010
1000
0001
0100
0010
,  // measure 131
0001
0000
0001
1000
0000
0000
0100
1000
,  // measure 132
0000
0010
0100
0010
0001
0010
0100
0010
,  // measure 133
0001
0000
0000
0010
0000
0000
0100
0000
0000
0001
0000
0000
0010
0000
0000
0000
0100
0000
0000
0000
1000
0000
0000
0000
,  // measure 134
0100
0000
1000
0000
0001
0010
1000
0010
,  // measure 135
0001
0000
0000
0000
0100
0000
0000
0000
0010
0000
0000
0000
0000
0000
0000
1000
0000
0000
0000
0000
0000
0000
0000
0000
,  // measure 136
0010
0000
0100
0000
0001
0000
0100
0000
0000
0001
0000
0000
,  // measure 137
4000
0004
0000
0000
0000
0000
3000
0000
0400
0000
0000
0000
0000
0000
0300
0000
,  // measure 138
0040
0000
0000
0030
1003
0000
0000
0000
,  // measure 139
2001
0000
3020
0000
,  // measure 140
0130
0001
0000
0000
0010
0000
0010
0000
,  // measure 141
0010
0000
0000
0100
0000
0000
0000
0000
0000
0000
0000
0000
0010
0000
0000
0000
0001
0000
0000
0000
0010
0000
0000
0000
,  // measure 142
0001
1000
0001
0000
1000
0010
0100
0010
,  // measure 143
1000
0000
0000
0100
0010
0000
0010
0001
,  // measure 144
0010
0000
0001
1000
0010
1000
0001
1000
,  // measure 145
0100
0010
1000
0010
0100
0001
0100
1000
,  // measure 146
0010
0001
1000
0001
2000
3100
0000
0000
;

//---------------dance-single - XO- JA XMOD RH- JU-----------------
#NOTEDATA:;
#CHARTNAME:;
#STEPSTYPE:dance-single;
#DESCRIPTION:XO- JA XMOD RH- JU-;
#CHARTSTYLE:;
#DIFFICULTY:Hard;
#METER:16;
#RADARVALUES:0.681563,1.097931,0.149760,0.292389,0.235338,669.000000,648.000000,21.000000,41.000000,0.000000,0.000000,0.000000,0.000000,0.000000,0.681563,1.097931,0.149760,0.292389,0.235338,669.000000,648.000000,21.000000,41.000000,0.000000,0.000000,0.000000,0.000000,0.000000;
#CREDIT:Karl with a K;
#NOTES:
// measure 0
0000
0000
0000
0000
,  // measure 1
0000
0000
0000
0000
,  // measure 2
0000
0000
0000
0000
,  // measure 3
0000
0000
0000
0000
,  // measure 4
0000
0000
0000
0000
,  // measure 5
0000
0000
0000
0000
,  // measure 6
1000
0000
0000
0000
0100
0000
0000
0000
0010
0000
0000
0001
0000
0000
0010
0000
,  // measure 7
0001
0000
0100
0000
0010
0100
0010
0000
,  // measure 8
1000
0001
2002
0000
,  // measure 9
0000
0000
3003
0000
,  // measure 10
0000
2000
3100
0000
,  // measure 11
0020
0000
0000
0000
0000
0000
0000
0000
0130
0000
0000
0000
0000
0000
0000
0010
,  // measure 12
0020
0000
0000
0032
0000
0000
0103
0000
0100
0000
0010
0000
,  // measure 13
0200
0000
0301
0100
0010
1000
0100
0010
,  // measure 14
0002
0000
0000
1000
0000
1003
0001
0000
2100
0000
0000
0000
3002
0000
0000
0000
,  // measure 15
0103
0000
0000
0001
0000
0000
0020
0000
0000
0000
0000
0000
0130
0000
0010
0000
0100
0000
0020
0000
0000
0000
0000
0000
,  // measure 16
0031
0100
1000
0100
0220
0000
0000
0000
,  // measure 17
0000
0000
0000
0000
,  // measure 18
0330
0000
1000
0000
,  // measure 19
0100
0000
0010
0000
,  // measure 20
0001
0000
0000
0000
0100
0100
0000
0001
,  // measure 21
0100
0000
0000
0010
0010
2000
0000
0000
,  // measure 22
3001
0010
0001
0000
0010
0000
0100
1000
0100
1000
0001
0000
0000
0000
1000
0000
,  // measure 23
0100
0000
0000
1000
0001
0100
0010
0000
,  // measure 24
0100
0000
0001
0000
1000
0000
0001
0000
1000
0000
0000
0100
0010
0000
0001
0000
,  // measure 25
0000
0100
0000
0000
0010
0000
1000
0000
0002
0000
0000
0000
0003
0000
1000
0000
,  // measure 26
0200
0000
0300
0000
1000
1000
0001
0001
,  // measure 27
0010
0000
0100
0000
1000
0000
0001
0000
0200
0000
0000
0000
0310
0000
1000
0001
,  // measure 28
1000
0100
0010
0001
1000
0000
0000
1000
,  // measure 29
0001
0000
0000
0001
0100
0010
0000
0000
,  // measure 30
1000
0001
0010
0001
1000
0000
0000
1000
,  // measure 31
0010
0000
0000
1000
0001
0000
0010
0000
,  // measure 32
0100
0000
1000
0000
0001
0000
0001
1000
,  // measure 33
0000
0000
1000
0000
0010
0000
0000
0010
,  // measure 34
1000
0000
0000
1000
0001
0010
0100
1000
,  // measure 35
0000
0001
0000
0000
,  // measure 36
0000
0000
0000
0000
1000
0000
0000
1000
,  // measure 37
0001
0000
0000
0001
0100
0010
0000
0000
,  // measure 38
1000
0001
0010
0001
1000
0000
0000
1000
,  // measure 39
0010
0000
0000
1000
0001
0000
0010
0000
,  // measure 40
0100
0000
1000
0000
0001
0000
0001
1000
,  // measure 41
0000
0000
1000
0000
0010
0000
0000
0010
,  // measure 42
1000
0000
0000
1000
0001
0010
0100
1000
,  // measure 43
0000
0001
0100
0010
,  // measure 44
0110
0000
0000
0000
1001
0000
0001
0010
,  // measure 45
0100
0010
0000
0001
1000
0010
0000
1000
,  // measure 46
0200
0000
0000
1000
0000
0000
1300
0000
0010
0000
0000
0000
0010
0000
0100
0000
,  // measure 47
0000
0100
0001
0000
1000
0000
0100
0000
,  // measure 48
0010
0000
0001
0000
1000
0010
0100
0010
,  // measure 49
0000
1000
0010
0200
0000
0310
0002
0000
,  // measure 50
0013
0010
0100
0000
0001
1000
0100
0000
,  // measure 51
0001
0000
0000
0100
0000
0000
1000
0000
,  // measure 52
0010
1000
0100
0000
1000
0000
0000
1000
,  // measure 53
0100
0000
0000
0100
0010
0000
0000
0010
,  // measure 54
0100
0010
0001
0010
0001
0000
0000
0001
,  // measure 55
0100
0000
0000
0100
0010
0000
0000
0010
,  // measure 56
0100
0010
1000
0001
1000
0000
0001
0100
,  // measure 57
0000
0000
0001
1000
0100
0000
0000
0100
,  // measure 58
1000
0000
0000
1000
0010
1000
0001
0100
,  // measure 59
0000
0000
0001
0010
0100
0000
0000
0000
,  // measure 60
0110
0000
0000
0000
0001
0000
0000
0001
,  // measure 61
0010
0000
0000
0010
0100
1000
0000
0100
,  // measure 62
0010
0100
1000
0100
1000
0000
0000
1000
,  // measure 63
0010
0000
0000
0010
0100
0001
0000
0100
,  // measure 64
0010
0100
0001
1000
0001
0000
1000
0010
,  // measure 65
0000
0000
1000
0001
0010
0000
0000
0010
,  // measure 66
0001
0000
0000
0001
0100
0001
1000
0010
,  // measure 67
0000
0000
1000
0100
0010
0000
0100
0000
,  // measure 68
1000
0000
0001
0000
1000
0000
0001
0000
2000
0000
0000
0000
0000
0000
3010
0200
,  // measure 69
0000
0000
0000
0000
0300
0000
0001
1000
0200
0000
0000
0000
0300
0010
0100
1000
,  // measure 70
0002
0000
0000
0000
1003
0100
0010
0001
1000
0000
0000
0000
0000
0000
0001
0000
,  // measure 71
0100
0001
1000
0001
,  // measure 72
0100
0000
0010
0000
1000
0000
0000
0001
,  // measure 73
0010
0001
1000
0001
,  // measure 74
0010
0100
1000
1000
,  // measure 75
0100
0010
0001
0100
,  // measure 76
0010
0000
1000
0000
0020
0030
1000
0100
,  // measure 77
0010
0000
0001
0000
1000
0000
0001
0000
0001
0000
0000
1000
1000
0010
0000
0100
,  // measure 78
0001
0001
1000
1000
0100
0000
0010
0000
0000
0001
0000
0000
0200
0000
0000
0302
,  // measure 79
0000
0000
0000
0000
1003
0000
0000
1100
0000
0000
0000
0000
0000
0000
0000
0000
0000
0000
0001
0000
0000
0000
0000
0000
0010
0000
0000
0000
0000
0000
0000
0000
,  // measure 80
0000
0001
0000
0000
0100
0000
0001
0000
0000
0000
0001
0100
0010
0000
1000
0000
,  // measure 81
0001
0000
0010
0100
0000
0000
0000
0000
0000
1000
0000
0000
0010
0000
0000
0000
,  // measure 82
0000
1000
0000
0000
0100
0000
1000
0000
0000
0000
0000
0100
0000
0000
0010
0000
,  // measure 83
0001
0100
0001
0000
2010
0000
3100
0010
,  // measure 84
2000
0000
0000
0000
0000
0000
3010
0000
0100
0000
0010
0000
0002
0000
0000
0000
0000
0000
0103
0000
0000
1000
0000
0000
,  // measure 85
0100
0000
0010
0000
1000
0010
1000
0010
0000
1000
0001
0010
0000
0000
0100
0010
,  // measure 86
0000
0000
0000
0010
0001
0000
0100
0000
0010
0000
1000
0000
0100
0010
0100
0010
,  // measure 87
0001
0000
0000
1001
0000
0000
0000
0000
0000
1100
0000
0000
1000
0000
0000
0000
,  // measure 88
0000
0101
0000
0000
0100
0000
0010
0000
0000
0000
0000
1010
0000
0000
1000
0000
,  // measure 89
0100
0000
0010
0100
0000
0000
0000
0000
0000
0000
0000
0000
1000
0000
0010
0000
,  // measure 90
0000
0000
1010
0000
0000
0001
0010
0001
,  // measure 91
0000
0000
0010
0000
0100
1000
0001
0000
,  // measure 92
0000
2000
0000
0000
3010
0000
1000
0000
,  // measure 93
0001
0100
0000
0000
0001
0000
0010
0000
,  // measure 94
0100
0000
0010
0100
0010
0000
0001
1000
,  // measure 95
0001
1000
0010
0100
,  // measure 96
1000
0000
0100
0000
0100
0000
0010
1000
,  // measure 97
0010
0000
1000
0001
0010
0000
0000
0100
,  // measure 98
0000
0010
0001
0000
1000
0100
0000
0000
,  // measure 99
1000
0001
1000
0100
,  // measure 100
1000
0001
0010
0000
0001
1000
0001
0000
,  // measure 101
0100
0001
0000
1001
0000
0000
0000
0000
,  // measure 102
0000
1000
0001
0000
0000
0000
0000
0000
,  // measure 103
0000
0001
1000
0000
0001
0000
0000
0000
,  // measure 104
0000
0000
0000
0001
0010
0000
0001
0000
,  // measure 105
0100
0000
0000
1001
0000
0000
0010
0000
,  // measure 106
0000
0100
0010
0000
0000
0000
1001
0000
,  // measure 107
0000
0001
0100
0000
0100
0000
0001
0000
,  // measure 108
0000
0000
1000
0100
0010
0000
1000
0000
,  // measure 109
0010
0110
0000
0001
,  // measure 110
0100
0101
0000
1000
,  // measure 111
0100
0010
0001
0000
0100
0000
0001
0000
,  // measure 112
1000
0010
0000
0000
1000
0001
1000
0100
,  // measure 113
0010
0000
0002
0000
0000
0000
0000
0203
,  // measure 114
0000
0000
2300
0000
,  // measure 115
0000
3020
0000
0000
0000
0000
0000
0000
,  // measure 116
0031
0000
0100
0000
0010
1000
0001
0000
,  // measure 117
0100
0001
0000
0000
1000
0000
0000
0000
,  // measure 118
1000
0000
0000
0000
0100
1000
0000
0000
,  // measure 119
0010
0010
0001
0001
,  // measure 120
0010
0000
0100
0000
0000
0000
0001
0000
0000
0001
0000
0000
,  // measure 121
0100
0001
1000
0000
,  // measure 122
1000
0000
0000
0000
0000
0000
0010
0000
1000
0000
0000
0000
,  // measure 123
0100
0000
0100
0000
0001
0100
0010
0100
,  // measure 124
1000
0000
0001
0000
0001
0000
0010
0001
,  // measure 125
0000
0000
0100
0010
0000
0000
1000
0000
,  // measure 126
0000
1000
0000
0100
,  // measure 127
0010
0001
0000
0000
0001
1000
0001
0100
,  // measure 128
0001
1000
0001
0000
1000
0000
0000
0000
,  // measure 129
0001
0000
0000
0100
0000
0000
0001
0000
0000
0000
0000
0000
0010
0000
0000
0000
0100
0000
0000
0000
0010
0000
0000
0000
,  // measure 130
0002
0000
0000
0000
0000
0000
1003
0100
0010
0000
0001
0000
,  // measure 131
1001
0000
1000
0001
0000
0000
0100
0000
,  // measure 132
0000
0010
0001
0010
0001
0010
0100
0000
,  // measure 133
0001
0000
0000
1000
0000
0000
0001
0000
0000
1000
0000
0000
0010
0000
0000
0000
1000
0000
0000
0000
0100
0000
0000
0000
,  // measure 134
0010
0000
0100
0000
0001
0100
0010
0100
,  // measure 135
0010
0000
0000
0000
0001
0000
0000
0000
1000
0000
0000
0000
0000
0000
0000
1000
0000
0000
0000
0000
0000
0000
0000
0000
,  // measure 136
0010
0000
0100
0000
0010
0000
0100
0000
0000
0000
0000
0000
,  // measure 137
0002
0000
0023
0000
,  // measure 138
0230
0000
1300
0000
,  // measure 139
1100
0000
0001
0000
,  // measure 140
0101
0000
0001
0001
,  // measure 141
0010
0000
0000
0001
0000
0000
0000
0000
0000
0000
0000
0000
1000
0000
0000
0000
0001
0000
0000
0000
1000
0000
0000
0000
,  // measure 142
0001
0100
0000
0000
0010
0100
0010
0000
,  // measure 143
1000
0000
0000
1000
0100
0000
0010
0001
,  // measure 144
0010
0000
0001
0000
0100
0010
1000
0010
,  // measure 145
1000
0001
0010
0001
0000
1000
0001
0010
,  // measure 146
0001
1000
0010
0000
0002
0003
0000
0000
;

//---------------dance-single - XO- JA- XMOD RH- JU-----------------
#NOTEDATA:;
#CHARTNAME:;
#STEPSTYPE:dance-single;
#DESCRIPTION:XO- JA- XMOD RH- JU-;
#CHARTSTYLE:;
#DIFFICULTY:Medium;
#METER:13;
#RADARVALUES:0.508370,0.836519,0.199681,0.164023,0.078446,499.000000,471.000000,28.000000,23.000000,0.000000,0.000000,0.000000,0.000000,0.000000,0.508370,0.836519,0.199681,0.164023,0.078446,499.000000,471.000000,28.000000,23.000000,0.000000,0.000000,0.000000,0.000000,0.000000;
#CREDIT:Karl with a K;
#NOTES:
// measure 0
0000
0000
0000
0000
,  // measure 1
0000
0000
0000
0000
,  // measure 2
0000
0000
0000
0000
,  // measure 3
0000
0000
0000
0000
,  // measure 4
0000
0000
0000
0000
,  // measure 5
0000
0000
0000
0000
,  // measure 6
1000
0100
0010
0001
,  // measure 7
1000
0010
0100
0001
,  // measure 8
2000
0000
0002
0000
,  // measure 9
0000
0000
0000
0000
,  // measure 10
3003
0000
1100
0000
,  // measure 11
0001
0000
0101
0000
,  // measure 12
1000
0000
1100
0001
,  // measure 13
0100
0000
0101
0100
,  // measure 14
0010
1000
1001
0001
,  // measure 15
0011
0010
0110
0100
,  // measure 16
1000
0010
0100
0000
0220
0000
0000
0000
,  // measure 17
0000
0000
0000
0000
,  // measure 18
0330
0000
1000
0000
,  // measure 19
0100
0000
0010
0000
,  // measure 20
0001
0000
0000
0000
1000
0000
0000
0010
,  // measure 21
0100
0000
0000
0001
1000
0001
0000
0000
,  // measure 22
0010
0100
0010
0000
0001
0000
0000
0010
,  // measure 23
0100
0000
0000
1000
0001
1000
0010
0000
,  // measure 24
0100
0000
0010
0000
1000
0000
0001
0000
1000
0000
0000
0010
0000
0000
0100
0000
,  // measure 25
0000
0001
0000
0000
1000
0000
0001
0000
0200
0000
0000
0000
0301
0000
0010
0000
,  // measure 26
0200
0000
0300
0000
1000
0010
1000
0010
,  // measure 27
1000
0100
0010
0000
0020
0000
0130
0000
,  // measure 28
1000
0100
0010
0001
1000
0000
0000
0000
,  // measure 29
1001
0000
0000
0000
0001
0100
0000
0000
,  // measure 30
0010
0100
0001
0000
,  // measure 31
1001
0000
0001
0010
,  // measure 32
0100
0000
1000
0000
0001
0000
0000
1000
,  // measure 33
0000
0001
0100
0000
,  // measure 34
0110
0000
0000
0000
1000
0000
0000
0100
,  // measure 35
0000
1000
0000
0000
,  // measure 36
0000
0000
1000
0000
,  // measure 37
1001
0000
0000
0000
0001
0100
0000
0000
,  // measure 38
0010
0100
0001
0000
,  // measure 39
1001
0000
0001
0010
,  // measure 40
0100
0000
1000
0000
0001
0000
0000
1000
,  // measure 41
0000
0001
0100
0000
,  // measure 42
0110
0000
0000
0000
1000
0000
0000
0100
,  // measure 43
0000
1000
0001
1000
,  // measure 44
0001
0000
1000
0010
,  // measure 45
0100
0001
0000
0001
0010
0100
0000
0100
,  // measure 46
2000
0000
0000
0001
3001
0000
0010
0001
,  // measure 47
0000
0001
1000
0000
1000
0000
0100
0000
,  // measure 48
0010
0000
0001
1000
0001
0000
0010
0100
,  // measure 49
0000
1000
0000
0010
0000
0100
0020
0000
,  // measure 50
0230
0302
1003
0100
,  // measure 51
1000
0000
0000
0001
0000
0000
0100
0000
,  // measure 52
0010
0100
0010
0000
1000
0000
0000
1000
,  // measure 53
0100
0000
0000
0100
1000
0000
0000
0000
,  // measure 54
0100
0000
0010
0000
0001
0000
0000
0001
,  // measure 55
0100
0000
0000
0100
0001
0000
0000
0000
,  // measure 56
1000
0100
0010
0001
,  // measure 57
0100
0010
1000
0000
,  // measure 58
0100
0000
1000
0100
,  // measure 59
1000
0001
0100
0000
,  // measure 60
1001
0000
0000
0000
0001
0000
0000
0001
,  // measure 61
0100
0000
0000
0100
0001
0000
0000
0000
,  // measure 62
0100
0000
0010
0000
1000
0000
0000
1000
,  // measure 63
0100
0000
0000
0100
1000
0000
0000
0000
,  // measure 64
0001
0100
0010
1000
,  // measure 65
0100
0010
0001
0000
,  // measure 66
0100
0000
0001
0100
,  // measure 67
0001
1000
0100
0010
,  // measure 68
0001
0000
1000
0000
0002
0000
0000
0013
,  // measure 69
0200
0000
0000
1300
0002
0000
0000
0103
,  // measure 70
0200
0000
0310
0010
1000
0000
0000
0100
,  // measure 71
0000
1000
0001
0100
,  // measure 72
0010
0000
1000
0000
0001
0000
0000
0100
,  // measure 73
0000
0001
1000
0100
,  // measure 74
0010
0001
1000
1000
,  // measure 75
0001
0001
0100
0010
,  // measure 76
1000
0000
0001
0000
1000
0000
1000
0100
,  // measure 77
0010
0000
0001
0000
1000
0000
0010
0000
0010
0000
0000
0100
0001
0000
0000
0001
,  // measure 78
0100
0000
0100
0000
0001
0000
0010
0000
0000
0100
0000
0000
1000
0000
0000
0100
,  // measure 79
0000
0000
0000
0000
1000
0000
0000
0100
0000
0000
0000
0000
0000
0000
0000
0000
0000
0000
0010
0000
0000
0000
0000
0000
0010
0000
0000
0000
0000
0000
0000
0000
,  // measure 80
0000
0001
0000
0000
0001
0000
0001
0000
0000
0000
1000
0000
0010
0000
1000
0000
,  // measure 81
0100
0000
0000
1000
0000
0000
0000
0000
0000
0010
0000
0000
0010
0000
0000
0000
,  // measure 82
0000
1000
0000
0000
1000
0000
1000
0000
0000
0000
0000
0001
0000
0000
0010
0000
,  // measure 83
0001
0100
0001
0000
1001
0000
1000
0001
,  // measure 84
1000
0000
0100
0010
0001
0000
0100
0010
,  // measure 85
1000
0000
0000
0000
0001
0000
0000
0100
0000
0000
0000
0001
0000
0000
0000
1000
,  // measure 86
0000
0100
0010
0001
,  // measure 87
1000
0000
0000
1001
0000
0000
0000
0000
0000
0001
0000
0000
0100
0000
0000
0000
,  // measure 88
0000
0001
0000
0000
1000
0000
0001
0000
0000
0000
0000
0010
0000
0000
0100
0000
,  // measure 89
1000
0000
0000
0100
0000
0000
0000
0000
0000
0000
0000
0000
1000
0000
0001
0000
,  // measure 90
0000
0000
1000
0000
0000
0100
0010
0000
,  // measure 91
0000
0001
1000
0001
,  // measure 92
0000
0100
0000
0000
0010
0000
1000
0000
,  // measure 93
0100
1000
0000
0000
0100
0000
0010
0000
,  // measure 94
0001
1000
0001
0100
,  // measure 95
0010
0100
1000
0100
,  // measure 96
0010
1000
0100
0010
,  // measure 97
0010
0000
0001
0000
0000
0010
0000
0000
,  // measure 98
0100
0000
0000
0001
0000
0000
0100
0000
,  // measure 99
1000
0001
1000
0100
,  // measure 100
0000
0110
0000
1001
,  // measure 101
0000
0000
0000
1001
0000
0000
0000
0000
,  // measure 102
0000
0001
1000
0000
0000
0000
0000
0000
,  // measure 103
0000
1000
0001
0000
1000
0000
0000
0000
,  // measure 104
0000
0000
0000
1000
0010
0000
1000
0000
,  // measure 105
0001
0000
1000
0100
0000
0000
0110
0000
,  // measure 106
0000
0001
0100
0000
0000
0000
0110
0000
,  // measure 107
0000
1000
0100
0000
1000
0000
0001
0000
,  // measure 108
0000
0000
1000
0001
0000
0000
0110
0000
,  // measure 109
0000
0110
0000
1000
,  // measure 110
0100
0001
0000
0100
,  // measure 111
1000
0010
0100
0001
,  // measure 112
0100
1000
0100
0001
,  // measure 113
0000
0000
2000
0000
0000
0000
0000
3002
,  // measure 114
0000
0000
2003
0000
,  // measure 115
0000
3001
0000
0000
0000
0000
0000
0000
,  // measure 116
0001
0001
0010
0010
,  // measure 117
0100
0000
1000
0000
,  // measure 118
1000
0000
0100
0000
,  // measure 119
0010
0010
0001
0001
,  // measure 120
0010
0000
0001
1000
,  // measure 121
0100
0000
1000
0000
,  // measure 122
1000
0000
0010
0000
,  // measure 123
0100
0000
0001
0001
,  // measure 124
0001
0001
0000
0010
,  // measure 125
0000
0100
0000
1000
,  // measure 126
0000
1000
0000
0100
,  // measure 127
0010
0000
0001
0000
,  // measure 128
0001
0100
1000
0000
,  // measure 129
0001
0000
0010
0000
,  // measure 130
2000
0000
0000
0000
,  // measure 131
3001
1000
0000
0100
,  // measure 132
0000
0010
0000
0000
0001
0000
1000
0000
,  // measure 133
0001
1000
0010
1000
,  // measure 134
0100
0000
1000
1000
,  // measure 135
0010
0000
0000
0000
0000
0000
0000
0000
0010
0000
0000
0000
0000
0000
0000
1000
0000
0000
0000
0000
0000
0000
0000
0000
,  // measure 136
0010
0000
0100
0000
,  // measure 137
0002
0000
2003
0000
,  // measure 138
3002
0000
1003
0000
,  // measure 139
1001
0000
0000
0000
,  // measure 140
0110
0000
0000
0000
,  // measure 141
0110
0000
0000
0000
,  // measure 142
1001
0000
0000
0000
,  // measure 143
1000
0000
0000
0100
1000
0000
0010
0100
,  // measure 144
0000
0000
0001
0000
1000
0001
1000
0000
,  // measure 145
0001
0010
0001
0000
1000
0010
1000
0000
,  // measure 146
0100
0000
0010
0000
0200
0300
0000
0000
;

//---------------dance-single - ----------------
#NOTEDATA:;
#CHARTNAME:;
#STEPSTYPE:dance-single;
#DESCRIPTION:;
#CHARTSTYLE:;
#DIFFICULTY:Easy;
#METER:9;
#RADARVALUES:0.297483,0.470542,0.171155,0.064183,0.024960,292.000000,268.000000,24.000000,9.000000,0.000000,0.000000,0.000000,0.000000,0.000000,0.297483,0.470542,0.171155,0.064183,0.024960,292.000000,268.000000,24.000000,9.000000,0.000000,0.000000,0.000000,0.000000,0.000000;
#CREDIT:Karl with a K;
#NOTES:
// measure 0
0000
0000
0000
0000
,  // measure 1
0000
0000
0000
0000
,  // measure 2
0000
0000
0000
0000
,  // measure 3
0000
0000
0000
0000
,  // measure 4
0000
0000
0000
0000
,  // measure 5
0000
0000
0000
0000
,  // measure 6
1000
0000
0100
0000
,  // measure 7
0010
0000
0001
0000
,  // measure 8
2002
0000
0000
0000
,  // measure 9
0000
0000
0000
0000
,  // measure 10
3003
0000
1001
0000
,  // measure 11
0000
0000
0110
0000
,  // measure 12
0000
0000
1001
0000
,  // measure 13
0000
0000
0110
0000
,  // measure 14
0000
0000
1000
0100
,  // measure 15
0010
0001
1000
0010
,  // measure 16
0100
0001
0200
0000
,  // measure 17
0000
0000
0000
0000
,  // measure 18
0000
0000
0000
0000
,  // measure 19
0000
0000
0300
0000
,  // measure 20
0000
0000
1001
0000
,  // measure 21
1000
0000
0100
0000
,  // measure 22
0010
0000
0001
0000
,  // measure 23
0010
0000
0100
0000
,  // measure 24
1000
0000
1001
0000
,  // measure 25
0001
0000
0100
0000
,  // measure 26
0010
0000
1000
0000
,  // measure 27
0010
0000
0100
0000
,  // measure 28
0001
0000
1000
0000
,  // measure 29
0100
0000
0010
0000
,  // measure 30
0001
0000
1000
0000
,  // measure 31
0010
0000
0100
0000
,  // measure 32
0001
0000
0001
0000
,  // measure 33
0010
0000
0100
0000
,  // measure 34
1000
0000
0001
0000
,  // measure 35
0100
0000
0000
0000
,  // measure 36
0000
0000
1000
0000
,  // measure 37
0100
0000
0010
0000
,  // measure 38
0001
0000
1000
0000
,  // measure 39
0010
0000
0100
0000
,  // measure 40
0001
0000
0001
0000
,  // measure 41
0010
0000
0100
0000
,  // measure 42
1000
0000
0001
0000
,  // measure 43
0100
0000
0010
0000
,  // measure 44
1000
0000
1000
0000
,  // measure 45
0100
0000
0010
0000
,  // measure 46
0001
0000
1000
0010
,  // measure 47
0000
0100
0000
0000
0001
0000
0000
1000
,  // measure 48
0000
0001
0001
0000
,  // measure 49
0100
0000
0010
0000
,  // measure 50
1000
0000
0001
0000
,  // measure 51
0010
0000
0100
0000
,  // measure 52
1000
0001
1000
0000
,  // measure 53
0100
0000
0010
0000
,  // measure 54
0000
0000
0001
0000
,  // measure 55
0100
0000
0010
0000
,  // measure 56
0000
0000
0010
0000
,  // measure 57
1000
0000
0100
0000
,  // measure 58
0000
0000
0010
0000
,  // measure 59
0001
0000
0100
0000
,  // measure 60
0001
0000
0001
0000
,  // measure 61
0100
0000
0010
0000
,  // measure 62
0000
0000
1000
0000
,  // measure 63
0100
0000
0010
0000
,  // measure 64
0000
0000
0010
0000
,  // measure 65
0001
0000
0100
0000
,  // measure 66
0000
0000
0010
0000
,  // measure 67
1000
0000
0100
0000
,  // measure 68
1000
0000
0002
0000
,  // measure 69
2003
0000
3200
0000
,  // measure 70
0320
0000
0031
0001
0001
0000
0000
0000
,  // measure 71
0100
0000
0010
0000
,  // measure 72
0100
0000
0001
0000
,  // measure 73
0010
0000
0100
0000
,  // measure 74
0010
0000
0001
0000
,  // measure 75
0001
0000
1000
0000
,  // measure 76
1000
0000
1001
0000
,  // measure 77
0000
1000
0100
0010
,  // measure 78
0001
1000
0010
0100
,  // measure 79
0001
0000
0000
0000
0000
0000
0000
1000
0000
0000
0000
0000
0000
0000
0000
0000
0000
0000
0000
0000
0000
0000
0000
0000
0001
0000
0000
0000
0000
0000
0000
0000
,  // measure 80
0000
0100
0000
0010
,  // measure 81
0000
0000
0000
1000
0000
0000
0000
0000
0000
0000
0000
0000
0100
0000
0000
0000
,  // measure 82
0000
0000
0000
0000
0010
0000
0000
0000
0000
0000
0000
0001
0000
0000
0000
0000
,  // measure 83
0001
1000
0100
1000
,  // measure 84
0010
1000
0100
1000
,  // measure 85
0010
0100
0001
0010
,  // measure 86
0001
0100
0010
0100
,  // measure 87
0010
0000
0000
1000
0000
0000
0000
0000
0000
0000
0000
0000
0110
0000
0000
0000
,  // measure 88
0000
0000
0000
0000
0110
0000
0000
0000
0000
0000
0000
1001
0000
0000
0000
0000
,  // measure 89
0000
0000
0000
1000
0000
0000
0000
0000
0000
0000
0000
0000
0100
0000
0000
0000
,  // measure 90
0000
0010
0000
0100
,  // measure 91
0000
1000
0000
0010
,  // measure 92
0000
0100
0000
0001
,  // measure 93
0000
1000
0000
0001
,  // measure 94
0000
1000
0000
0001
,  // measure 95
0000
0100
0000
0010
,  // measure 96
0000
0100
0000
0010
,  // measure 97
0000
1000
0000
0100
,  // measure 98
0000
0010
0000
0100
,  // measure 99
0000
0010
0000
0001
,  // measure 100
0000
0100
0000
0010
,  // measure 101
0000
0000
0000
1001
0000
0000
0000
0000
,  // measure 102
0000
1001
0000
0000
,  // measure 103
0000
1001
0000
0000
,  // measure 104
0000
0000
0000
0110
0000
0000
0000
0000
,  // measure 105
0000
0000
0000
1001
0000
0000
0000
0000
,  // measure 106
0000
0110
0000
0000
,  // measure 107
0000
1001
0000
0000
,  // measure 108
0000
0110
0000
0000
,  // measure 109
0000
1000
0000
0100
,  // measure 110
0000
0001
0000
0100
,  // measure 111
0000
1000
0000
0010
,  // measure 112
0000
0001
0000
0010
,  // measure 113
0000
0000
1000
0000
0000
0000
0000
1000
,  // measure 114
0000
0000
0001
0000
,  // measure 115
0000
0100
0000
0000
0000
0000
0000
0000
,  // measure 116
0001
0000
0010
0000
,  // measure 117
0100
0000
1000
0000
,  // measure 118
1000
0000
0100
0000
,  // measure 119
0010
0000
0001
0000
,  // measure 120
0010
0000
0001
0000
,  // measure 121
0100
0000
1000
0000
,  // measure 122
0100
0000
0010
0000
,  // measure 123
0100
0000
0001
0001
,  // measure 124
0000
0001
0000
0010
,  // measure 125
0000
0100
0000
1000
,  // measure 126
0000
1000
0000
0100
,  // measure 127
0010
0000
0001
0000
,  // measure 128
0001
0000
1000
0000
,  // measure 129
0001
0000
0010
0000
,  // measure 130
0000
0000
0000
0000
,  // measure 131
0001
0000
0000
1000
0000
0000
0100
0000
,  // measure 132
0000
0010
0000
0000
0001
0000
0000
0000
,  // measure 133
0001
0000
0010
0000
,  // measure 134
0100
0000
1000
0001
,  // measure 135
0010
0000
0000
0000
0000
0000
0000
0000
0100
0000
0000
0000
0000
0000
0000
1000
0000
0000
0000
0000
0000
0000
0000
0000
,  // measure 136
0010
0000
0100
0000
,  // measure 137
0000
0000
0000
0000
,  // measure 138
0000
0000
0000
0000
,  // measure 139
1001
0000
0000
0000
,  // measure 140
1001
0000
0000
0000
,  // measure 141
1001
0000
0000
0000
,  // measure 142
1001
0000
0000
0000
,  // measure 143
1000
0000
0000
0100
0000
0000
0010
0000
,  // measure 144
0000
0001
1000
0000
,  // measure 145
0001
1000
0001
1000
,  // measure 146
0001
0000
0000
0000
2002
3003
0000
0000
;
