#VERSION:0.83;
#TITLE:[E];
#SUBTITLE:;
#ARTIST:dj MAX STEROID;
#TITLETRANSLIT:;
#SUBTITLETRANSLIT:;
#ARTISTTRANSLIT:;
#GENRE:Psychedelic Techno;
#ORIGIN:;
#CREDIT:;
#BANNER:[E].png;
#BACKGROUND:[E]-bg.png;
#PREVIEWVID:;
#JACKET:[E]-jacket.png;
#CDIMAGE:;
#DISCIMAGE:;
#LYRICSPATH:;
#CDTITLE:cdtitle.png;
#MUSIC:[E].ogg;
#OFFSET:-0.695000;
#SAMPLESTART:14.905000;
#SAMPLELENGTH:12.632000;
#SELECTABLE:YES;
#BPMS:0.000=152.000,
128.000=76.000,
137.000=152.000;
#STOPS:128.000=0.789;
#DELAYS:;
#WARPS:;
#TIMESIGNATURES:0.000=4=4;
#TICKCOUNTS:0.000=4;
#COMBOS:0.000=1;
#SPEEDS:0.000=1.000=0.000=0;
#SCROLLS:0.000=1.000;
#FAKES:;
#LABELS:0.000=Song Start;
#BGCHANGES:;
#KEYSOUNDS:;
#ATTACKS:
;

//---------------dance-single - ----------------
#NOTEDATA:;
#CHARTNAME:;
#STEPSTYPE:dance-single;
#DESCRIPTION:;
#CHARTSTYLE:;
#DIFFICULTY:Challenge;
#METER:16;
#RADARVALUES:0.779503,0.915284,0.378582,0.419732,1.094596,663.000000,617.000000,46.000000,51.000000,35.000000,0.000000,0.000000,0.000000,0.000000,0.779503,0.915284,0.378582,0.419732,1.094596,663.000000,617.000000,46.000000,51.000000,35.000000,0.000000,0.000000,0.000000,0.000000;
#CREDIT:;
#NOTES:
0000
0000
0000
0000
,
0000
0000
0000
0000
,
0000
0000
0000
0000
,
0000
0000
0000
0000
,
0000
0000
0000
0000
,
0001
0000
1000
0010
0000
0000
1010
0000
0M00
0010
0001
0000
1000
0000
0010
0000
,
1000
0100
0000
0010
0000
0000
0011
0000
0M00
0010
1000
0000
0001
0000
0010
0000
,
0001
0100
0000
0010
0000
0000
1010
0000
0M00
0010
0001
0000
1000
0010
0000
0100
,
0001
0000
0000
0000
0000
0000
0000
0000
1001
0000
0000
0001
0010
0100
1000
0000
,
0001
0000
0100
1000
0000
0000
1100
0000
000M
1000
0010
0000
0100
0000
0001
0000
,
1000
0100
0000
0001
0000
0000
0101
0000
M000
0001
0010
0000
0100
0000
1000
0000
,
0001
0100
0000
1000
0000
0000
1100
0000
000M
1000
0010
0000
0100
0001
0000
1000
,
0100
0010
0000
0100
0010
0000
0011
0000
0M00
0010
1000
0001
0010
0100
1000
0001
,
1000
0000
0010
0001
0000
0000
0011
0000
M000
0001
0100
0000
0010
0000
1000
0000
,
0001
0010
0000
1000
0000
0000
1010
0000
000M
1000
0100
0000
0010
0000
0001
0000
,
1000
0010
0000
0001
0000
0000
0011
0000
M000
0001
0100
0000
0010
1000
0000
0001
,
0010
0100
0000
0100
0000
0000
0110
0000
0000
1000
0010
0100
0001
0000
0000
0000
,
2000
0100
0000
0100
0000
3001
0010
0100
1000
0000
00M0
0000
0101
0000
0000
0002
,
0000
0100
0000
0100
0000
1003
0010
0100
0001
0000
00M0
0000
1100
0000
0000
0000
,
0002
0010
0000
1000
0000
0103
0010
0100
1000
0000
000M
0000
1010
0000
0000
2000
,
0000
0010
0000
0001
0000
3100
0010
0100
0001
0000
M000
0000
0011
0000
0000
0000
,
2000
0010
0000
0010
0000
3001
0100
0010
1000
0000
0M00
0000
0011
0000
0000
0002
,
0000
0010
0000
0010
0000
1003
0100
0010
0001
0000
0M00
0000
1010
0000
0000
0000
,
0002
0100
0000
1000
0000
0013
0100
0010
1000
0000
000M
0000
1100
0000
0000
2000
,
0000
0100
0000
0001
0000
3010
0100
0010
0002
0000
0023
0000
1030
0000
0000
0000
,
0001
0010
0000
0001
0010
0000
0000
0100
1000
0010
1000
0000
0010
0000
0000
0100
,
0010
1000
0000
1000
0001
0000
1000
0100
0000
0010
0100
0020
1000
0000
0000
0000
,
0031
0010
0000
0100
1000
0000
0000
0001
1000
0000
1000
0010
0100
0000
0001
1000
,
0100
0000
0000
0000
0010
0000
0000
0000
0010
0000
0000
0000
0100
0000
0000
0000
0000
0000
0000
0000
0000
0011
0000
0000
0000
0000
0000
0001
0000
0000
0010
0000
0000
0001
0000
0000
0100
0000
0000
0000
0000
0000
0000
0000
0000
1010
0000
0000
,
0000
0010
0000
1000
0010
0000
0000
0100
0001
0010
0001
0000
0010
0000
0000
0100
,
0010
0001
0000
0001
1000
0000
0001
0100
0000
0010
0100
0020
0001
0000
0000
0000
,
1030
0010
0000
0100
0001
0000
0000
1000
0001
0000
0001
0010
0100
0000
1000
0010
,
0200
0000
0000
0000
0000
0000
0000
0000
0310
0000
0000
0000
0000
0000
0010
0000
1001
0000
0000
0000
1000
0100
0000
0000
0010
0000
0001
1000
0001
0000
0100
0000
,
0110
0000
0000
0000
0010
0000
1000
0000
0100
0000
0000
0000
0000
0000
0010
0000
1001
0000
0000
0000
0001
0100
0000
0000
0001
1000
0001
0020
0000
0000
0130
1000
,
0001
0000
0100
0010
0000
0000
0000
0000
2000
0000
0000
0000
0000
0000
3020
0000
0000
0000
0000
0000
0032
0000
0000
0000
M003
0000
0000
0000
0001
0000
0100
0000
,
0001
0000
0100
0000
2000
000M
3000
1000
0010
0100
0001
0000
1000
0000
0001
1000
,
0001
0000
0010
0000
1000
0000
0001
0000
0100
0000
1000
0001
0000
0001
0100
0010
,
0100
0000
0010
0000
0220
0000
0330
0000
1000
0001
1000
0000
0100
0000
0010
0000
,
0001
1000
0001
0000
1002
0000
0000
0000
0103
0010
1000
0000
0000
0000
1000
0010
,
0100
0000
0001
0000
2001
0000
0000
3100
0010
0001
0010
0000
0100
0000
1000
0001
,
1000
0000
0010
0000
0100
0000
0001
0000
1000
0000
0100
0010
0000
0100
0010
0001
,
1000
0010
0021
0000
0100
0000
1000
1030
,
0010
1000
0100
0010
0002
0000
0000
0023
0000
0000
2030
0000
300M
0000
1000
0100
,
1000
0000
0100
0000
0002
M000
0003
0001
0010
0100
1000
0000
0001
0000
1000
0001
,
1000
0000
0010
0000
0001
0000
1000
0000
0100
0000
0001
1000
0000
1000
0100
0010
,
0100
0010
1020
0000
0100
0000
0001
0031
,
0010
0001
0100
0010
2000
0000
0000
3020
0000
0000
0032
0000
M003
0000
0001
0100
,
0001
0000
0010
0000
2000
000M
3000
1000
0100
1000
0100
0000
0010
0000
0001
1000
,
0001
0000
0100
0000
0010
0000
1000
0000
0001
0000
0010
0100
0000
0010
0100
1000
,
0001
0000
0000
0000
0000
0000
0200
0000
0000
0000
0000
0000
0010
0000
0000
0000
0010
0000
0000
0000
0010
0000
0000
0000
0310
0000
0000
0000
0000
0000
0000
0000
0000
0110
0000
0000
0000
0000
0000
1000
0000
0000
0001
0000
0000
1000
0000
0000
,
0100
0000
0000
0000
0020
0001
0000
0001
0000
0000
0130
1000
0000
1100
00M0
0100
,
0001
1000
0010
0000
0200
0001
0000
0001
0000
0000
0310
1000
0000
1010
0M00
0010
,
0001
1000
0100
0000
0010
0001
0000
1002
0000
0000
0103
1000
0000
1100
000M
1000
,
0010
0100
0001
0000
2000
0001
0000
0001
0000
3100
0010
0100
0000
0000
0110
0000
,
0010
0001
1000
0000
0020
1000
0000
1000
0000
0000
0130
0001
0000
0101
00M0
0100
,
1000
0001
0010
0000
0200
1000
0000
1000
0000
0000
0310
0001
0000
0011
0M00
0010
,
1000
0001
0100
0000
0010
1000
0000
2001
0000
0000
3100
0001
0000
0101
M000
0001
,
0010
0100
1000
0000
0002
1000
0003
0001
0100
0010
1000
0100
0010
0001
0000
1001
,
0000
0001
0100
0010
1000
0001
0000
0001
0010
0000
0100
0010
2000
0000
300M
0000
,
1000
0100
2000
0000
300M
0000
1000
0000
0010
0100
0010
0000
0001
0000
0010
0001
,
1000
0001
0100
0000
0100
0000
0010
1000
0010
1000
0010
0100
2000
0000
300M
0000
,
2010
0000
3001
0000
0012
0000
1003
0000
0010
0100
0001
0000
0001
0000
0001
0000
,
1000
0100
0010
0000
0001
1000
0000
1000
0010
0000
0100
0010
0002
0000
M003
0000
,
0001
0100
0002
0000
M003
0000
0001
0000
0010
0100
0010
0000
1000
0000
0010
1000
,
0001
1000
0100
0000
0100
0000
0010
0001
0010
0001
0010
0100
0002
0000
M003
0000
,
0012
1003
2010
0001
0000
0001
0001
0001
,
3001
1000
0100
0010
0100
0000
0010
0000
0011
0000
0000
0000
1000
0100
0000
0010
,
0001
0000
0000
1000
0000
0000
0001
0100
0010
0000
1000
0100
0010
0100
0010
0000
,
0001
0100
0000
0010
0100
0000
0010
0000
1010
0000
0000
0000
0001
0100
0000
0010
,
1000
0000
0000
0001
0000
0001
0010
0100
1000
0001
1000
0000
0001
0100
0010
1000
,
0001
1000
0100
0010
0100
0000
0000
0000
0000
0000
0000
0000
0000
0000
0000
0000
,
0000
0000
0001
0100
1000
0010
0001
0000
;

//---------------dance-single - ----------------
#NOTEDATA:;
#CHARTNAME:;
#STEPSTYPE:dance-single;
#DESCRIPTION:;
#CHARTSTYLE:;
#DIFFICULTY:Easy;
#METER:7;
#RADARVALUES:0.343311,0.413354,0.279822,0.345662,0.000000,292.000000,258.000000,34.000000,42.000000,0.000000,0.000000,0.000000,0.000000,0.000000,0.343311,0.413354,0.279822,0.345662,0.000000,292.000000,258.000000,34.000000,42.000000,0.000000,0.000000,0.000000,0.000000,0.000000;
#CREDIT:;
#NOTES:
// measure 0
0000
0000
0000
0000
,  // measure 1
0000
0000
0000
0000
,  // measure 2
0000
0000
0000
0000
,  // measure 3
0000
0000
0000
0000
,  // measure 4
0000
0000
0000
0000
,  // measure 5
0001
0100
0001
0000
,  // measure 6
1000
0100
1000
0000
,  // measure 7
0001
0100
0010
1000
,  // measure 8
0002
0003
0110
1001
,  // measure 9
1000
0100
0010
0011
,  // measure 10
1000
0010
0100
0101
,  // measure 11
1000
0100
0010
0011
,  // measure 12
1000
0000
0001
0000
1000
0001
1000
0000
,  // measure 13
0001
0100
0010
1010
,  // measure 14
0001
0010
0100
1100
,  // measure 15
0001
0100
0010
1010
,  // measure 16
0002
0000
0000
0000
0000
1000
1003
0000
,  // measure 17
0001
0002
0010
1003
,  // measure 18
0001
1000
0002
0000
1000
0000
0013
0000
,  // measure 19
0001
0001
0011
1100
,  // measure 20
0001
1000
0001
0000
1010
0000
0011
0000
,  // measure 21
1000
2000
0010
3001
,  // measure 22
1000
0001
2000
0000
0001
0000
3010
0000
,  // measure 23
1000
1000
1010
0101
,  // measure 24
1000
0001
1000
0000
0200
0000
0320
0000
,  // measure 25
0031
0000
1000
0000
,  // measure 26
0001
0100
0010
1010
,  // measure 27
0001
0000
0001
0010
,  // measure 28
0002
0003
0100
0101
,  // measure 29
1000
0000
0001
0000
,  // measure 30
1000
0100
0010
0011
,  // measure 31
1000
0000
1000
0010
,  // measure 32
0200
0301
0011
1000
,  // measure 33
1010
0000
1000
1000
1000
0000
0001
0001
,  // measure 34
0002
0003
1000
0000
0100
0000
2200
0000
,  // measure 35
3300
1000
0010
2020
,  // measure 36
3030
0000
0001
0000
0010
0100
0000
0010
,  // measure 37
0100
2000
3000
0001
,  // measure 38
0100
0020
0030
0100
,  // measure 39
0010
2000
3000
0001
,  // measure 40
1000
0000
0001
0000
0010
0100
0000
0010
,  // measure 41
0100
0000
1100
0000
0012
0000
1000
1003
,  // measure 42
0000
0001
0100
0202
,  // measure 43
0303
0001
0010
0022
,  // measure 44
0033
0000
1000
0000
0010
0100
0000
0010
,  // measure 45
0100
0000
0101
0000
2010
0000
0001
3001
,  // measure 46
0000
1000
0100
0022
,  // measure 47
0033
0001
0100
2020
,  // measure 48
3030
0000
1000
0000
0010
0100
0000
0001
,  // measure 49
1000
2002
0000
0000
,  // measure 50
3003
0000
1000
0100
1000
0000
0100
0000
,  // measure 51
0010
0000
0001
0010
0001
0000
0010
0000
,  // measure 52
0001
0000
0100
0010
1000
0000
0010
0000
,  // measure 53
1000
0002
0010
2003
,  // measure 54
0010
0000
3001
0100
0001
0000
0100
0000
,  // measure 55
0010
0000
1000
0010
1000
0000
0010
0000
,  // measure 56
1000
0000
0100
0010
0001
0000
0010
0000
,  // measure 57
0001
1000
0001
2002
,  // measure 58
3003
1000
0010
2000
,  // measure 59
0010
0000
0001
0000
3100
0000
1000
0100
,  // measure 60
1000
0100
2000
0001
,  // measure 61
3010
0000
1010
0000
0000
0000
1000
0100
,  // measure 62
0010
0001
0010
0002
,  // measure 63
0010
0000
1000
0000
0103
0000
0001
0100
,  // measure 64
0001
0100
0002
1000
,  // measure 65
0013
1100
0000
0101
,  // measure 66
0000
1000
0010
0100
,  // measure 67
0001
1000
0100
0010
,  // measure 68
0001
1000
0010
0100
,  // measure 69
0001
2000
3200
0320
,  // measure 70
0032
1003
0000
0000
,  // measure 71
0000
0001
0100
1000
;

//---------------dance-single - ----------------
#NOTEDATA:;
#CHARTNAME:;
#STEPSTYPE:dance-single;
#DESCRIPTION:;
#CHARTSTYLE:;
#DIFFICULTY:Beginner;
#METER:3;
#RADARVALUES:0.186940,0.243609,0.082300,0.131681,0.000000,159.000000,149.000000,10.000000,16.000000,0.000000,0.000000,0.000000,0.000000,0.000000,0.186940,0.243609,0.082300,0.131681,0.000000,159.000000,149.000000,10.000000,16.000000,0.000000,0.000000,0.000000,0.000000,0.000000;
#CREDIT:;
#OFFSET:-0.695000;
#BPMS:0.000000=152.000000
;
#STOPS:;
#DELAYS:;
#WARPS:;
#TIMESIGNATURES:0.000000=4=4
;
#TICKCOUNTS:0.000000=4
;
#COMBOS:0.000000=1
;
#SPEEDS:0.000000=1.000000=0.000000=0
;
#SCROLLS:0.000000=1.000000
;
#FAKES:;
#LABELS:0.000000=Song Start
;
#NOTES:
0000
0000
0000
0000
,
0000
0000
0000
0000
,
0000
0000
0000
0000
,
0000
0000
0000
0000
,
0000
0000
0000
0000
,
0001
0000
0100
0000
,
0010
0000
1000
0000
,
0100
0000
0010
0000
,
0002
0000
0003
0000
,
0001
0001
0001
0000
,
0100
0100
0100
0000
,
0010
0010
0010
0000
,
1000
0000
0001
0000
,
1000
1000
1000
0000
,
0100
0100
0100
0000
,
0010
0010
0010
0000
,
0200
0000
0300
0000
,
0010
0000
0001
0000
,
0010
0000
0001
0000
,
0100
0000
1001
0000
,
0100
0000
1001
0000
,
0010
0000
1000
0000
,
0010
0000
1000
0000
,
0100
0000
1001
0000
,
0100
0000
1000
1000
,
1000
0000
0010
0000
,
0100
0100
0100
0000
,
0010
0000
1000
0000
,
0002
0003
1000
0000
,
0001
0000
0010
0000
,
0100
0100
0100
0000
,
0010
0000
0001
0000
,
2000
0000
3000
0000
,
0001
0000
0000
0000
,
0100
0000
0000
0000
,
0010
0000
0000
0000
,
1000
0000
0001
0000
,
1000
1000
1000
0000
,
0100
0000
0010
0000
,
0100
0100
0100
0000
,
1000
0000
0001
0001
,
0001
0000
0000
0000
,
1000
0000
0001
0000
,
0100
0100
0100
0000
,
0220
0330
2002
3003
,
1000
1000
1000
0000
,
0100
0000
0010
0000
,
0100
0100
0100
0000
,
0220
0330
2002
3003
,
0001
0001
0001
0000
,
0100
0000
0010
0000
,
0100
0100
0100
0000
,
2002
0000
3003
0000
,
1000
0000
0100
0000
,
1000
0000
0100
0000
,
0001
0000
0100
0000
,
0001
0000
0100
0000
,
1000
0000
0010
0000
,
1000
0000
0010
0000
,
0001
0000
0010
0000
,
0001
0000
0010
0000
,
1000
0000
0010
0010
,
0010
0000
1000
0000
,
1000
0000
0100
0100
,
0100
0000
1001
0000
,
0001
0000
0010
0010
,
0010
0000
0001
0000
,
0001
0000
0100
0100
,
0200
0000
0300
0000
,
0000
0100
0000
0100
,
0000
0010
0000
0010
,
0000
1000
0000
1000
,
0000
0001
0002
0000
,
0003
0000
0000
0000
,
1001
0000
0000
0000
;

//---------------dance-single - Kakko E----------------
#NOTEDATA:;
#CHARTNAME:;
#STEPSTYPE:dance-single;
#DESCRIPTION:Kakko E;
#CHARTSTYLE:;
#DIFFICULTY:Edit;
#METER:16;
#RADARVALUES:0.790084,0.915284,0.403272,0.419732,1.094596,672.000000,617.000000,49.000000,51.000000,35.000000,3.000000,0.000000,0.000000,0.000000,0.790084,0.915284,0.403272,0.419732,1.094596,672.000000,617.000000,49.000000,51.000000,35.000000,3.000000,0.000000,0.000000,0.000000;
#CREDIT:;
#NOTES:
0000
0000
0000
0000
,
0000
0000
0000
0000
,
0000
0000
0000
0000
,
0000
0000
0000
0000
,
0000
0000
0000
0000
,
0001
0000
1000
0010
0000
0000
1010
0000
0M00
0010
0001
0000
1000
0000
0010
0000
,
1000
0100
0000
0010
0000
0000
0011
0000
0M00
0010
1000
0000
0001
0000
0010
0000
,
0001
0100
0000
0010
0000
0000
1010
0000
0M00
0010
0001
0000
1000
0010
0000
0100
,
0001
0000
0000
0000
0000
0000
0000
0000
1001
0000
0000
0001
0010
0100
1000
0000
,
0001
0000
0100
1000
0000
0000
1100
0000
000M
1000
0010
0000
0100
0000
0001
0000
,
1000
0100
0000
0001
0000
0000
0101
0000
M000
0001
0010
0000
0100
0000
1000
0000
,
0001
0100
0000
1000
0000
0000
1100
0000
000M
1000
0010
0000
0100
0001
0000
1000
,
0100
0010
0000
0100
0010
0000
0011
0000
0M00
0010
1000
0001
0010
0100
1000
0001
,
1000
0000
0010
0001
0000
0000
0011
0000
M000
0001
0100
0000
0010
0000
1000
0000
,
0001
0010
0000
1000
0000
0000
1010
0000
000M
1000
0100
0000
0010
0000
0001
0000
,
1000
0010
0000
0001
0000
0000
0011
0000
M000
0001
0100
0000
0010
1000
0000
0001
,
0010
0100
0000
0100
0000
0000
0110
0000
0000
1000
0010
0100
0001
0000
0000
0000
,
2000
0100
0000
0100
0000
3001
0010
0100
1000
0000
00M0
0000
0101
0000
0000
0002
,
0000
0100
0000
0100
0000
1003
0010
0100
0001
0000
00M0
0000
1100
0000
0000
0000
,
0002
0010
0000
1000
0000
0103
0010
0100
1000
0000
000M
0000
1010
0000
0000
2000
,
0000
0010
0000
0001
0000
3100
0010
0100
0001
0000
M000
0000
0011
0000
0000
0000
,
2000
0010
0000
0010
0000
3001
0100
0010
1000
0000
0M00
0000
0011
0000
0000
0002
,
0000
0010
0000
0010
0000
1003
0100
0010
0001
0000
0M00
0000
1010
0000
0000
0000
,
0002
0100
0000
1000
0000
0013
0100
0010
1000
0000
000M
0000
1100
0000
0000
2000
,
0000
0100
0000
0001
0000
3010
0100
0010
0002
0000
0023
0000
1030
0000
0000
0000
,
0001
0010
0000
0001
0010
0000
0000
0100
1000
0010
1000
0000
0010
0000
0000
0100
,
0010
1000
0000
1000
0001
0000
1000
0100
0000
0010
0100
0020
1000
0000
0000
0000
,
0031
0010
0000
0100
1000
0000
0000
0001
1000
0000
1000
0010
0100
0000
0001
1000
,
0100
0000
0000
0000
0010
0000
0000
0000
0010
0000
0000
0000
0100
0000
0000
0000
0000
0000
0000
0000
0000
0011
0000
0000
0000
0000
0000
0001
0000
0000
0010
0000
0000
0001
0000
0000
0100
0000
0000
0000
0000
0000
0000
0000
0000
1010
0000
0000
,
0000
0010
0000
1000
0010
0000
0000
0100
0001
0010
0001
0000
0010
0000
0000
0100
,
0010
0001
0000
0001
1000
0000
0001
0100
0000
0010
0100
0020
0001
0000
0000
0000
,
1030
0010
0000
0100
0001
0000
0000
1000
0001
0000
0001
0010
0100
0000
1000
0010
,
0200
0000
0000
0000
0000
0000
0000
0000
0310
0000
0000
0000
0000
0000
0010
0000
1001
0000
0000
0000
1000
0100
0000
0000
0010
0000
0001
1000
0001
0000
0100
0000
,
0110
0000
0000
0000
0010
0000
1000
0000
0100
0000
0000
0000
0000
0000
0010
0000
1001
0000
0000
0000
0001
0100
0000
0000
0001
1000
0001
0020
0000
0000
0130
1000
,
0001
0000
0100
0010
0000
0000
0000
0000
2000
0000
0000
0000
0000
0000
3020
0000
0000
0000
0000
0000
0032
0000
0000
0000
M003
0000
0000
0000
0001
0000
0100
0000
,
0001
0000
0100
0000
2000
000M
3000
1000
0010
0100
0001
0000
1000
0000
0001
1000
,
0001
0000
0010
0000
1000
0000
0001
0000
0100
0000
1000
0001
0000
0001
0100
0010
,
0100
0000
0010
0000
0220
0000
0330
0000
1000
0001
1000
0000
0100
0000
0010
0000
,
0001
1000
0001
0000
1002
0000
0000
0000
0103
0010
1000
0000
0000
0000
1000
0010
,
0100
0000
0001
0000
2001
0000
0000
3100
0010
0001
0010
0000
0100
0000
1000
0001
,
1000
0000
0010
0000
0100
0000
0001
0000
1000
0000
0100
0010
0000
0100
0010
0001
,
1000
0010
0021
0000
0100
0000
1000
1030
,
0010
1000
0100
0010
0002
0000
0000
0023
0000
0000
2030
0000
300M
0000
1000
0100
,
1000
0000
0100
0000
0002
M000
0003
0001
0010
0100
1000
0000
0001
0000
1000
0001
,
1000
0000
0010
0000
0001
0000
1000
0000
0100
0000
0001
1000
0000
1000
0100
0010
,
0100
0010
1020
0000
0100
0000
0001
0031
,
0010
0001
0100
0010
2000
0000
0000
3020
0000
0000
0032
0000
M003
0000
0001
0100
,
0001
0000
0010
0000
2000
000M
3000
1000
0100
1000
0100
0000
0010
0000
0001
1000
,
0001
0000
0100
0000
0010
0000
1000
0000
0001
0000
0010
0100
0000
0010
0100
1000
,
0001
0000
0000
0000
0000
0000
0200
0000
0000
0000
0000
0000
0010
0000
0000
0000
0010
0000
0000
0000
0010
0000
0000
0000
0310
0000
0000
0000
0000
0000
0000
0000
0000
0110
0000
0000
0000
0000
0000
1000
0000
0000
0001
0000
0000
1000
0000
0000
,
0100
0000
0000
0000
0020
0001
0000
0001
0000
0000
0130
1000
0000
1100
00M0
0100
,
0001
1000
0010
0000
0200
0001
0000
0001
0000
0000
0310
1000
0000
1010
0M00
0010
,
0001
1000
0100
0000
0010
0001
0000
1002
0000
0000
0103
1000
0000
1100
000M
1000
,
0010
0100
0001
0000
2000
0001
0000
0001
0000
3100
0010
0100
0000
0000
0110
0000
,
0010
0001
1000
0000
0020
1000
0000
1000
0000
0000
0130
0001
0000
0101
00M0
0100
,
1000
0001
0010
0000
0200
1000
0000
1000
0000
0000
0310
0001
0000
0011
0M00
0010
,
1000
0001
0100
0000
0010
1000
0000
2001
0000
0000
3100
0001
0000
0101
M000
0001
,
0010
0100
1000
0000
0002
1000
0003
0001
0100
0010
1000
0100
0010
0001
0000
1001
,
0000
0001
0100
0010
1000
0001
0000
0001
0010
0000
0100
0010
2000
0000
300M
0000
,
1000
0100
2000
0000
300M
0000
1000
0000
0010
0100
0010
0000
0001
0000
0010
0001
,
1000
0001
0100
0000
0100
0000
0010
1000
0010
1000
0010
0100
2000
0000
300M
0000
,
2010
0000
3001
0000
0012
0000
1003
0000
0010
0100
0001
0000
0001
0000
0001
0000
,
1000
0100
0010
0000
0001
1000
0000
1000
0010
0000
0100
0010
0002
0000
M003
0000
,
0001
0100
0002
0000
M003
0000
0001
0000
0010
0100
0010
0000
1000
0000
0010
1000
,
0001
1000
0100
0000
0100
0000
0010
0001
0010
0001
0010
0100
0002
0000
M003
0000
,
0012
1003
2010
0001
0000
0001
0001
0001
,
3001
1000
0100
0010
0100
0000
0010
0000
0011
0000
0000
0000
1000
0100
0000
0010
,
0001
0000
0000
1000
0000
0000
0001
0100
0010
0000
1000
0100
0010
0100
0010
0000
,
0001
0100
0000
0010
0100
0000
0010
0000
1010
0000
0000
0000
0001
0100
0000
0010
,
1000
0000
0000
0001
0000
0001
0010
0100
1000
0001
1000
0000
0001
0100
0010
1000
,
0001
1000
0100
0010
0100
0000
0000
0000
0000
0000
0000
0000
0000
0000
0000
0000
,
0000
0000
1111
1000
1111
1000
1111
0000
;

//---------------dance-single - ----------------
#NOTEDATA:;
#CHARTNAME:;
#STEPSTYPE:dance-single;
#DESCRIPTION:;
#CHARTSTYLE:;
#DIFFICULTY:Medium;
#METER:10;
#RADARVALUES:0.457355,0.501930,0.279822,0.427962,0.197521,389.000000,355.000000,34.000000,52.000000,0.000000,0.000000,0.000000,0.000000,0.000000,0.457355,0.501930,0.279822,0.427962,0.197521,389.000000,355.000000,34.000000,52.000000,0.000000,0.000000,0.000000,0.000000,0.000000;
#CREDIT:;
#NOTES:
// measure 0
0000
0000
0000
0000
,  // measure 1
0000
0000
0000
0000
,  // measure 2
0000
0000
0000
0000
,  // measure 3
0000
0000
0000
0000
,  // measure 4
0000
0000
0000
0000
,  // measure 5
0001
0000
0000
0001
0000
0000
0001
0000
0000
0000
1000
0000
0100
0000
0000
0000
,  // measure 6
1000
0000
0000
1000
0000
0000
1000
0000
0000
0000
0001
0000
0100
0000
0000
0000
,  // measure 7
0001
0000
0000
0001
0000
0000
0001
0000
0000
0000
1000
0000
0100
0000
0000
0000
,  // measure 8
0110
0000
1001
1001
,  // measure 9
2000
0000
0000
0010
0000
0000
0010
0000
0000
0000
3001
0000
1000
0000
0000
0000
,  // measure 10
0002
0000
0000
0010
0000
0000
0010
0000
0000
0000
1003
0000
0001
0000
0000
0000
,  // measure 11
2000
0000
0000
0010
0000
0000
3001
0000
0000
0000
1001
0000
0000
0000
0001
0000
,  // measure 12
0010
0100
1000
0001
0000
0001
1000
0000
,  // measure 13
0002
0000
0000
0100
0000
0000
0100
0000
0000
0000
1003
0000
0001
0000
0000
0000
,  // measure 14
2000
0000
0000
0100
0000
0000
0100
0000
0000
0000
3001
0000
1000
0000
0000
0000
,  // measure 15
0002
0000
0000
0100
0000
0000
1003
0000
0000
0000
1001
0000
0000
0000
1000
0000
,  // measure 16
0200
0000
0000
0000
0300
0010
0001
0000
,  // measure 17
2000
0000
0000
0010
0000
0000
0001
0000
3001
0000
0000
0000
1001
0000
0000
0002
,  // measure 18
0000
0000
0000
0010
0000
0000
1000
0000
1003
0000
0000
0000
1001
0000
0000
0000
,  // measure 19
0002
0000
0000
0100
0000
0000
0010
0000
0013
0000
0000
0000
0011
0000
0000
2000
,  // measure 20
0000
0000
0000
0100
0000
0000
0010
0000
3010
0000
0000
0000
1010
0000
0000
0000
,  // measure 21
0002
0000
0000
0100
0000
0000
1000
0000
1003
0000
0000
0000
1001
0000
0000
2000
,  // measure 22
0000
0000
0000
0100
0000
0000
0001
0000
3001
0000
0000
0000
1001
0000
0000
0000
,  // measure 23
2000
0000
0000
0010
0000
0000
0100
0000
3100
0000
0000
0000
1100
0000
0000
0002
,  // measure 24
0000
0000
0000
0010
0000
0000
0103
0000
0020
0000
2030
0000
3001
0000
0000
0000
,  // measure 25
2000
0100
3002
0010
,  // measure 26
1003
0000
0010
0000
1000
0000
0000
0001
0000
0000
0010
0000
0001
0000
0000
0000
,  // measure 27
2000
0000
0010
0000
3001
0100
0010
1000
,  // measure 28
0002
0000
0000
0000
0010
0000
0000
1003
0000
0000
0100
0000
0010
0000
0000
0001
,  // measure 29
0000
0002
0000
0000
0100
0000
0000
0000
2003
0000
0000
0000
0010
0000
0000
0000
,  // measure 30
3001
0000
0010
0000
0001
0000
0000
1000
0000
0000
0010
0000
1000
0000
0000
0000
,  // measure 31
0002
0000
0010
0000
1003
0100
0010
0001
,  // measure 32
0200
0000
0310
0000
1010
0001
1000
0100
,  // measure 33
0110
0000
0010
0000
0011
1000
0002
0203
,  // measure 34
0320
0000
1030
0000
0001
0000
0000
0002
0000
0000
0010
0000
0000
0000
1000
0000
,  // measure 35
1003
0000
0000
0000
1000
0000
0000
2000
0000
0000
0100
0000
0000
0000
0001
0000
,  // measure 36
3001
0000
1000
0010
0100
0002
0000
0013
,  // measure 37
0100
1000
0002
0000
1003
0000
0001
0100
,  // measure 38
0010
0100
0002
0000
1003
0100
0000
0100
,  // measure 39
0010
0100
2000
0000
3001
0000
0200
0000
,  // measure 40
0310
0000
1000
0010
0100
0002
0000
1003
,  // measure 41
0100
0010
0011
0000
1100
0000
1000
0001
,  // measure 42
0100
0000
0010
0000
1000
0000
0000
2000
0000
0000
0010
0000
0000
0000
0001
0000
,  // measure 43
3001
0000
0000
0000
0001
0000
0000
0002
0000
0000
0100
0000
0000
0000
1000
0000
,  // measure 44
1003
0000
0001
0010
0100
2000
0000
3001
,  // measure 45
0100
0010
1010
0000
0101
0000
0001
1000
,  // measure 46
0100
0000
0010
0000
0001
0000
0000
1000
0000
0000
0002
0000
0000
0000
0100
0000
,  // measure 47
0100
0000
0000
0000
1003
0000
0000
0001
0000
0000
2000
0000
0000
0000
0100
0000
,  // measure 48
0100
0000
3001
0100
0010
2000
0000
3100
,  // measure 49
0010
0100
2002
0000
0000
0000
0000
0000
,  // measure 50
3003
0000
0000
0000
1000
0000
0000
0010
0000
0000
0100
0000
0000
0010
0000
0000
,  // measure 51
1010
0000
0000
0000
1000
0000
0000
0100
0000
0000
0010
0000
0000
0100
0000
0000
,  // measure 52
1100
0000
0000
0000
1000
0000
0000
0001
0000
0000
0100
0000
0000
0010
0000
0000
,  // measure 53
1000
0000
0001
0000
1000
0000
0000
0100
0000
0000
1001
0000
0000
0000
1000
0000
,  // measure 54
0010
0000
0100
0000
0001
0000
0000
0010
0000
0000
0100
0000
0000
0010
0000
0000
,  // measure 55
0011
0000
0000
0000
0001
0000
0000
0100
0000
0000
0010
0000
0000
0100
0000
0000
,  // measure 56
0101
0000
0000
0000
0001
0000
0000
1000
0000
0000
0100
0000
0000
0010
0000
0000
,  // measure 57
0001
0000
1000
0000
0001
0000
0000
0100
0000
0000
0010
0000
1010
0000
0000
0000
,  // measure 58
1001
0000
1100
0000
0001
0010
2000
0000
,  // measure 59
3010
0002
0000
2003
0000
0100
0100
0000
,  // measure 60
3001
1000
0001
0000
0001
0100
1000
0000
,  // measure 61
0100
0010
1000
0002
0000
0010
0010
0000
,  // measure 62
0013
0001
1000
0000
1000
0010
0002
0000
,  // measure 63
0013
2000
0000
3002
0000
0100
0100
0000
,  // measure 64
1003
0001
1000
0000
1000
0100
0001
0000
,  // measure 65
0100
0010
0001
2000
0000
0001
3001
0100
,  // measure 66
0010
1000
0001
0000
0011
0000
1000
0000
,  // measure 67
1010
0000
0000
0001
0000
0000
0001
0000
0011
0000
0000
0000
1000
0000
0010
0000
,  // measure 68
0100
0001
1000
0000
1100
0000
0001
0000
,  // measure 69
0101
0000
0000
1000
0000
0000
0001
0000
1001
0000
0000
0000
0001
0000
0010
0000
,  // measure 70
0100
1000
0001
0000
0000
0000
0000
0000
,  // measure 71
0000
0000
1000
0010
0001
0010
1000
0000
;

//---------------dance-single - ----------------
#NOTEDATA:;
#CHARTNAME:;
#STEPSTYPE:dance-single;
#DESCRIPTION:;
#CHARTSTYLE:;
#DIFFICULTY:Hard;
#METER:13;
#RADARVALUES:0.606672,0.679082,0.362122,0.436192,0.584333,516.000000,472.000000,44.000000,53.000000,0.000000,0.000000,0.000000,0.000000,0.000000,0.606672,0.679082,0.362122,0.436192,0.584333,516.000000,472.000000,44.000000,53.000000,0.000000,0.000000,0.000000,0.000000,0.000000;
#CREDIT:;
#NOTES:
0000
0000
0000
0000
,
0000
0000
0000
0000
,
0000
0000
0000
0000
,
0000
0000
0000
0000
,
0000
0000
0000
0000
,
0002
0000
0000
0010
0000
0000
0103
0000
0000
0000
0001
0000
0100
0000
0010
0000
,
2000
0000
0000
0010
0000
0000
3100
0000
0000
0000
1000
0000
0100
0000
0010
0000
,
0002
0000
0000
0010
0000
0000
0103
0000
0000
0000
0010
0000
1000
0000
0001
0000
,
0010
0000
0000
0000
0000
0000
0000
0000
1001
0000
0000
1001
0000
0000
1001
0000
,
1000
0000
0020
0100
0000
0000
0001
0000
0000
0130
0010
0000
1000
0000
1000
0000
,
0001
0020
0000
0100
0000
0000
1000
0000
0000
0130
0010
0000
0001
0000
0001
0000
,
1000
0010
0000
0100
0000
0000
0101
0000
0000
0000
1100
0000
0000
1000
0000
0100
,
0000
1000
0000
0010
0000
0000
1001
0000
0000
0001
0010
0000
0100
0000
1000
0000
,
0001
0000
0200
0010
0000
0000
1000
0000
0000
0310
0100
0000
0001
0000
0001
0000
,
1000
0200
0000
0010
0000
0000
0001
0000
0000
0310
0100
0000
1000
0000
1000
0000
,
0001
0100
0000
0010
0000
0000
1010
0000
0000
0000
0011
0000
0000
0001
0000
0100
,
0000
0001
0000
0010
0000
0000
1001
0000
0000
0000
1000
0001
1000
0000
0000
0000
,
0001
0100
0000
0001
0000
0100
0001
0000
0010
0000
0000
0000
1001
0000
0000
1000
,
0000
0100
0000
1000
0000
0100
1000
0000
0010
0000
0000
0000
1001
0000
0000
0000
,
1000
0001
0000
0010
0000
0100
0010
0000
1000
0000
0000
0000
0011
0000
0000
0001
,
0000
1000
0000
0010
0000
0100
0010
0000
0001
0000
0000
0000
1010
0000
0000
0000
,
0001
0010
0000
0001
0000
0010
0001
0000
0100
0000
0000
0000
1001
0000
0000
1000
,
0000
0010
0000
1000
0000
0010
1000
0000
0100
0000
0000
0000
1001
0000
0000
0000
,
1000
0001
0000
0100
0000
0010
0100
0000
1000
0000
0000
0000
0101
0000
0000
0001
,
0000
1000
0000
0100
0000
0010
0100
0000
0002
0000
0203
0000
1300
0000
0000
0000
,
0001
0100
0000
0001
0100
0000
0000
0010
1000
0000
0100
0000
1000
0000
0000
0000
,
0001
0010
0000
0001
0010
0000
0000
0100
0000
0000
1000
0000
1001
0000
0000
0000
,
0001
0100
0000
0001
0100
0000
0000
0010
1000
0000
0100
0000
0001
0000
0100
0000
,
2000
0000
0000
0000
3001
0000
0000
0100
0000
0000
0010
0000
1001
0000
0000
1000
,
0000
0100
0000
1000
0100
0000
0000
0010
0001
0000
0100
0000
0001
0000
0000
0000
,
1000
0010
0000
1000
0010
0000
0000
0100
0000
0000
0001
0000
1001
0000
0000
0000
,
1000
0100
0000
1000
0100
0000
0000
0010
0001
0000
0100
0000
1000
0000
0100
0000
,
0002
0000
0000
0000
1003
0000
0000
1000
1010
0000
0001
0000
1000
0100
1000
0100
,
0010
0000
0000
0000
0100
0000
0000
0000
1000
0000
0000
0000
0000
0000
0001
0000
0011
0000
0000
0000
1000
0000
0000
0000
0001
0000
0000
0200
0000
0000
0301
0000
,
0100
0000
0000
1010
0000
0000
0000
0000
2000
0000
0000
0000
0000
0000
3200
0000
0000
0000
0000
0000
0320
0000
0000
0000
0000
0000
1030
0000
0010
0000
0000
0000
,
0100
0000
1000
0000
0002
0000
0000
2003
0000
0000
3010
0000
0100
0000
1000
0000
,
0100
0010
1000
0001
1000
0200
0000
0310
,
0001
1000
2002
3003
0001
0100
0001
1000
,
0100
0000
1000
0000
2020
0000
3030
0000
0001
0100
0001
0000
0000
0000
1000
0000
,
0100
0000
0010
0000
0022
0000
0033
0000
1000
0100
1000
0000
0002
0000
0000
0203
,
0000
0310
1000
0001
0010
0200
0000
0310
,
0100
0010
1020
0000
0100
0000
0001
0031
,
1000
0001
1000
0000
0002
0000
0000
0203
0000
0000
0320
0000
0000
0031
0010
0000
,
0100
0000
0001
0000
2000
0000
0000
3002
0000
0000
0013
0000
0100
0000
0001
0000
,
0100
0010
0001
1000
0001
0200
0000
0310
,
0100
0010
0021
0000
0100
0000
1000
1030
,
0001
1000
0001
0000
2000
0000
0000
3200
0000
0000
0320
0000
0000
1030
0010
0000
,
0100
0000
1000
0000
0002
0000
0000
2003
0000
0000
3001
0000
0100
0000
0010
0000
,
0001
0010
0100
0001
1000
0200
0000
0310
,
0001
1000
2002
0000
0000
0000
0000
0000
,
3003
0000
0000
0000
1000
0010
0000
1010
0000
0000
0001
1000
0000
0010
0000
1000
,
0100
0000
0010
0000
0100
1000
0000
1100
0000
0000
0001
1000
0000
0100
0000
1000
,
0010
0000
0100
0000
0001
1000
0000
1001
0000
0000
1000
0001
0000
0010
0000
0100
,
1000
0000
0001
0000
0200
0000
0000
0310
0000
1000
0001
1000
0000
0000
1001
0000
,
0001
0000
1000
0000
0001
0010
0000
0011
0000
0000
1000
0001
0000
0010
0000
0001
,
0100
0000
0010
0000
0100
0001
0000
0101
0000
0000
1000
0001
0000
0100
0000
0001
,
0010
0000
0100
0000
1000
0001
0000
1001
0000
0000
0001
1000
0000
0010
0000
0100
,
0001
0000
1000
0000
0100
0010
0000
0010
0000
0000
0100
0000
1100
0000
0000
0011
,
0000
1001
1001
0000
0001
2000
0010
0000
,
3001
2000
0001
0000
0000
0000
0100
0000
0000
0000
3001
0000
0100
0000
0010
0000
,
1000
0001
1000
0000
0200
0000
0000
0000
0310
0000
0001
0000
0200
0000
0000
0000
,
1000
1000
0010
0301
0000
0001
0100
0010
,
1000
0001
1000
0000
0001
0000
0000
0000
1000
0000
0002
0000
0010
0000
0000
0000
,
1003
0002
1000
0000
0000
0000
0100
0000
0000
0000
1003
0000
0100
0000
0010
0000
,
0001
1000
0001
0000
0200
0000
0000
0000
0310
0000
1000
0000
0200
0000
0000
0000
,
0001
0001
0010
2300
0000
0001
0001
3001
,
1000
0010
0100
0000
0001
0000
0000
0000
0011
0000
0000
0000
1000
0000
0000
0000
,
1010
0000
0000
0001
0000
0000
0001
0000
0011
0000
0000
0000
1000
0000
0010
0000
,
0100
0001
1000
0000
1100
0000
0001
0000
,
0101
0000
0000
1000
0000
1000
0010
0000
0100
0000
0001
0000
0010
0000
0100
0000
,
1000
0001
0100
0000
0000
0000
0000
0000
,
0000
0000
1000
0100
0001
0010
1000
0000
;
