#VERSION:0.83;
#TITLE:yumeiro parade;
#SUBTITLE:;
#ARTIST:Yunomi feat. Momobako & miko;
#TITLETRANSLIT:;
#SUBTITLETRANSLIT:;
#ARTISTTRANSLIT:;
#GENRE:;
#ORIGIN:;
#CREDIT:;
#BANNER:yumeiro parade.png;
#BACKGROUND:yumeiro parade-bg.png;
#PREVIEWVID:;
#JACKET:yumeiro parade-jacket.png;
#CDIMAGE:;
#DISCIMAGE:;
#LYRICSPATH:;
#CDTITLE:;
#MUSIC:yumeiro parade.ogg;
#OFFSET:0.713609;
#SAMPLESTART:48.757687;
#SAMPLELENGTH:12.000000;
#SELECTABLE:YES;
#BPMS:0.000=160.000;
#STOPS:;
#DELAYS:;
#WARPS:;
#TIMESIGNATURES:0.000=4=4;
#TICKCOUNTS:0.000=4;
#COMBOS:0.000=1;
#SPEEDS:0.000=1.000=0.000=0;
#SCROLLS:0.000=1.000;
#FAKES:;
#LABELS:0.000=Song Start;
#BGCHANGES:;
#KEYSOUNDS:;
#ATTACKS:
;

//---------------dance-single - ----------------
#NOTEDATA:;
#CHARTNAME:;
#STEPSTYPE:dance-single;
#DESCRIPTION:;
#CHARTSTYLE:;
#DIFFICULTY:Hard;
#METER:15;
#RADARVALUES:0.657972,0.782183,0.206744,0.149315,0.407746,401.000000,383.000000,18.000000,13.000000,0.000000,0.000000,0.000000,0.000000,0.000000,0.657972,0.782183,0.206744,0.149315,0.407746,401.000000,383.000000,18.000000,13.000000,0.000000,0.000000,0.000000,0.000000,0.000000;
#CREDIT:Daniel Van Eden;
#NOTES:
0000
0000
0000
0000
,
0000
0000
0000
0000
,
0000
0000
0000
0000
,
0000
0000
0000
0000
,
0000
0000
0000
0000
,
0000
0000
0000
0000
,
0000
0000
0000
0000
,
0000
0000
0000
0000
,
0000
0000
0000
0000
,
1001
0000
0001
0010
0001
1000
0001
0100
,
0000
0100
0010
1000
0000
0001
0010
0100
,
0000
0000
0010
0100
0010
0001
0010
1000
,
0000
0001
0100
1000
0000
1000
0001
0100
,
0020
1000
0001
0230
,
1000
0301
0010
0100
,
2000
0000
0100
0000
0001
0000
3010
0100
,
0001
0000
0010
0100
0010
0000
0001
0000
1000
0000
0001
0000
0100
0000
0010
0000
,
1000
0000
1000
0010
1000
0001
1000
0100
,
0010
0100
0010
0001
0001
0100
0010
1000
,
0001
0000
0100
0010
0100
0001
1000
0010
,
0010
0000
1000
0000
0001
0000
0010
0000
0010
0000
0000
0010
0001
0000
1000
0000
,
0100
0000
0012
0000
0103
0000
2010
0001
,
3001
0000
0000
0000
0102
0000
1000
0000
1003
0000
0000
1000
0010
0000
0100
0000
,
0010
2010
3100
2002
,
0000
0000
0000
3003
,
0001
0000
0100
0000
0100
0000
0010
0000
1000
0000
0001
0010
0001
0000
0000
0000
,
1000
0000
0001
0100
0010
0000
0100
0000
0010
0000
0001
0000
0010
0000
1000
0000
,
1000
0000
0100
0000
0001
0000
0100
0000
0010
0000
0100
1000
0100
0000
0000
0000
,
1000
0000
0010
1000
0010
0000
0100
0000
0001
0000
1000
0000
0100
0000
0010
0000
,
0001
0000
0100
0000
1000
0000
0100
0000
0001
0000
0010
0001
1000
0000
0010
0000
,
1000
0000
0100
0010
0100
0000
0010
0001
0010
0000
0100
1000
0001
0000
0100
0000
,
0001
0000
1000
0000
0001
0000
1000
0010
1000
0100
0010
0001
0010
0000
0100
0000
,
0110
0000
0000
0000
0010
0000
0100
1000
0001
0100
0010
0000
1000
0000
0000
0000
,
0010
0000
0001
0000
1000
0000
0100
0000
0001
0000
0010
0100
0001
0000
0100
0000
,
1000
0000
0010
0100
1000
0000
0100
0010
1000
0000
0100
0010
0001
0000
0000
0000
,
0010
0000
1000
0000
0001
0000
0100
0000
1000
0000
0010
0100
1000
0000
0100
0000
,
0001
0000
0000
0000
0000
0000
0000
0000
0000
0000
0000
0000
0000
0000
0000
0000
0000
0000
0000
0000
0010
0000
0000
0000
0000
0000
0000
0000
0000
0000
0000
0000
0000
1000
0000
0000
0000
0000
0000
0000
0000
0000
0000
0000
0000
0000
0000
0000
0001
0000
0000
0000
0000
0000
0000
0000
0000
0000
0000
0000
0000
0000
0000
0000
0000
0000
0000
0000
0100
0000
0000
0000
0000
0000
0000
0000
0000
0000
0000
0000
0000
1000
0000
0000
0000
0000
0000
0000
0000
0000
0000
0000
0000
0000
0000
0000
0010
0000
0000
0000
0000
0000
0000
0000
0000
0000
0000
0000
0000
0000
0000
0000
0000
0000
0000
0000
0001
0000
0000
0000
0000
0000
0000
0000
0000
0000
0000
0000
0000
0010
0000
0000
0000
0000
0000
0000
0000
0000
0000
0000
0000
0000
0000
0000
1000
0000
0000
0000
0000
0000
0000
0000
0000
0000
0000
0000
0000
0000
0000
0000
0000
0000
0000
0000
0000
0000
0000
0000
0000
0000
0000
0000
0000
0000
0000
0000
0000
0000
0000
0000
0000
0000
0000
0000
0000
0000
0000
0000
0000
0000
0000
0000
,
0100
0000
0001
0000
1000
0000
0010
0000
0001
0000
0100
0010
1000
0000
0010
0000
,
0100
0000
0001
0010
0100
0000
0001
0100
1000
0000
0010
0100
0001
0000
0000
0000
,
0100
0000
1000
0000
0001
0000
0010
0000
1000
0000
0100
0010
0001
0000
0010
0001
,
0010
0000
0000
0100
0000
0000
1000
0000
0000
0001
0000
0000
1000
0000
0000
0000
0010
0000
0000
0000
0100
0000
0000
0000
1000
0000
0000
0000
0000
0000
0100
0000
0000
0000
0000
0000
0001
0000
0000
0000
0000
0000
0000
0000
0000
0000
0000
0000
,
0011
0000
0000
0010
0100
0000
1000
0000
1010
0000
0000
0010
0100
0000
0001
0000
,
0100
0000
0000
0010
0100
0000
0001
0000
0100
1000
0000
1000
0100
0000
0001
0000
,
1001
0000
0000
1000
0010
0000
0100
0000
0101
0000
0000
0001
1000
0000
0100
0000
,
1100
0000
0000
0000
0011
0000
0010
0100
1000
0000
0001
0000
0100
0000
0000
0000
,
1010
0000
0000
0010
0100
0000
0001
0000
0011
0000
0000
0010
0100
0000
1000
0000
,
0100
0000
0000
0010
0100
0000
1000
0000
0100
0001
0000
0001
0100
0000
1000
0000
,
1020
0000
0130
0021
0130
0000
2002
0000
,
3003
0000
1000
0100
1000
0000
0001
0100
1000
0000
0100
0000
0001
0000
0010
0000
,
0001
0000
1000
0000
0100
0000
0010
0000
0001
0000
1000
0001
0010
0000
0000
0000
,
0001
0000
1000
0001
0100
0000
0001
1000
0100
0000
0010
0100
0010
0000
0001
0000
,
1000
0000
0001
0000
0100
0000
0010
0000
1000
0000
0001
1000
0010
0000
0000
0000
,
1000
0000
0000
0000
0000
0000
0001
0000
0000
1000
0000
0000
0100
0000
0000
0000
0000
0000
1000
0000
0000
0001
0000
0000
1000
0000
0000
0000
0001
0000
0000
0000
0010
0000
0000
0000
1000
0000
0000
0000
0000
0000
0010
0000
0000
0000
0000
0000
,
0001
0000
1000
0000
0010
0000
0100
0000
0001
0000
1000
0100
0010
0000
0000
0000
,
0001
0000
1000
0010
0100
0000
0001
0100
0010
0000
1000
0001
1000
0000
0100
0000
,
1000
0000
0001
0000
0100
0000
0010
0000
1000
0000
0001
0010
0100
0000
0010
0100
,
0010
0000
0000
0001
0000
0000
1000
0000
0000
0010
0000
0000
1000
0000
0000
0000
0100
0000
0000
0000
0010
0000
0000
0000
1000
0000
0000
0000
0000
0000
0010
0000
0000
0000
0000
0000
0001
0000
0000
0000
0000
0000
0000
0000
0000
0000
0000
0000
;

//---------------dance-single - ----------------
#NOTEDATA:;
#CHARTNAME:;
#STEPSTYPE:dance-single;
#DESCRIPTION:;
#CHARTSTYLE:;
#DIFFICULTY:Medium;
#METER:12;
#RADARVALUES:0.446305,0.521455,0.218230,0.103372,0.028715,272.000000,253.000000,19.000000,9.000000,0.000000,0.000000,0.000000,0.000000,0.000000,0.446305,0.521455,0.218230,0.103372,0.028715,272.000000,253.000000,19.000000,9.000000,0.000000,0.000000,0.000000,0.000000,0.000000;
#CREDIT:Daniel Van Eden;
#NOTES:
0000
0000
0000
0000
,
0000
0000
0000
0000
,
0000
0000
0000
0000
,
0000
0000
0000
0000
,
0000
0000
0000
0000
,
0000
0000
0000
0000
,
0000
0000
0000
0000
,
0000
0000
0000
0000
,
0000
0000
0000
0000
,
2000
0000
0000
0000
0010
0000
3001
0020
,
0000
0100
0031
0100
,
0002
0000
0000
0000
0100
0000
1003
0200
,
0000
0000
0010
0000
1300
0000
0001
1000
,
0001
1000
1010
0010
,
0100
0110
1010
1000
,
1000
0001
0011
0010
,
0100
0000
0100
0100
0010
0001
1000
0001
,
0100
0010
0100
0100
,
0010
0000
1000
0001
1000
0000
0100
0000
,
0010
0000
0001
0000
1000
0000
0010
1000
,
0010
0000
0000
0000
0100
0000
0001
0000
0100
0000
0000
0100
0000
0000
0001
0000
,
0010
0000
0100
0000
1000
0000
0001
1000
,
0010
0000
0000
0000
0010
0000
0100
0000
0001
0000
0000
0001
0000
0000
1000
0000
,
0100
0010
0001
0200
,
0000
0000
0000
0000
0000
0310
1000
0001
,
0020
0000
0000
1000
0000
0000
0001
0000
,
0000
0130
0000
1000
0100
0010
0001
0100
,
0200
0000
0000
1000
0000
0000
0001
0000
,
0000
0310
0000
1000
0001
1000
0010
0001
,
0010
0000
1000
0000
0001
0100
0010
0000
,
1000
0000
0001
0000
1000
0100
0010
0000
,
0001
0010
0001
0001
1000
0010
1000
1000
,
0100
0000
0010
0100
0001
0100
1000
0000
,
1001
0000
0001
0010
0100
0000
1100
0000
,
0100
0010
0001
0010
0100
1000
0001
0000
,
1001
0000
1000
0010
0100
0000
0101
0000
,
0100
0000
0000
0000
0000
0000
0000
0000
0000
0000
0000
0001
0000
0000
0000
0000
0010
0000
0000
0000
0000
0000
0000
0000
0000
0000
0000
0100
0000
0000
0000
0000
1000
0000
0000
0000
0000
0000
0000
0000
0000
0000
0000
0010
0000
0000
0000
0000
0100
0000
0000
0000
0000
0000
0000
0000
0000
0000
0000
0000
0000
0000
0000
0000
,
0100
0010
1000
0100
0010
0001
1000
0001
,
0010
0100
0010
0100
0001
0100
1000
0000
,
0010
0100
0001
0010
0100
1000
0001
1000
,
0100
0000
0110
0000
1001
0000
0001
0100
,
0001
0000
1000
0010
1000
0100
0010
0001
,
1000
0000
1000
0100
0001
0000
0001
0100
,
1000
0000
0001
0010
0001
1000
0010
0100
,
0001
0000
0101
0000
1010
0000
1000
0010
,
1000
0000
0011
0000
0001
0010
0100
1000
,
0001
0000
0001
0010
1000
0000
0010
0000
,
0011
0000
0000
1100
0000
0000
2002
0000
,
0000
0000
3003
1000
0010
0100
0001
0100
,
0001
0000
0000
0001
0010
0000
0100
0000
,
0010
0100
0010
0001
1000
0100
0010
0001
,
1000
0000
0000
1000
0010
0000
0100
0000
,
0010
0100
0010
1000
0001
0000
1001
0000
,
1000
0000
0000
1000
0100
0000
0010
0000
,
0001
0100
1000
0100
0001
0010
0100
1000
,
0001
0000
0000
0001
0100
0000
0010
1000
,
0001
0010
0110
1001
;

//---------------dance-single - ----------------
#NOTEDATA:;
#CHARTNAME:;
#STEPSTYPE:dance-single;
#DESCRIPTION:;
#CHARTSTYLE:;
#DIFFICULTY:Easy;
#METER:7;
#RADARVALUES:0.246124,0.325910,0.080401,0.022972,0.000000,150.000000,143.000000,7.000000,2.000000,0.000000,0.000000,0.000000,0.000000,0.000000,0.246124,0.325910,0.080401,0.022972,0.000000,150.000000,143.000000,7.000000,2.000000,0.000000,0.000000,0.000000,0.000000,0.000000;
#CREDIT:Daniel Van Eden;
#NOTES:
0000
0000
0000
0000
,
0000
0000
0000
0000
,
0000
0000
0000
0000
,
0000
0000
0000
0000
,
0000
0000
0000
0000
,
0000
0000
0000
0000
,
0000
0000
0000
0000
,
0000
0000
0000
0000
,
0000
0000
0000
0000
,
1000
0000
0100
0010
,
0000
0010
0001
1000
,
0001
0000
0100
0010
,
0000
0010
1000
0001
,
0020
0000
0100
0100
,
0000
0000
0031
0000
,
1000
0020
0100
0100
,
0000
0000
1030
0000
,
0001
0000
1000
0100
,
1000
0010
1000
0001
,
1000
0000
0001
0010
,
0001
1000
0001
0100
,
0100
0000
0010
0100
,
0001
0010
0010
0100
,
1000
0000
0001
1000
,
0000
0000
0000
0000
,
1001
0000
0000
1000
0000
0000
1000
0000
,
0000
0000
0010
1000
,
1000
0000
0000
0001
0000
0000
0001
0000
,
0000
0000
0010
0100
,
0010
0000
0001
0000
,
1000
0000
0010
0000
,
0100
0100
0010
0010
,
1000
0000
0001
0000
,
1001
0000
0000
0001
0000
0000
0010
0000
,
0100
0010
0100
1000
,
1010
0000
0000
1000
0000
0000
0001
0000
,
1000
0100
0001
0100
,
1100
0000
0000
1000
0000
0000
0010
0000
,
0100
0010
0100
0001
,
0011
0000
0000
0001
0000
0000
0010
0000
,
0100
0010
0001
0000
,
1000
0010
0100
0001
,
1000
0000
0001
0010
,
0001
0001
1000
0010
,
1000
1000
0100
0000
,
1000
0001
0100
0001
,
0010
0100
0010
0001
,
1000
0000
0000
0001
0000
0000
1001
0000
,
0000
0000
1000
0100
,
0010
0000
0001
0000
,
0100
0001
0100
0010
,
1000
0000
0001
0000
,
1000
0100
0010
0010
,
0001
0000
1000
0000
,
0100
1000
0010
0100
,
0001
0000
1000
0000
,
0001
0010
0100
1001
;

//---------------dance-single - ----------------
#NOTEDATA:;
#CHARTNAME:;
#STEPSTYPE:dance-single;
#DESCRIPTION:;
#CHARTSTYLE:;
#DIFFICULTY:Beginner;
#METER:2;
#RADARVALUES:0.167365,0.260728,0.080401,0.000000,0.000000,102.000000,95.000000,7.000000,0.000000,0.000000,0.000000,0.000000,0.000000,0.000000,0.167365,0.260728,0.080401,0.000000,0.000000,102.000000,95.000000,7.000000,0.000000,0.000000,0.000000,0.000000,0.000000,0.000000;
#CREDIT:Daniel Van Eden;
#NOTES:
// measure 0
0000
0000
0000
0000
,  // measure 1
0000
0000
0000
0000
,  // measure 2
0000
0000
0000
0000
,  // measure 3
0000
0000
0000
0000
,  // measure 4
0000
0000
0000
0000
,  // measure 5
0000
0000
0000
0000
,  // measure 6
0000
0000
0000
0000
,  // measure 7
0000
0000
0000
0000
,  // measure 8
0000
0000
0000
0000
,  // measure 9
0010
0000
0000
0000
,  // measure 10
1000
0000
0000
0000
,  // measure 11
0001
0000
0000
0000
,  // measure 12
0010
0000
0010
0000
,  // measure 13
0100
0000
0000
0000
,  // measure 14
1000
0000
0000
0000
,  // measure 15
0001
0000
0000
0000
,  // measure 16
0100
0000
0010
0000
,  // measure 17
0100
0000
0100
0000
,  // measure 18
0001
0000
0000
0000
,  // measure 19
0001
0000
0001
0000
,  // measure 20
1000
0000
1000
0000
,  // measure 21
0100
0000
0010
0000
,  // measure 22
0100
0000
0000
0000
,  // measure 23
0010
0000
0010
0000
,  // measure 24
0001
0000
0000
0000
,  // measure 25
1001
0000
0000
0000
,  // measure 26
0000
0000
1000
1000
,  // measure 27
1000
0000
0000
0000
,  // measure 28
0000
0000
0001
0001
,  // measure 29
0001
0000
0010
0000
,  // measure 30
0100
0000
0100
0000
,  // measure 31
1000
0000
0010
0000
,  // measure 32
0100
0000
1001
0000
,  // measure 33
0001
0000
0010
0000
,  // measure 34
0001
0001
0001
0000
,  // measure 35
1000
0000
0010
0000
,  // measure 36
1000
1000
1000
0000
,  // measure 37
0100
0000
0010
0000
,  // measure 38
0100
0100
0100
0000
,  // measure 39
0010
0000
0001
0000
,  // measure 40
1000
0000
1001
0000
,  // measure 41
0001
0001
0001
0000
,  // measure 42
0010
0000
0100
0000
,  // measure 43
0010
0010
0010
0000
,  // measure 44
0100
0000
0110
0000
,  // measure 45
0100
0100
0100
0000
,  // measure 46
1000
0000
0001
0000
,  // measure 47
1000
0000
0000
0001
0000
0000
1001
0000
,  // measure 48
0000
0000
0000
0000
,  // measure 49
1000
0000
0010
0000
,  // measure 50
0100
0100
0100
0000
,  // measure 51
0010
0000
1000
0000
,  // measure 52
0001
0001
0001
0000
,  // measure 53
0010
0000
0001
0000
,  // measure 54
1000
1000
1000
0000
,  // measure 55
0010
0000
0100
0000
,  // measure 56
0001
1000
1001
1001
;
