#VERSION:0.83;
#TITLE:the 7TH route;
#SUBTITLE:;
#ARTIST:ZST "Mr. Keymaster";
#TITLETRANSLIT:;
#SUBTITLETRANSLIT:;
#ARTISTTRANSLIT:;
#GENRE:;
#ORIGIN:;
#CREDIT:;
#BANNER:the 7TH route.png;
#BACKGROUND:the 7TH route-bg.png;
#PREVIEWVID:;
#JACKET:the 7TH route-jacket.png;
#CDIMAGE:;
#DISCIMAGE:;
#LYRICSPATH:;
#CDTITLE:;
#MUSIC:the 7TH route.ogg;
#OFFSET:-2.417000;
#SAMPLESTART:21.909925;
#SAMPLELENGTH:15.000000;
#SELECTABLE:YES;
#BPMS:0.000=200.000;
#STOPS:;
#DELAYS:;
#WARPS:;
#TIMESIGNATURES:0.000=4=4;
#TICKCOUNTS:0.000=4;
#COMBOS:0.000=1;
#SPEEDS:0.000=1.000=0.000=0;
#SCROLLS:0.000=1.000;
#FAKES:;
#LABELS:0.000=Song Start;
#BGCHANGES:;
#KEYSOUNDS:;
#ATTACKS:
;

//---------------dance-single - ----------------
#NOTEDATA:;
#CHARTNAME:;
#STEPSTYPE:dance-single;
#DESCRIPTION:;
#CHARTSTYLE:;
#DIFFICULTY:Hard;
#METER:16;
#RADARVALUES:0.720051,0.822519,0.276943,0.458933,0.114733,637.000000,602.000000,35.000000,58.000000,0.000000,0.000000,0.000000,0.000000,0.000000,0.720051,0.822519,0.276943,0.458933,0.114733,637.000000,602.000000,35.000000,58.000000,0.000000,0.000000,0.000000,0.000000,0.000000;
#CREDIT:;
#NOTES:
0000
0000
0000
0000
,
0000
0000
0000
0000
,
0000
0000
0000
0000
,
0000
0000
0000
0000
,
0000
0000
0000
0000
,
0000
0000
0000
0000
,
0000
0000
0000
0000
,
0000
0000
1000
0100
0010
0100
0001
0000
,
0100
1000
0100
0010
0100
0001
0100
1000
,
0001
0100
0010
0100
1000
0000
0100
0001
,
0100
0010
0100
1000
0100
0001
1000
0010
,
0100
0010
0001
0000
0010
1000
0010
0100
,
0010
0001
0010
1000
0001
0010
0100
0010
,
1000
0000
0010
0001
0010
0100
0010
1000
,
0010
0100
1000
0001
0020
0000
0032
0000
,
0203
0000
0310
2000
0000
3100
0000
2002
,
0000
0000
3003
0000
0001
0001
0100
0010
,
1000
0001
0010
0100
0000
0100
1000
0000
,
0101
0000
1100
0000
1000
1000
0001
0010
,
0100
0010
0001
0200
0000
0000
0310
0000
,
0010
0000
1000
0000
0001
0000
0010
0001
0010
0000
0010
0000
0001
0000
0100
0000
,
0010
1000
0100
0001
0000
0100
1000
0000
,
0011
0000
1010
0000
1000
0001
0010
0100
,
1000
0010
0100
0002
0003
0010
0002
0000
,
0003
0000
1000
0000
0010
1000
0010
1000
0010
0000
0100
0000
0010
0000
1000
0000
,
0001
0010
0100
0010
0000
0010
0001
0000
,
0101
0000
1100
0000
0100
0010
0100
1000
,
0001
0100
0010
1000
0000
1000
0001
0100
,
0001
0010
0001
0000
0020
0032
2003
3200
,
0000
0000
0300
1000
0000
1000
0001
1000
,
0100
1000
0010
0000
0020
2030
3002
0203
,
0000
0000
0300
0001
0000
0001
0010
0000
,
1001
0000
1000
0100
0020
0032
2003
3200
,
0000
0000
0300
1000
0000
1000
0001
0000
,
0011
0000
0110
0000
1001
0000
0001
0100
,
0001
1000
0100
1000
0000
0100
0220
0000
,
0000
0000
0330
0000
0100
1000
0100
0010
,
0001
0010
0100
1000
0001
0010
0100
1000
,
0001
0100
0001
0100
0001
1000
0010
1000
,
0001
0000
0100
0000
0010
0000
1000
0000
0010
0000
1000
0001
1000
0000
0100
0000
,
1000
0001
1000
0100
0010
0001
1000
0100
,
0010
0001
0010
0100
1000
0001
1000
0001
,
1000
0010
0100
0001
1000
0010
0100
0010
,
1000
0000
0001
0000
0010
0000
0100
0000
1000
0001
1000
0001
1000
0000
0100
0000
,
1000
0001
0010
1000
0010
0100
1000
0010
,
0100
0001
0100
0010
1000
0001
0100
0010
,
0001
0000
0010
0000
1000
0000
0001
0000
0010
0000
0001
0000
1000
0000
0100
0010
,
0100
1000
0001
0100
0001
1000
0010
0001
,
0010
0100
0001
0010
0100
1000
0100
0010
,
0001
1000
0001
1000
0001
0000
0010
0100
,
0010
0000
0100
0000
0010
0000
0000
0000
0100
0000
1000
0000
0001
0100
0001
0100
,
0001
1000
0010
2010
0000
0000
3001
1000
,
0100
1000
0001
0102
0000
0000
0013
0100
,
1000
0001
0010
0021
0000
0000
0130
1000
,
0010
0000
0100
0000
0001
0000
1002
0000
0000
0000
0000
0000
0103
0000
0010
0100
,
0010
1000
0001
0012
0000
0013
0100
0010
,
0001
1000
0100
2100
0000
3100
0010
0001
,
1000
0001
1000
1020
0000
1030
0001
0010
,
0100
0010
0001
2001
0000
0000
3100
0100
,
2000
0000
3100
1000
0001
0020
0001
0000
,
0100
1000
0100
0031
,
2001
0000
3001
1000
0010
0200
0001
0000
,
0010
1000
0010
0301
,
1002
0000
0103
0001
1000
0100
1000
0001
,
0010
0001
1000
0010
1000
0100
0010
0000
,
2001
0000
3100
0010
0001
1000
0010
0100
,
0001
1000
0001
0010
0200
0000
1300
0001
,
0022
0000
0000
0033
,
0001
0000
0000
1000
0000
0000
0010
0000
1000
0000
0001
0000
0200
0000
0000
0000
,
0300
0000
0001
0010
0002
0000
0000
0000
0003
0000
0001
0000
0010
0000
2000
0000
,
0000
3000
0010
0001
0200
0000
0300
0010
,
0200
0000
0000
0000
0300
0000
0100
0001
1000
0000
0100
0000
0010
0000
0001
0000
,
0010
0100
0010
0100
2000
0000
0000
0000
3010
0000
2000
0000
0000
0000
3000
0000
,
0001
0000
1000
0000
0001
0100
0001
0000
1000
0000
0010
0000
1000
0100
1000
0000
,
0001
0010
0001
0000
1020
0000
0000
1000
,
0000
1000
0000
0000
1000
0000
0000
0000
0030
0000
0000
0000
1000
0000
0001
0000
,
0010
0000
0001
0000
1000
0000
0001
0000
1000
0100
1000
0001
0100
0000
0001
0000
,
1000
0000
0010
0000
0100
0000
0010
0000
1000
0001
1000
0001
0020
0000
0000
0000
,
0130
0020
0000
0031
0020
0000
0030
0010
,
0100
1000
0001
0100
0110
0000
0010
0220
,
0000
0000
0000
0000
0330
0000
0000
0000
1000
0010
1000
0000
0001
0100
0001
0000
,
1000
0100
0010
0000
0001
0010
0100
0000
1000
0000
0010
0000
0100
0000
0010
0000
,
1000
0000
1000
0001
0010
0100
0010
0001
,
0000
0001
1000
0100
0010
0100
1000
0000
,
1000
0000
0001
0000
0100
0000
0010
0000
0100
0000
0001
0000
0000
0000
0001
0100
,
0010
1000
0100
0001
0100
0000
1000
0010
,
0001
0010
0100
0001
0000
0001
0010
0001
,
0100
1000
0100
0000
0001
0010
1000
0010
,
0100
1000
0001
0100
0010
0000
1010
0010
,
0100
0001
0010
0000
0010
0001
0100
0010
,
1000
0100
0010
0000
0011
0010
0100
1000
,
0010
0000
0000
0000
0010
0000
1000
0000
0100
0000
0010
0001
0010
0000
0100
0000
,
1001
0000
0101
0001
0100
0010
1000
0000
,
1000
0001
0010
0100
0010
0001
0011
0000
,
1100
1000
0100
0010
0001
0000
0001
0100
,
0101
0000
0001
0000
1000
0000
1100
0000
0000
0000
0100
0000
1000
0000
0001
1000
,
0020
0000
0230
0000
0302
0000
1003
0200
,
0000
0310
0002
0000
0000
0000
0000
0000
,
0000
0000
0000
0000
,
0003
0000
0000
0000
;

//---------------dance-single - ----------------
#NOTEDATA:;
#CHARTNAME:;
#STEPSTYPE:dance-single;
#DESCRIPTION:;
#CHARTSTYLE:;
#DIFFICULTY:Medium;
#METER:12;
#RADARVALUES:0.471368,0.587514,0.181991,0.530147,0.007913,417.000000,394.000000,23.000000,67.000000,0.000000,0.000000,0.000000,0.000000,0.000000,0.471368,0.587514,0.181991,0.530147,0.007913,417.000000,394.000000,23.000000,67.000000,0.000000,0.000000,0.000000,0.000000,0.000000;
#CREDIT:;
#NOTES:
0000
0000
0000
0000
,
0000
0000
0000
0000
,
0000
0000
0000
0000
,
0000
0000
0000
0000
,
0000
0000
0000
0000
,
0000
0000
0000
0000
,
0000
0000
0000
0000
,
0000
1000
0100
0020
,
0000
0130
0000
1000
0000
0020
0000
0000
,
0130
0000
0001
0000
0020
0000
0000
0031
,
0000
0100
0000
0020
0000
0000
1030
0000
,
0001
0000
0021
0000
0000
0031
0000
1000
,
0000
1020
0000
0000
0130
0000
0001
0000
,
2100
0000
0000
3100
0000
1000
0000
0102
,
0000
0003
1000
0001
0010
0000
0100
0000
,
1000
0000
0001
0100
0000
0010
0000
2002
,
0000
3003
1000
0010
,
0100
0001
0000
0010
0000
0010
0100
0000
,
1000
0001
0100
0010
,
0100
0001
1000
0020
0000
0000
0030
0000
,
1000
1001
0001
0010
,
0100
1000
0000
0002
0000
0203
0000
0000
,
0310
0100
0001
0001
,
0001
1000
0100
0010
0000
0001
0020
0000
,
0000
0130
1000
0100
,
1000
0001
0000
0010
0000
0010
0100
0000
,
1000
0001
0001
0100
,
0010
0000
1000
0001
0000
0000
0101
0000
,
1001
0000
1100
0000
0200
0000
0300
0010
,
0002
0000
0003
1000
0000
1000
0100
0000
,
0010
0000
0001
0000
0200
0000
0300
0010
,
2000
0000
3000
0001
0000
0001
0100
0000
,
0110
0000
0010
1000
0002
0000
0003
0100
,
2000
0000
3000
0100
0000
0000
0110
0000
,
1001
1100
0011
0100
,
0100
0000
0100
1000
0100
0010
0002
0000
,
0000
0003
1000
0100
,
0010
0000
0010
0001
0000
0010
0000
0100
,
0000
0100
1000
0000
0010
0000
0100
0000
,
0100
0001
0000
0100
0000
0010
0000
0010
,
1000
0000
0001
0000
0100
0000
0100
0010
,
0000
1000
0000
0100
0000
1000
0001
0000
,
1000
0000
0100
0000
0100
0010
0000
1100
,
0000
0011
0000
0001
1000
0000
0001
0000
,
0100
0000
1000
0000
0100
0010
0000
1000
,
0000
0001
0000
0001
1000
0000
0100
0000
,
0001
0000
0100
0010
0000
0001
1000
0000
,
0010
1000
0001
0011
,
0010
0001
0000
1000
0001
0000
0100
0000
,
0220
0000
0000
0330
,
0001
0000
0001
0000
0100
0001
1000
0010
,
1000
0000
0100
2000
0000
0000
3100
0000
,
1000
0000
0001
0020
0000
0000
0031
0000
,
0100
0000
0001
2000
0000
0000
3001
0000
,
1000
0000
0010
0100
0000
0100
0010
0000
,
1000
0000
0100
2000
0000
0000
3001
0000
,
1000
0000
0100
0020
0000
0000
0031
0000
,
1000
0000
0010
0200
0000
0000
0301
0000
,
1000
0000
0001
0020
0000
0000
0030
0000
,
0001
0000
0001
0100
0010
2000
0000
0000
,
3001
0100
1000
0100
,
0001
0000
0001
0010
0100
2000
0000
0000
,
3001
0010
1000
0010
,
0001
0000
0001
0010
0100
0010
0001
0100
,
0010
0100
0001
1000
0002
0000
0003
0000
,
1000
0000
1000
0010
0100
0010
1000
0100
,
0010
0100
1000
0000
2002
0000
3003
0000
,
0220
0000
0000
0330
,
1000
0000
0000
0001
0000
0000
0010
0000
0001
0000
0000
0000
0202
0000
0000
0000
,
0003
0000
0020
0000
0330
0000
0010
1000
,
0000
0000
0100
1000
0002
0000
0003
0010
,
0002
0003
1000
0010
,
0100
0001
2000
0000
3010
2000
0000
0000
,
3001
0000
0010
0100
0010
0000
0001
0010
,
0100
2000
3000
0000
0020
0000
0030
0010
,
0000
0010
0000
0000
0020
0000
0000
0000
0030
0000
0000
0000
0100
0000
0010
0000
,
1000
0001
0100
0001
0020
0000
0130
0010
,
0001
1000
0100
1000
0002
0000
2003
3000
,
0010
2000
3000
0100
2000
0000
3000
0001
,
0100
0001
0010
0000
0200
0300
0010
0200
,
0000
0000
0300
0000
1000
0100
1000
0001
,
0010
0001
0100
0010
2000
0000
0010
0000
,
0001
0000
0000
0001
0000
0010
3000
0001
,
1000
0200
0010
1000
,
0000
1000
0000
0010
0300
1000
0100
0000
,
0020
0000
0100
0000
0001
0000
0000
0001
,
0000
0100
0030
0001
0010
0000
0002
0000
,
0003
0100
0010
1000
0010
0000
0100
0001
,
0010
0001
1000
0000
0001
0010
0200
0000
,
1000
0000
0310
0000
0010
0200
0000
1000
,
0000
0310
0000
0010
0002
0000
0100
0000
,
1003
0000
1000
0002
0000
0100
0000
1003
,
0000
0001
2000
0000
0010
0000
3001
0000
,
0001
2000
0000
0010
0000
3001
0000
1000
,
0020
0000
0130
0000
1001
0000
0001
0020
,
0000
0130
0000
1001
0000
1000
0010
0100
,
0001
0000
0010
0000
0100
0000
1000
0100
,
0000
1000
0020
0000
0000
0000
0000
0000
,
0000
0000
0000
0000
,
0030
0000
0000
0000
;

//---------------dance-single - ----------------
#NOTEDATA:;
#CHARTNAME:;
#STEPSTYPE:dance-single;
#DESCRIPTION:;
#CHARTSTYLE:;
#DIFFICULTY:Easy;
#METER:9;
#RADARVALUES:0.345896,0.504035,0.134515,0.340244,0.003956,306.000000,289.000000,17.000000,43.000000,0.000000,0.000000,0.000000,0.000000,0.000000,0.345896,0.504035,0.134515,0.340244,0.003956,306.000000,289.000000,17.000000,43.000000,0.000000,0.000000,0.000000,0.000000,0.000000;
#CREDIT:;
#NOTES:
0000
0000
0000
0000
,
0000
0000
0000
0000
,
0000
0000
0000
0000
,
0000
0000
0000
0000
,
0000
0000
0000
0000
,
0000
0000
0000
0000
,
0000
0000
0000
0000
,
0000
2000
3000
0100
,
0000
1000
0000
0010
0000
1000
0000
0000
,
0002
0000
0003
0000
0100
0000
0000
0001
,
0000
0010
0000
0001
0000
0000
2000
0000
,
3000
0000
0010
0000
0000
0100
0000
0010
,
0000
1000
0000
0000
0002
0000
0003
0000
,
0010
0000
0000
0100
0000
0010
0000
0001
,
0000
1000
0010
0100
,
0001
0000
0000
0110
0000
0000
2002
0000
,
3003
0000
1000
0100
,
0010
0001
0000
0010
0000
0000
0100
0000
,
1000
0001
1000
0010
,
0100
0000
0100
0001
0000
0000
0101
0000
,
0000
1100
1000
0100
,
0010
0100
0000
0010
0000
0001
0000
0000
,
0100
0010
1000
1000
,
0001
0000
0100
0010
0000
0000
1010
0000
,
0000
0011
0001
0100
,
0010
1000
0000
0010
0000
0000
0100
0000
,
0001
1000
0001
0010
,
0100
0000
0100
1000
0000
0000
1100
0000
,
0000
0000
0011
0000
0001
0000
0000
0001
,
1000
0000
0001
0100
,
0010
0000
1000
0000
1000
0000
0000
1000
,
0001
0000
1000
0100
,
0010
0000
0001
0000
0001
0000
0000
0100
,
0010
0000
0000
0010
0000
0000
1000
0000
,
0001
0010
0110
0110
,
0110
0000
0100
1000
0000
0001
0020
0000
,
0000
0030
0001
0100
,
0010
1000
0010
0100
,
0001
1000
0100
0010
,
0001
0010
0100
1000
,
0010
0100
0001
0010
,
0100
1000
0010
0100
,
0010
1000
0100
0010
,
0001
0100
0010
1000
,
1000
0100
0100
1000
,
0010
0100
0001
0001
,
0100
0100
0001
0010
,
0100
1000
0010
1000
,
0001
0010
0100
0010
,
2002
0000
0000
3003
,
0001
0100
1000
0010
,
0001
0000
0001
0200
0000
0000
0300
0000
,
0010
0000
0100
0002
0000
0000
0003
0000
,
1000
0000
1000
0200
0000
0000
0300
0000
,
0010
0000
0001
2000
0000
0000
3000
0000
,
0001
0000
0001
0200
0000
0000
0300
0000
,
0010
0000
0100
0002
0000
0000
0003
0000
,
1000
0000
1000
0200
0000
0000
0300
0000
,
0010
0000
0001
2000
0000
0000
3000
0000
,
0001
0000
0010
0000
0100
0020
0000
0000
,
0030
0100
0000
0100
,
1000
0000
0010
0000
0100
0020
0000
0000
,
0030
0100
0000
0100
,
0001
0010
0001
1000
,
0010
0000
1000
0001
2000
0000
3000
0000
,
1000
0010
1000
0001
,
0010
0100
0010
0000
0002
0000
0003
0000
,
2002
0000
0000
3003
,
2000
3000
0100
0020
,
0030
0200
0300
2000
,
3000
0001
0002
0003
,
0200
0300
0010
1000
,
0100
0000
0010
0000
0000
0020
0000
0000
,
0030
0001
0001
1000
,
1000
0000
0000
0000
0020
0000
0030
1000
,
0000
0001
0000
0000
0200
0000
0000
0000
0300
0000
0000
0000
0001
0000
0000
0000
,
1000
0100
0010
0001
,
1000
0010
0100
0001
,
0000
1000
0000
0000
1001
0000
0000
0000
,
0001
0000
0100
0000
0010
0000
0000
0020
,
0000
0030
0100
0001
,
1000
0100
0020
0000
,
0000
0000
0000
0030
,
0100
1000
0002
0000
0000
0000
0000
0000
,
0000
0000
0000
0000
0003
0000
0100
0010
,
2000
0000
0000
0000
,
0000
0000
3000
0000
0100
1000
0020
0000
,
0030
0101
1000
1100
,
0001
0010
0100
2000
,
3000
0000
0100
0000
0000
1000
0000
0010
,
0000
0100
0000
0000
0002
0000
0003
0000
,
0100
0000
0000
0001
0000
0010
0000
0100
,
0000
2000
3000
0010
,
0000
0100
0000
0001
0000
0010
0000
0000
,
0002
0000
0003
0000
0010
0000
0000
0100
,
0000
1000
0000
0010
0000
0000
0100
0000
,
0001
0000
1000
0000
0001
0000
0000
0010
,
0000
2002
0000
0000
,
3003
0000
0000
0000
;

//---------------dance-single - ----------------
#NOTEDATA:;
#CHARTNAME:;
#STEPSTYPE:dance-single;
#DESCRIPTION:;
#CHARTSTYLE:;
#DIFFICULTY:Beginner;
#METER:4;
#RADARVALUES:0.180860,0.269327,0.118690,0.047476,0.000000,160.000000,145.000000,15.000000,6.000000,0.000000,0.000000,0.000000,0.000000,0.000000,0.180860,0.269327,0.118690,0.047476,0.000000,160.000000,145.000000,15.000000,6.000000,0.000000,0.000000,0.000000,0.000000,0.000000;
#CREDIT:;
#NOTES:
// measure 0
0000
0000
0000
0000
,  // measure 1
0000
0000
0000
0000
,  // measure 2
0000
0000
0000
0000
,  // measure 3
0000
0000
0000
0000
,  // measure 4
0000
0000
0000
0000
,  // measure 5
0000
0000
0000
0000
,  // measure 6
0000
0000
0000
0000
,  // measure 7
0000
1001
0000
0000
,  // measure 8
0000
0000
0000
0000
,  // measure 9
1100
0000
0000
0000
,  // measure 10
0000
0000
0000
0101
,  // measure 11
0000
0000
0000
0000
,  // measure 12
0000
0000
0110
0000
,  // measure 13
0000
0000
0000
0000
,  // measure 14
0000
1000
0001
0001
,  // measure 15
1000
0000
0000
0100
0000
0000
0000
0110
,  // measure 16
0000
0000
0001
0000
,  // measure 17
0001
0000
0000
0100
0000
0000
0000
0000
,  // measure 18
0000
0000
0010
0000
,  // measure 19
0010
0000
0000
1000
0000
0000
0000
0000
,  // measure 20
0000
0000
1000
0000
,  // measure 21
1000
0000
0000
0100
0000
0000
0000
0000
,  // measure 22
0000
0000
0010
0000
,  // measure 23
0010
0000
0000
0001
0000
0000
0000
0000
,  // measure 24
0000
0000
1000
0000
,  // measure 25
1000
0000
0000
0010
0000
0000
0000
0000
,  // measure 26
0000
0000
0001
0000
,  // measure 27
0001
0000
0000
0010
0000
0000
0000
0000
,  // measure 28
1000
0000
0001
0000
,  // measure 29
0001
0000
0000
0000
,  // measure 30
0001
0000
1000
0000
,  // measure 31
1000
0000
0000
0000
,  // measure 32
1000
0000
0001
0000
,  // measure 33
0001
0000
1000
0000
,  // measure 34
1000
0000
1001
0000
,  // measure 35
0000
0000
0000
0010
0000
0000
0010
0000
,  // measure 36
0000
0000
1000
0000
,  // measure 37
0000
0000
1000
0000
,  // measure 38
1000
0100
0000
0000
,  // measure 39
0100
0000
0000
0100
,  // measure 40
0010
0000
0000
0000
,  // measure 41
0010
0000
0010
0001
,  // measure 42
0000
0000
0001
0000
,  // measure 43
0000
0000
0000
1000
0000
0000
0001
0000
,  // measure 44
0000
0000
0000
0001
,  // measure 45
0000
0001
0100
0000
,  // measure 46
0000
0100
0000
0000
,  // measure 47
0100
0010
0000
0000
,  // measure 48
0000
0010
0000
0010
,  // measure 49
2000
0000
0000
3000
,  // measure 50
0001
1000
0001
0000
,  // measure 51
1000
0000
0100
0000
,  // measure 52
0010
0000
0100
0000
,  // measure 53
1000
0000
0010
0000
,  // measure 54
0100
0000
0010
0000
,  // measure 55
1000
0000
0001
0000
,  // measure 56
0010
0000
0001
0000
,  // measure 57
1000
0000
0001
0000
,  // measure 58
0100
0000
0001
0000
,  // measure 59
0010
0010
0010
0000
,  // measure 60
0000
0000
0000
0000
,  // measure 61
0100
0100
0100
0000
,  // measure 62
0000
0000
0000
0000
,  // measure 63
1000
0000
0001
0000
,  // measure 64
1000
0000
0000
0000
,  // measure 65
0001
0000
1000
0000
,  // measure 66
1001
0000
0000
0000
,  // measure 67
0020
0000
0000
0030
,  // measure 68
1000
0000
0010
0100
,  // measure 69
0000
0001
0000
0010
,  // measure 70
0000
0100
0100
0000
,  // measure 71
0100
0000
1000
0000
,  // measure 72
0001
1000
0000
0010
,  // measure 73
0000
0110
0000
0000
,  // measure 74
0000
0000
1001
0000
,  // measure 75
0000
1001
0000
0000
,  // measure 76
0001
0000
0001
0000
,  // measure 77
1000
0000
1000
0100
,  // measure 78
0000
0100
0000
0000
0010
0000
0000
0000
,  // measure 79
0000
0000
1000
0000
0001
0000
0000
0001
,  // measure 80
0000
0000
0100
0010
,  // measure 81
0010
0100
0002
0000
,  // measure 82
0000
0000
0003
0000
,  // measure 83
0001
2000
0000
0000
,  // measure 84
0000
3000
0000
0010
,  // measure 85
0200
0000
0000
0000
,  // measure 86
0300
0000
0100
0020
,  // measure 87
0030
1000
0000
0001
,  // measure 88
0000
0010
0000
1001
,  // measure 89
0000
0000
0000
0000
,  // measure 90
0000
0000
0011
0000
,  // measure 91
0000
0000
0000
0000
,  // measure 92
0000
1010
0000
0000
,  // measure 93
0000
0000
0000
0000
,  // measure 94
0110
0000
0000
0000
,  // measure 95
0000
0000
0000
1000
,  // measure 96
0001
0000
0001
0000
1000
0000
0000
0100
,  // measure 97
0000
0110
0000
0000
;
