#TITLE:rottel-the-Mercury;
#ARTIST:sampling masters MEGA;
#BANNER:rottel-the-Mercury.png;
#BACKGROUND:rottel-the-Mercury-bg.png;
#JACKET:rottel-the-Mercury-jacket.png;
#CDTITLE:./CDTITLES/BEATMANIA IIDX.PNG;
#MUSIC:rottel-the-Mercury.ogg;
#SAMPLESTART:6;
#SAMPLELENGTH:15;
#BPMS:0=200,82=100,98=200;
#STOPS:16=0.3,47.5=0.15,48=0.15,110=0.3;

//---------------dance-single - t7r----------------
#NOTES:
     dance-single:
     t7r:
     Beginner:
     5:
     :
0000
0000
0000
0000
,
0000
0000
0000
0000
,
0000
0000
0000
0000
,
0000
0000
0000
0000
,
0000
0000
0000
1000
,
0000
0000
0000
1000
,
0000
0000
0000
0001
,
0000
0000
0000
0001
,
0001
0001
0001
0001
,
0000
0000
0000
0100
,
0000
0000
0000
0010
,
0000
0000
0000
0000
,
0000
0000
1000
0000
,
0000
0000
1000
0000
,
0000
0000
0100
0000
,
0000
0000
0100
0000
,
0000
0000
0010
0000
,
0000
0000
0010
0000
,
0000
0000
0001
0000
,
0000
0000
0001
0000
,
0000
0000
0100
0000
,
0000
0000
0010
0000
,
0000
0000
1000
0000
,
1000
0000
0001
0001
,
0001
0000
1000
0000
,
0000
0000
1000
0000
,
0000
0000
0001
0000
,
0000
0000
0001
0000
,
0000
0100
0000
0000
,
0000
0100
0000
0000
,
0000
0010
0000
0000
,
0000
0010
0000
0000
,
0000
0000
1000
1000
,
1000
0000
1000
1000
,
1000
1000
0000
1000
,
0000
1000
0000
0000
,
0000
0000
0001
0000
,
0001
0000
0001
0000
,
0001
0000
0010
0000
,
0010
0000
0010
0000
,
0010
0000
0100
0000
,
0100
0000
0100
0000
,
0100
0000
1000
0000
,
1000
1000
0000
1000
,
0000
0001
0001
0000
,
0000
0001
0000
0001
,
0000
1000
1000
0000
,
0000
1000
0000
1000
,
0000
0010
0010
0000
,
0000
0010
0000
0010
,
0000
0100
0000
0100
,
0000
0100
0000
0000
,
0000
0010
0000
0000
,
0000
1000
0000
1000
,
0000
1000
0000
0000
,
0000
0100
0000
0100
,
0000
0100
0000
0000
,
0000
0010
0000
0010
,
0000
0010
0000
0000
,
0000
0000
0000
0000
,
0000
0001
0000
0000
,
0000
0001
0000
0000
,
0000
0100
0000
0000
,
0000
0010
0010
0000
,
0000
1000
0000
0000
,
0000
1000
0000
0000
,
0000
1000
0000
1000
,
0000
1000
0000
0000
,
0000
0000
0100
0000
,
0100
0000
0000
0000
,
0000
0000
0010
0000
,
0010
0000
0000
0000
,
0000
0001
0000
0001
,
0000
1000
0000
1000
,
0000
0010
0010
0010
,
0010
0010
0000
0000
,
0000
0100
0100
0000
,
0000
0100
0000
0100
,
0000
0001
0001
0000
,
0000
0001
0000
0001
,
0000
1000
1000
0000
,
0000
1000
0000
1000
,
0000
0001
0000
0010
,
0000
0100
0000
1000
,
0000
0010
0000
0100
,
0000
0001
0000
0000
,
1001
0000
0000
0000
;

//---------------dance-single - t7r----------------
#NOTES:
     dance-single:
     t7r:
     Easy:
     9:
     :
0000
0000
0000
0000
,
0000
0000
0000
0000
,
0000
0000
0000
0000
,
0000
0000
0000
0000
,
0000
0000
0000
1000
,
0001
0100
0001
1000
,
0001
0100
0001
1000
,
0001
0010
0001
0100
,
0100
0100
0100
0001
,
1000
0100
1000
0001
,
1000
1000
0010
1000
,
0001
0000
0010
0000
0001
0000
0000
1000
,
1000
1000
0000
0000
0001
0000
0000
0001
,
0000
0000
0100
0000
0000
0100
0000
0000
,
0010
0000
0010
0000
1000
0000
0000
1000
,
0000
0000
0100
0100
,
0010
0000
0010
0000
0001
0000
0000
0001
,
0000
0000
1000
0000
0000
1000
0000
0000
,
0010
0010
0100
0000
,
0000
0000
0110
0000
,
0000
0000
1000
0000
,
1100
0000
0001
0000
,
0101
0000
0000
0000
1000
1000
0010
0010
,
0100
0100
0001
0001
1000
0100
0010
0001
,
0100
0010
1000
0001
1000
0000
0000
0000
,
1000
0000
0001
1000
,
1001
0001
0100
0110
,
0000
0010
0110
0000
,
0000
0001
0010
0001
,
1000
0001
0010
0001
,
0100
0001
0010
0001
,
1000
0001
0100
1000
,
0100
0010
1000
1010
,
0000
1000
0100
1100
,
0000
0011
0000
1001
,
0000
0000
0110
0000
0000
0100
0000
0100
,
0000
0000
0000
0001
0000
0001
0000
0010
,
0000
0010
0000
0100
0000
0100
0000
1000
,
0000
1000
0001
1000
0000
1000
0000
0010
,
0000
0010
0000
0100
0000
0100
0000
0001
,
0000
0001
1000
0001
0000
0001
0000
1000
,
0000
1000
0000
0100
0000
0100
0000
0010
,
0000
0010
0001
1000
0000
1000
0000
0010
,
0000
0010
0100
0010
0000
0000
1000
1000
,
0000
0001
0100
0001
,
0000
0000
1010
0000
0000
1001
0000
0000
,
1010
1000
0100
1000
,
0000
0000
0011
0000
0000
1001
0000
0000
,
0011
0001
0100
0001
,
0000
0000
1010
0000
0000
1001
0000
0000
,
1010
0000
1000
1000
0000
0000
0001
0001
,
0000
0200
0000
0000
,
0310
1000
0000
0100
,
1100
1000
1000
0001
,
0100
0001
0000
0100
,
0101
0001
0001
0010
,
0010
0100
0000
0100
,
1100
1000
0010
0001
,
0001
0010
0000
1010
,
1000
0001
0010
1000
,
1000
0010
0000
0000
,
0000
0001
0000
0000
,
0000
1001
0000
0000
,
0000
0000
1000
1000
0000
0001
0000
0100
,
0000
0001
1000
0000
0010
0000
1010
0000
,
1000
0001
0010
0011
,
0001
1001
0000
0110
,
0000
0000
0001
1000
0001
0000
0100
0000
,
0110
1000
1010
0000
,
1010
1000
0100
0010
,
0001
0100
0101
0000
,
0101
0001
0010
0100
,
1000
0001
0001
0100
,
0100
1000
1000
0100
,
0100
0000
0001
0010
0001
0000
1001
0000
,
1001
0010
0010
0010
,
0000
1001
1001
1000
,
0100
0000
1100
0000
0000
1010
0000
0000
,
1001
0001
1001
0001
,
0100
0000
0101
0000
0000
0011
0000
0000
,
1001
1000
1010
1000
,
0100
0000
0110
0000
0000
1001
0000
0000
,
1010
0000
0001
0001
0000
0000
1000
1000
,
0000
0000
0010
0010
0000
0000
0100
0100
,
0000
0000
0001
0010
0000
0000
0100
1000
,
0000
0000
0020
0000
0001
0000
0130
0001
,
1000
0000
0000
0000
;

//---------------dance-single - t7r----------------
#NOTES:
     dance-single:
     t7r:
     Medium:
     13:
     :
0000
0000
0000
0000
,
0000
0000
0000
0000
,
0000
0000
0000
0000
,
0000
0000
0000
0000
,
0000
0000
0000
1000
,
0001
0100
0000
0001
1000
0001
0100
0000
,
0001
1000
0000
0001
0100
0001
1000
0000
,
0001
0100
0000
0001
1000
1000
0002
0000
,
0023
0230
2300
3001
,
1000
0100
1000
0001
1000
0100
1000
0000
,
0001
1000
0000
0001
0100
0001
1000
0000
,
0100
1000
0001
1000
0100
1000
0000
0001
,
0001
0001
0100
0010
1000
0000
0100
0010
,
0000
0100
1000
0000
0100
0010
0000
0001
,
0100
0010
1000
0001
0100
0010
0000
0100
,
0001
0000
1000
0001
0010
0200
0000
1300
,
0010
0100
0010
0100
0101
0000
0001
1000
,
0000
1000
0100
0000
1000
0001
0000
0001
,
0010
0001
1000
0001
0200
0000
1000
0000
,
0010
0000
0301
1000
0001
0020
0000
1000
,
1000
0100
0031
0100
,
0110
0000
1000
0001
1001
0000
1000
0000
,
1100
0000
1000
0010
0100
0100
0001
0001
,
0010
0000
0010
0000
0100
0000
0100
0000
1000
0010
1000
0010
0100
0001
0100
0001
,
1000
0100
1000
0100
0010
0001
2000
0000
3001
0000
0010
0000
0000
0000
0001
0000
,
0100
0001
0000
1000
0001
0010
0000
0001
,
0000
1000
1000
1000
0001
0100
0000
0010
,
0100
0001
0000
0010
0100
0000
2000
0000
,
3002
1003
1010
0110
,
0010
1000
0001
0100
0010
0000
0110
0000
,
1000
0100
0010
0000
0110
0000
0011
0000
,
0001
1000
0001
0100
0010
0100
0001
0010
,
0100
1000
0001
0000
0011
0000
1001
0000
,
0001
0001
1000
0000
1010
0000
1001
0000
,
1000
0100
0020
0000
0130
0000
0210
0000
,
1300
0000
0002
0100
0000
0100
0000
1003
,
0001
1000
0100
0001
0000
0100
0000
0110
,
0000
0010
0000
0011
0000
1001
0000
1000
,
0001
0001
1000
0001
0100
1000
0000
0100
,
0000
0110
0000
0010
0010
1000
0001
0001
,
0001
0001
1000
0100
0010
0100
1000
0100
,
0010
0100
0001
0100
0010
0100
0001
0100
,
1000
1000
0001
0100
0010
0100
1000
0100
,
0010
0100
0001
0001
0000
0000
1000
1000
,
0020
0000
1030
0000
0010
0000
0100
1000
,
0000
0100
0001
0000
0010
0100
0000
1000
,
1001
0000
0001
0000
0010
0000
0100
0001
,
0000
0100
0010
0000
0100
1000
0000
0001
,
1001
0000
1000
0000
0100
0000
0010
1000
,
0000
0010
0100
0000
0010
0001
0000
1000
,
1001
0000
1000
1000
0000
0000
0010
0010
,
0000
0000
0200
0000
1000
0000
0310
0100
,
0110
0000
0000
0000
1000
0000
0000
1000
0000
0000
1000
0000
1000
0000
0000
0000
,
1001
0000
0001
0100
0000
0010
0100
0001
,
0010
0000
0000
0000
0001
0000
0000
0001
0000
0000
0001
0000
0001
0000
0000
0000
,
1001
0000
1000
0010
0001
0010
1000
0010
,
0001
0000
0010
0000
0100
0000
0000
0100
0000
0000
0100
0000
0100
0000
0000
0000
,
0110
0000
0010
1000
0000
0001
0010
0100
,
1000
0000
1000
0000
0010
0000
0000
0010
0000
0000
0010
0000
0010
0000
0000
0000
,
0110
0000
0001
0010
0000
1000
0010
0001
,
0000
1000
0001
0000
0000
0000
0000
0000
,
0000
0110
0000
0000
,
0000
1001
0000
0000
,
0000
0000
0100
0100
0000
0110
0000
0010
,
1000
1000
0001
0010
0100
1000
0020
0000
,
0001
0000
1030
0100
0010
0001
0200
0000
,
1000
0310
0000
0110
,
0000
0000
0001
0001
0010
0010
0100
0100
,
1000
1000
0100
0000
1010
0000
0100
0000
,
1010
1000
0100
0000
0010
0000
0002
0000
,
1003
1000
0100
0000
0011
0000
0100
0000
,
0011
0001
0100
0000
0001
0000
2000
0000
,
3002
0000
1003
1000
0100
1000
0001
0001
,
0100
0001
1000
1000
0010
1000
0001
0001
,
0010
0001
0100
1000
0100
0000
0110
0000
,
0110
0001
0001
0002
,
2003
0000
3001
0000
0101
0000
0001
0100
,
1000
0100
0001
0000
0100
0010
0000
0100
,
0101
0000
1000
0000
1100
0000
1000
0100
,
0001
0100
1000
0000
0100
0010
0000
0100
,
1100
0000
1000
0000
1010
0000
1000
0010
,
0001
0010
1000
0000
0010
0100
0000
0001
,
1001
0000
0001
0001
0010
0001
1000
1000
,
0010
1000
0001
0001
0100
0001
1000
1000
,
0100
1000
0001
0001
0010
0001
1000
1000
,
0010
1000
0200
0000
0001
0000
0310
0001
,
1001
0000
0000
0000
;

//---------------dance-single - t7r----------------
#NOTES:
     dance-single:
     t7r:
     Hard:
     16:
     :
0000
0000
0000
0000
,
0000
0000
0000
0000
,
0000
0000
0000
0000
,
0000
0000
0000
0000
,
0000
0000
0000
2000
,
3100
0002
0000
0103
1000
0100
0002
0000
,
0103
0000
2000
0000
0000
0000
3100
0010
0100
0000
0001
0000
0200
0000
0000
0000
,
1300
0200
0000
0301
0100
1000
0010
0001
,
0010
0100
0010
1000
0010
0100
0102
0000
,
0013
1000
0010
0001
0010
1000
0020
0000
,
0031
0000
0020
0000
0000
0000
1030
0010
0100
0000
0010
0000
0002
0000
0000
0000
,
1003
0010
0001
0010
1000
0010
0100
0010
,
1010
0000
0001
0000
0100
0000
0001
1000
0002
0000
0000
0000
0100
0000
2003
0000
,
0000
0100
3001
1000
1000
0002
0000
0010
,
1003
0010
0010
1000
1000
0002
0000
1000
,
0023
0000
0000
0000
0100
0000
0031
0000
0100
0000
0010
0100
0010
0000
0100
0000
,
0001
0010
0001
0010
0001
1000
0001
1000
0002
0000
0100
0000
0100
0000
2003
0000
,
0100
0100
3002
0010
0010
2003
0010
0010
,
3002
0100
0100
1003
0200
0000
0001
0000
,
0320
0000
0031
1000
0020
0001
0000
0130
,
0010
1000
0010
1000
0001
0100
0001
0100
0001
0000
0000
0000
0010
0000
0000
0100
,
1100
0000
0000
0000
1000
0000
0010
0000
1001
0000
0000
0000
1000
0000
0000
0001
,
0101
0000
0001
0010
0200
2300
3200
0302
,
0203
0000
0320
0000
0230
0000
2300
0000
3001
0100
1000
0100
0001
0010
1000
0010
,
0001
0000
0100
0000
0010
1000
0010
1000
0001
0010
0001
0010
0002
0000
0000
0000
1003
0000
0000
0000
0100
0000
0000
0000
0010
0000
0000
0000
0100
0000
0000
0000
,
0001
0100
0010
0100
1000
0010
1010
0000
,
1001
1000
1000
1000
0001
0010
1000
0010
,
0100
0000
0010
0000
0001
0000
0100
0000
0010
0000
0000
0000
1000
0100
1000
0100
,
0020
0000
0031
0100
1000
0100
0010
0100
,
0001
0001
0100
0010
0100
1000
0100
0010
,
1000
0000
0001
0010
0001
0000
0010
0000
1000
0000
0010
0000
0100
0000
0010
0000
,
0001
0001
1000
0100
0001
0100
1000
0010
,
1000
0001
1000
0001
1000
0000
0100
0000
1100
0000
0000
0000
0011
0000
0000
0000
,
1001
0001
0100
0010
1010
0000
1100
0100
,
0010
0000
0001
1000
0002
0000
0000
0000
0010
0000
0000
0000
2003
0000
0000
0000
,
0010
0000
0000
0000
3001
0000
1001
0000
0000
0000
0110
0000
0000
0000
0100
0001
,
1000
0000
0100
1000
0001
0000
0200
0000
1300
0000
0200
0000
0301
0000
0020
0000
,
1030
0020
0031
2000
3010
0002
0013
2000
,
3001
0000
1000
0100
1000
0000
0200
0000
0301
0000
0200
0000
1300
0000
0020
0000
,
0031
0020
1030
0002
0013
2000
3010
0002
,
1003
0001
1000
0001
1000
0000
0200
0000
0310
0000
2000
0000
3010
0000
2000
0000
,
3010
0002
0103
0020
0031
0020
0031
0020
,
0130
0000
0001
1000
0001
0000
0200
0000
0310
0000
0002
0000
0013
0000
2000
0000
,
3001
0000
2000
0000
3100
0000
1100
0000
1000
0010
0100
0001
1000
0000
1001
0000
,
0001
0010
0100
1000
0002
0000
0100
0000
2003
0000
0100
0000
3002
0000
0100
0000
,
1003
0010
1010
0000
1000
1100
0000
0001
,
0101
0000
2000
0010
3002
0010
2003
0010
,
3001
0010
0011
0000
0001
0101
0000
1000
,
1001
0000
2000
0010
3002
0010
2003
0100
,
3001
0100
0110
0000
1000
1010
0000
0001
,
1001
0000
0011
0010
0001
0100
0110
0010
,
1000
0000
0100
0000
1000
0000
0001
0100
0010
0000
1000
0100
0010
0000
0001
1000
,
0001
0000
0000
0000
1000
0000
0000
0100
0000
0000
0100
0000
0001
0000
0000
0000
,
0110
0000
0000
0000
1000
0000
0020
0000
0130
0000
0020
0000
0031
0000
0010
1000
,
0001
0000
0100
0000
0001
0000
0000
0010
0000
0000
0010
0000
1000
0000
0000
0000
,
0110
0000
1000
0002
0013
2000
3010
0002
,
0103
0001
1000
0001
1000
0000
0000
0010
0000
0000
0010
0000
0001
0000
0000
0000
,
0110
0000
0000
0000
1000
0000
0200
0000
0310
0000
0200
0000
0301
0000
0100
1000
,
0001
0000
0010
0000
0001
0000
0000
0100
0000
0000
0100
0000
1000
0000
0000
0000
,
0110
0000
0000
0000
0010
0000
0100
0000
0000
0000
0100
0000
0001
1000
0001
1000
,
0001
1000
0001
1000
0001
0000
0000
0000
0000
0000
0000
0000
0000
0000
0000
0000
,
0000
0110
0000
0000
,
0000
1001
0000
0000
,
0000
0000
1000
1000
0100
0100
0010
0010
,
0001
1000
0001
1000
0001
0000
0100
0000
1000
0000
0100
0000
0020
0000
1000
0000
,
0230
0010
0301
0010
1000
0010
0200
0001
,
0310
0000
0100
0010
0001
0000
0000
0000
0000
0000
1000
0001
1000
0000
0000
0000
,
0000
0000
0001
0100
0010
0000
0010
0000
0100
0000
0100
0000
0110
0000
0010
0000
,
1010
1000
1001
0000
1100
0000
0001
0000
,
1100
1000
0001
0000
0100
0000
0020
0000
,
1030
0001
1001
0000
0011
0000
1000
0000
,
0011
0001
1000
0000
0001
0000
0100
0100
,
0010
0010
1000
1000
0100
0100
0001
0001
,
0100
0100
1000
1000
0010
0010
0001
0001
,
0010
0010
2000
0100
3001
0000
0110
0000
,
0110
0000
0000
0000
1000
0000
0000
0000
1000
0000
0000
0000
0010
0100
0010
0100
,
0020
0000
2030
0100
3002
0100
2003
0100
,
3001
0000
0100
0001
1000
0000
0000
0000
1010
0000
0110
0000
0000
0000
1001
0000
,
1001
0000
0002
0100
2003
0100
3002
0100
,
1003
0000
0100
1000
0001
0000
0000
0000
0011
0000
0110
0000
0000
0000
1001
0000
,
1001
0000
2000
0010
3002
0010
2003
0010
,
3001
0000
0010
0001
1000
0000
0000
0000
1100
0000
0110
0000
0000
0000
1001
0000
,
1001
0000
0001
0011
0001
0001
1000
1010
,
1000
1000
0001
0101
0001
0001
1000
1100
,
1000
1000
0011
0011
0001
0001
1010
1010
,
1000
0000
1000
0000
0001
0000
0010
0000
0100
1000
0001
1000
0020
0000
0130
0000
,
0110
0000
0000
0000
;

//---------------dance-double - t7r----------------
#NOTES:
     dance-double:
     t7r:
     Easy:
     8:
     :
00000000
00000000
00000000
00000000
,
00000000
00000000
00000000
00000000
,
00000000
00000000
00000000
00000000
,
00000000
00000000
00000000
00000000
,
00000000
00000000
00000000
00100000
,
00010000
10000000
00010000
00100000
,
00100000
00001000
00001000
00010000
,
00000010
00001000
00000001
00000100
,
00000100
00001000
00001000
00010000
,
00100000
10000000
00010000
00100000
,
00100000
00001000
00001000
00010000
,
00000010
00000000
00001000
00000000
00000001
00000000
00000000
00000010
,
00000010
00000010
00000000
00000000
00000100
00000000
00000000
00000100
,
00000000
00000000
00010000
00000000
00000000
00010000
00000000
00000000
,
00001000
00000000
00001000
00000000
00010000
00000000
00000000
00010000
,
00000000
01000000
01000000
00000000
,
10000000
00000000
00000000
00000000
00100000
00000000
00000000
00100000
,
00000000
00000000
00010000
00000000
00000000
00010000
00000000
00000000
,
00001000
00010000
00001000
00000000
,
00000000
00000000
00000100
00000000
,
00000000
00000000
00000001
00000000
,
00000010
00000000
00000100
00000000
,
00001000
00000000
00010000
00100000
,
01000000
00000000
10000000
00000000
00100000
00100000
01000000
01000000
,
00001000
00001000
00010000
00010000
00001000
00000000
00000000
00000000
,
00001000
00000000
00010000
00000100
,
00000100
00001000
00001001
00000001
,
00000100
00000010
00000110
00000000
,
00000000
00000001
00000010
00000001
,
00001000
00000001
00000010
00000100
,
00001000
00010000
00100000
00010000
,
10000000
00010000
01000000
00100000
,
10000000
01000000
00010000
00010000
,
00010000
00000000
00001000
00001000
,
00001000
00011000
00000000
00010100
,
00000000
00000000
00001000
00000000
00000000
00000001
00000000
00000001
,
00000000
00000000
00000000
00001000
00000000
00001000
00000000
00000100
,
00000000
00000100
00000000
00010000
00000000
00010000
00000000
00001000
,
00000000
00001000
00000000
01000000
00000000
01000000
00000000
00010000
,
00000000
00010000
00000000
00100000
00000000
00100000
00000000
00010000
,
00000000
00010000
00000000
10000000
00000000
10000000
00000000
00100000
,
00000000
00100000
00000000
01000000
00000000
01000000
00000000
00001000
,
00000000
00001000
00000000
00010000
00000000
00010000
00000000
00000100
,
00000000
00000100
00001000
00000000
00000000
00000000
00001001
00000000
,
00000000
00000001
00000100
00000001
,
00000000
00000000
00001001
00000000
00000000
00001100
00000000
00000000
,
00010100
00010000
00001000
00010000
,
00000000
00000000
00011000
00000000
00000000
01001000
00000000
00000000
,
01010000
00010000
10000000
01000000
,
00000000
00000000
11000000
00000000
00000000
01100000
00000000
00000000
,
00101000
00000000
00001000
00001000
00000000
00000000
00010000
00010000
,
00000000
00000020
00000000
00000000
,
00000130
00000001
00000010
00000100
,
00000000
00001000
00000001
00000100
,
00001000
00010000
00100000
01000000
,
00000000
00010000
00100000
01000000
,
01000000
10000000
00100000
01000000
,
00000000
00010000
10000000
01000000
,
00010000
00001000
00000010
00000100
,
00000000
00002000
00000000
00003001
,
00000100
00001000
00000000
00000000
,
00000000
00010000
00000000
00000000
,
00000000
00100000
00000000
00000000
,
00000000
00000000
10000000
10000000
00000000
00010000
00000000
01000000
,
00000000
00010000
10000000
00000000
01000000
00000000
00200000
00000000
,
00310000
00001000
00000100
00000020
,
00000031
00001001
00000000
00000101
,
00000000
00000000
00000001
00001000
00000001
00000000
00000100
00000000
,
00001000
00010000
00000000
00011000
,
00000000
01001000
00000000
00001000
,
00010000
00100000
00000000
10100000
,
00000000
10010000
00000000
10000000
,
01000000
00010000
00010000
00001000
,
00001000
00000100
00000100
00000001
,
00000001
00000000
00001000
00000100
00001000
00000000
00001100
00000000
,
00001100
00010000
00010000
00010000
,
00000000
00001000
00010000
01000000
,
00000000
00000000
00100000
00000000
00000000
00110000
00000000
00000000
,
10010000
10000000
00100000
01000000
,
00000000
00000000
00010000
00000000
00000000
00110000
00000000
00000000
,
00101000
00001000
00010000
00000010
,
00000000
00000000
00001010
00000000
00000000
00001001
00000000
00000000
,
00000101
00000000
00000001
00000001
00000000
00000000
00000010
00000010
,
00000000
00000000
00000100
00000100
00000000
00000000
00001000
00001000
,
00000000
00000000
00010000
00010000
00000000
00000000
10000000
10000000
,
00000000
00100000
00000000
00000000
,
00011000
00000000
00000000
00000000
;

//---------------dance-double - t7r----------------
#NOTES:
     dance-double:
     t7r:
     Medium:
     13:
     :
00000000
00000000
00000000
00000000
,
00000000
00000000
00000000
00000000
,
00000000
00000000
00000000
00000000
,
00000000
00000000
00000000
00000000
,
00000000
00000000
00000000
00000100
,
00001000
00000001
00000000
00000100
00000001
00001000
00000001
00000000
,
00000100
00000001
00000000
00001000
00000100
00010000
00001000
00000000
,
01000000
00010000
00000000
10000000
00010000
10000000
01000000
00000000
,
00010000
00001000
00000100
00000001
,
00000010
00000100
00001000
00000100
00000010
00000100
00001000
00000000
,
00000100
00010000
00000000
00001000
00100000
00010000
10000000
00000000
,
00100000
01000000
00010000
01000000
00100000
01000000
00010000
10000000
,
00100000
00010000
00001000
00000000
00011000
00000000
00001000
00000100
,
00000000
00000010
00000100
00000000
00000001
00000010
00000000
00000100
,
00001000
00000000
00000100
00000000
00010000
00001000
00000000
00010000
,
01000000
00000000
00000000
10000000
00100000
01000000
00000000
00001000
,
00010000
00000010
00000000
00000000
00001001
00000000
00000001
00000100
,
00000000
00000010
00001000
00000000
00000100
00010000
00000000
00001000
,
00010000
00100000
00000000
10000000
01000000
00000000
00010000
00000000
,
00002000
00000000
00000000
00013000
00001000
00000100
00000000
00000010
,
00000200
00000302
00001003
00000001
,
00000011
00000000
00000001
00000010
00000100
00000000
00001000
00000000
,
00001100
00000000
00010000
00001000
01000000
01000000
00010000
00010000
,
10000000
00000000
10000000
00000000
00100000
00000000
00100000
00000000
00010000
00001000
00010000
00000000
00001000
00010000
00001000
00000000
,
00000010
00000100
00001000
00000002
00001003
00000100
00000000
00001000
,
00000001
00001000
00000000
00000001
00000100
00000001
00000000
00001000
,
00000000
00000001
00000001
00000001
00000010
00001000
00000000
00010000
,
00100000
01000000
00000000
00010000
10000000
00000000
00020000
00000000
,
20030000
30010000
01010000
01100000
,
00100000
10000000
00000000
00000000
01000000
00000000
11000000
00000000
,
01100000
00001000
00011000
00010010
,
00000010
00001000
00000001
00001000
00000010
00000000
00000100
00000001
,
00001000
00000100
00010100
00011000
,
00001000
00010000
00000000
01000000
10000000
00000000
00100000
00000000
,
10100000
01100000
00000000
01001000
,
00000000
00000000
00001000
00010000
00000000
00011000
00000000
00001000
,
00010000
00001000
00010000
00001000
00000000
00000100
00000000
00000100
,
00000000
00000001
00000000
00000010
00000000
00001000
00000000
00001000
,
00000000
00010000
00001000
00010000
00000000
01000000
00000000
01000000
,
00000000
10000000
00000000
00100000
00000000
00010000
00000000
00010000
,
00010000
00001000
00010000
00001000
00000000
00000010
00000000
00000010
,
00000000
00000001
00000000
00000100
00000000
00001000
00000000
00001000
,
00000000
00010000
00001000
00010000
00000000
00100000
00000000
00100000
,
00000000
10000000
01000000
01000000
00010000
00000000
00000100
00000100
,
00001000
00000000
00001001
00000000
00001001
00000000
00000001
00000100
,
00000000
00000001
00000010
00000000
00001000
00001000
00000000
00010000
,
00010000
00000000
00011000
00000000
00011000
00000000
00010000
01000000
,
00000000
00100000
00010000
00000000
10000000
10000000
00000000
00100000
,
00100000
00000000
10010000
00000000
10010000
00000000
10000000
01000000
,
00000000
10000000
00100000
00000000
00010000
00010000
00000000
00001000
,
00001000
00000000
00010000
00010000
00000000
00000000
00001000
00001000
,
00000000
00000000
00000200
00000000
00000302
00000000
00000013
00000100
,
00000110
00000000
00000000
00000000
00000001
00000000
00000000
00000001
00000000
00000000
00000001
00000000
00000001
00000000
00000000
00000000
,
00001001
00000000
00000001
00000000
00000100
00000010
00001000
00000000
,
00010000
00000000
00000000
00000000
10000000
00000000
00000000
10000000
00000000
00000000
10000000
00000000
10000000
00000000
00000000
00000000
,
10010000
00000000
10000000
01000000
00000000
00010000
00000000
00001000
,
00000000
00000000
00000010
00000000
00000001
00000000
00000000
00000001
00000000
00000000
00000001
00000000
00000001
00000000
00000000
00000000
,
00000101
00000000
00000001
00000000
00000010
00000000
00001000
00010000
,
00001000
00000000
01000000
00000000
00010000
00000000
00000000
00010000
00000000
00000000
00010000
00000000
00010000
00000000
00000000
00000000
,
10010000
00000000
10000000
00100000
00000000
00010000
00000000
00001000
,
00000000
00000100
00000001
00000000
00000000
00000000
00000000
00000000
,
00000000
00001000
00000000
00000000
,
00000000
00010000
00000000
00000000
,
00000000
00000000
10000000
10000000
00000000
10010000
00000000
10000000
,
01000000
00100000
00010000
00100000
01000000
10000000
00100000
00000000
,
00010000
00000000
00001000
00000100
00000001
00001000
00000001
00000000
,
00000010
00001000
00000000
00011000
,
00000000
00000000
00100000
00100000
00001000
00001000
00010000
00010000
,
00000010
00000010
00001000
00000000
00001001
00000000
00000100
00000000
,
00011000
01000000
00000000
10010000
,
01100000
00100000
10000000
00000000
10010000
00000000
01000000
00000000
,
00011000
00000000
00000010
00000000
00000000
00000000
00001001
00000001
,
00000010
00000001
00001000
00001000
00000100
00010000
00001000
00001000
,
01000000
00010000
10000000
10000000
01000000
00100000
00010000
00010000
,
00001000
00000010
00001000
00000001
00000100
00000000
00000101
00000000
,
00000101
00000001
00001000
00020000
,
20030000
00000000
30010000
00000000
10010000
00000000
00010000
01000000
,
00100000
01000000
00010000
00000000
10000000
01000000
00000000
00010000
,
00001000
00000000
00011000
00000000
00011000
00000000
00010000
00001000
,
00000100
00000001
00000010
00000000
00000100
00010000
00000000
00001000
,
00010000
00000000
00011000
00000000
00011000
00000000
00010000
01000000
,
10000000
00100000
01000000
00000000
00100000
10000000
00000000
00010000
,
00100000
00000000
00001000
00001000
00010000
00000100
00010000
00010000
,
00001000
01000000
00001000
00001000
00010000
00000010
00010000
00010000
,
00001000
00100000
00001000
00001000
00010000
00001000
00000100
00000100
,
00000001
00000010
00002000
00000000
00023000
00000000
01030000
10000000
,
10100000
00000000
00000000
00000000
;

//---------------dance-double - t7r----------------
#NOTES:
     dance-double:
     t7r:
     Hard:
     16:
     :
00000000
00000000
00000000
00000000
,
00000000
00000000
00000000
00000000
,
00000000
00000000
00000000
00000000
,
00000000
00000000
00000000
00000000
,
00000000
00000000
00000000
20000000
,
31000000
00200000
00000000
01300000
10000000
00010000
02000000
00000000
,
03010000
00000000
00200000
00000000
00000000
00000000
00301000
00010000
00001000
00000000
00010000
00000000
00000020
00000000
00000000
00000000
,
00001030
00000002
00000000
00000103
00000001
00001000
00000010
00001000
,
00000100
00000100
00010000
00001000
01000000
01000000
01020000
00000000
,
00130000
01000000
10000000
01000000
00100000
00010000
20000000
00000000
,
30100000
00000000
00020000
00000000
00000000
00000000
00031000
00010000
00001000
00000000
00010000
00000000
00002000
00000000
00000000
00000000
,
00003010
00000001
00000100
00001000
00010000
00100000
10000000
00010000
,
00001000
00000000
00000001
00000000
00000100
00000000
00000001
00001000
00000002
00000000
00000000
00000000
00000100
00000000
00002003
00000000
,
00000000
00000100
00003001
00001000
00001000
00000002
00000000
00000013
,
00000100
00001000
00010000
00100000
00010000
20000000
00000000
01000000
,
30020000
00000000
00000000
00000000
01000000
00000000
10030000
00000000
01000000
00000000
00100000
00010000
00100000
00000000
00001000
00000000
,
00010000
00001000
00010000
00001000
00010000
00000000
00000010
00001000
00000002
00000000
00000010
00000000
00000010
00000000
00002003
00000000
,
00000010
00000010
00003002
00000100
00000100
00002003
00000100
00000100
,
00003001
00000100
00001000
00010000
01000000
00000000
10000000
00000000
,
00200000
00000000
00310000
00001000
00000010
00000100
00000000
00010000
,
00002000
00000000
00000000
00000000
00013000
00001000
00010000
00001000
01000000
00000000
00000000
00000000
00100000
00000000
00000000
10000000
,
10100000
00000000
00000000
00000000
10000000
00000000
01000000
00000000
00110000
00000000
00000000
00000000
00001000
00000000
00000000
00010000
,
00011000
00000000
00001000
00000010
00000002
00000203
00000320
00000230
,
00002300
00000000
00023000
00000000
02030000
00000000
03200000
00000000
00310000
10000000
00100000
00010000
00100000
10000000
01000000
00100000
,
00010000
00000000
10000000
00000000
00100000
01000000
00100000
01000000
00100000
00000000
01000000
00001000
00020000
00000000
00000000
00000000
00031000
00000000
00000000
00000000
00000010
00000000
00000000
00000000
00000100
00000000
00000000
00000000
00000010
00000000
00000000
00000000
,
00000001
00000100
00000010
00000100
00001000
00000100
00000101
00000000
,
00001001
00001000
00001000
00001000
00000100
00001000
00010000
00100000
,
10000000
00000000
00100000
00000000
01000000
00000000
00100000
00000000
00110000
00000000
00000000
00000000
10000000
01000000
10000000
01000000
,
00200000
00000000
00310000
01000000
10000000
01000000
00100000
01000000
,
00010000
00010000
10000000
01000000
00100000
00010000
00001000
00000010
,
00000100
00000001
00001000
00000100
00000001
00000100
00000010
00000100
,
00001000
00001000
00000001
00000010
00001000
00010000
01000000
10000000
,
00100000
01000000
00100000
01000000
00100000
00000000
00000000
00000000
10010000
00000000
00000000
00000000
11000000
00000000
00000000
00000000
,
00110000
00100000
00001000
00010000
00000010
00000000
00001010
00000010
,
00001000
00000000
00000001
00001000
00000002
00000000
00000000
00000000
00000103
00000000
00000000
00000000
00002000
00000000
00000000
00000000
,
00103000
00000000
00000000
00000000
00020000
00000000
01000000
00000000
00000000
00000000
10000000
00000000
00000000
00000000
00130000
00010000
,
10000000
00000000
00100000
10000000
00010000
00000000
02000000
00000000
13000000
00000000
02000000
00000000
03010000
00000000
00200000
00000000
,
10300000
00200000
00310000
00002000
00003010
00000002
00000013
00002000
,
00003001
00000000
00000010
00000100
00001000
00000000
00000200
00000000
00000301
00000000
00000200
00000000
00001300
00000000
00000020
00000000
,
00000031
00000020
00001030
00020000
00130000
20000000
30100000
00010000
,
10000000
00010000
10000000
00010000
10000000
00000000
02000000
00000000
03010000
00000000
00002000
00000000
01003000
00000000
00200000
00000000
,
00310000
00002000
00103000
00020000
00031000
00020000
00130000
00020000
,
00031000
00000000
00000010
00000100
00000001
00000000
00002000
00000000
00003100
00000000
00020000
00000000
00031000
00000000
02000000
00000000
,
03010000
00000000
20000000
00000000
30010000
00000000
10010000
00000000
10000000
00100000
01000000
00010000
10000000
00000000
10010000
00000000
,
00010000
00100000
00001000
00010000
00002000
00000000
01000000
00000000
00023000
00000000
00000100
00000000
00032000
00000000
01000000
00000000
,
00013000
00001000
00011000
00000000
00001000
00001010
00000000
00001000
,
00011000
00000000
00020000
00000010
00032000
00100000
00023000
00000010
,
00031000
00010000
00011000
00000000
00010000
01010000
00000000
00010000
,
00011000
00000000
00002000
00100000
00023000
00000010
00032000
00100000
,
00013000
00001000
00011000
00000000
00001000
00001100
00000000
00001000
,
00011000
00000000
00001000
00001000
00000100
00000001
00000010
00000010
,
00001000
00000000
00010000
00000000
00100000
00000000
01000000
00010000
10000000
00000000
01000000
00100000
00010000
00000000
01000000
00000000
,
01100000
00000000
00000000
00000000
10000000
00000000
00000000
01000000
00000000
00000000
01000000
00000000
00010000
00000000
00000000
00000000
,
01100000
00000000
00000000
00000000
10000000
00000000
01000000
00000000
00100000
00000000
00010000
00000000
00001000
00000000
00000010
00000100
,
00000010
00000000
00001000
00000000
00000001
00000000
00000000
00000010
00000000
00000000
00000010
00000000
00001000
00000000
00000000
00000000
,
00000110
00000000
00000001
00000200
00001300
00020000
01030000
20000000
,
30010000
10000000
00010000
10000000
00010000
00000000
00000000
00100000
00000000
00000000
00100000
00000000
10000000
00000000
00000000
00000000
,
01100000
00000000
00000000
00000000
10000000
00000000
00100000
00000000
01000000
00000000
00010000
00000000
00001000
00000000
00000100
00000010
,
00000100
00000000
00001000
00000000
00000001
00000000
00000000
00000100
00000000
00000000
00000100
00000000
00001000
00000000
00000000
00000000
,
00000110
00000000
00000000
00000000
00000001
00000000
00000010
00000000
00000000
00000000
00000100
00000000
00010000
00001000
00010000
00001000
,
00010000
00001000
00010000
00001000
00010000
00000000
00000000
00000000
00000000
00000000
00000000
00000000
00000000
00000000
00000000
00000000
,
00000000
01100000
00000000
00000000
,
00000000
00000110
00000000
00000000
,
00000000
00000000
00011000
00001000
00010000
00100000
10000000
00010000
,
00100000
00010000
00100000
00001000
00010000
00000000
00001000
00000000
00000010
00000000
00000001
00000000
00000100
00000000
00001000
00000000
,
00010000
00000000
00010000
00000000
00001000
00000000
00010000
00000000
00100000
00000000
10000000
00000000
01000000
00000000
00010000
00001000
,
00010000
00000000
00001000
00010000
00001000
00000000
00000000
00000000
00000000
00000000
00000000
00000000
00000110
00000000
00000000
00000000
,
00000000
00000000
00000001
00000001
00000100
00000100
00001000
00001000
,
00010000
00010000
01000000
00000000
10010000
00000000
01000000
00000000
,
10010000
00010000
01000000
00000000
00100000
00000000
20000000
00000000
,
31000000
00010000
00011000
00000000
00010010
00000000
00000100
00000000
,
00001010
00000010
00000100
00000000
00000001
00000000
00001000
00001000
,
00000100
00000100
00010000
00010000
00001000
00001000
00010000
00010000
,
00100000
00100000
10000000
10000000
00010000
00010000
00100000
00100000
,
00001000
00001000
00010000
00001000
00000010
00000000
00000011
00000000
,
00000011
00000000
00000000
00000000
00000001
00000000
00000000
00000000
00001000
00000000
00000000
00000000
00010000
10000000
00010000
10000000
,
00020000
00000000
20030000
01000000
30020000
01000000
20030000
01000000
,
30010000
00000000
00100000
00001000
00010000
00000000
00000000
00000000
00001000
00000000
00001100
00000000
00000000
00000000
00000110
00000000
,
00000110
00000000
00000002
00000100
00002003
00000100
00003002
00000100
,
00001003
00000000
00000010
00010000
00001000
00000000
00000000
00000000
00010000
00000000
01010000
00000000
00000000
00000000
01100000
00000000
,
01100000
00000000
20000000
00100000
30020000
00100000
20030000
00100000
,
30010000
00000000
01000000
00001000
00010000
00000000
00000000
00000000
00001000
00000000
00001010
00000000
00000000
00000000
00000110
00000000
,
00000110
00000000
00000001
00000001
00000100
00001000
00010000
00010000
,
01000000
10000000
00100000
00100000
00010000
00001000
00000010
00000010
,
00000001
00001000
00000001
00000001
00001000
00010000
10000000
10000000
,
00010000
00000000
00001000
00000000
00000001
00000000
00000010
00000000
00001000
00010000
00001000
00100000
00020000
00000000
10030000
00000000
,
10010000
00000000
00000000
00000000
;
