#TITLE:purple visions;
#SUBTITLE:[game edit];
#ARTIST:dj kaya*;
#TITLETRANSLIT:;
#SUBTITLETRANSLIT:;
#ARTISTTRANSLIT:;
#GENRE:;
#CREDIT:;
#MUSIC:purple visions game edit.ogg;
#BANNER:purple visions game edit.png;
#BACKGROUND:;
#CDTITLE:;
#SAMPLESTART:18.983;
#SAMPLELENGTH:12.632;
#SELECTABLE:YES;
#OFFSET:-0.035;
#BPMS:0.000=152.000
,169.000=93.750
,172.000=125.000
,243.000=62.500
,243.500=125.000
,250.500=62.500
,251.000=125.000
,258.000=62.500
,258.500=125.000
,265.500=250.000
,266.000=125.000
;
#STOPS:46.000=0.395
,108.500=0.789
,265.500=0.360
;
#DISPLAYBPM:125.000:152.000;
#BGCHANGES:;
#FGCHANGES:;

//--------------- dance-single - dj kaya* ----------------
#NOTES:
     dance-single:
     dj kaya*:
     Beginner:
     5:
     0,0,0,0,0:
0000
0000
0000
0000
,
0000
0000
0000
0000
,
0000
0000
0000
0000
,
0000
0000
0000
0000
,
1000
1000
0000
0000
,
0001
0001
0000
0000
,
0100
0100
0000
0000
,
0010
0010
0000
0000
,
1000
0100
0000
0000
,
0001
0100
0000
0000
,
1001
0000
0110
0000
,
1001
0000
0000
1000
,
1000
1000
0000
0001
,
0001
0001
0000
0100
,
0100
0100
0000
0010
,
0010
0010
0000
1000
,
1000
1000
0000
0001
,
0001
0001
0000
0100
,
0100
0100
0000
0010
,
0010
0010
0000
1000
,
1000
1001
0000
1000
,
0010
0100
0000
0001
,
0001
1001
0000
0001
,
0010
0100
0000
0010
,
0010
0110
0000
0100
,
1000
0010
0000
0100
,
0100
0110
0000
0100
,
0001
1000
0000
1001
,
0000
1000
1000
0001
,
0000
0001
0000
1001
,
0000
0001
0001
1000
,
0000
0010
0000
0110
,
0000
0100
0100
0010
,
0000
0100
0000
0110
,
0000
0010
0010
0100
,
0000
0001
0000
1001
,
0000
0001
0001
1000
,
1000
0001
0000
1001
,
0000
0001
0001
1000
,
1000
0010
0000
0110
,
0000
0100
0100
0010
,
0010
0100
0000
0110
,
0000
1001
0000
0000
,
1000
0000
0000
1000
,
0100
0000
0000
0100
,
0001
0000
0000
0001
,
0010
0000
0000
0000
,
0110
0000
0001
1000
,
0110
0000
0001
1000
,
1001
0000
0100
0010
,
0110
0000
0000
0000
0000
1000
0000
0000
,
0001
0001
0100
0100
,
0010
1000
0100
0000
,
1000
1000
0100
0100
,
0010
0001
0100
0000
,
0001
0100
0010
0000
,
1000
0100
0010
0000
,
0010
0001
0100
0000
,
0010
1000
0100
0000
,
1000
1000
1001
1001
,
1000
0000
1000
0000
1000
0000
0000
0001
,
0000
0001
0000
1001
0000
1001
0000
0001
,
0000
0001
0000
0001
0000
0000
0010
0000
,
0010
0110
0110
0010
,
0010
0000
0010
0000
0000
0100
0000
0100
,
0000
0110
0000
0110
0000
0100
0000
0100
,
0000
0100
0000
1000
0001
0000
1000
0000
,
0001
1000
0001
1000
,
0000
0010
0100
0010
,
0100
0010
0100
0010
,
0000
1000
0001
1000
,
0001
1000
0001
1000
,
0000
0100
0010
0100
,
0010
0100
0010
0000
,
0110
1001
0000
0000
;

//--------------- dance-single - dj kaya* ----------------
#NOTES:
     dance-single:
     dj kaya*:
     Easy:
     7:
     0,0,0,0,0:
0000
0000
0000
0000
,
0000
0000
0000
0000
,
0000
0000
0000
0000
,
0000
0000
0000
0000
,
1001
0000
0000
0000
,
0110
0000
0000
0000
,
1001
0000
0000
0000
,
0110
0000
0000
0000
,
1000
1000
0000
0000
,
0001
0001
0000
0000
,
0100
0100
0010
0010
,
1001
1001
0000
1000
,
1000
0100
0100
0010
,
0010
0001
0000
0001
,
0001
0100
0100
0010
,
0010
1000
0000
0001
,
0010
1100
0000
1000
,
0010
0101
0000
0001
,
0100
1010
0000
1000
,
0100
0011
0000
1000
,
0010
1000
0010
0100
,
0001
0010
0000
0001
,
0010
0001
0010
0100
,
1000
0010
0000
1000
,
0001
1000
0001
0100
,
0010
1010
0000
0001
,
1000
0001
1000
0100
,
0020
0030
0001
0000
0001
0000
0011
0000
,
0011
0010
0100
1000
,
0000
1000
1000
1010
,
1010
0010
0100
0001
,
0000
0001
0001
0101
,
0101
0100
0010
1000
,
0000
1000
1000
1100
,
1100
0100
0010
0001
,
1001
0001
0001
0011
,
0011
0010
0110
0100
,
0000
1000
1000
1010
,
1010
0010
0110
0100
,
0000
0001
0001
0101
,
0101
0100
1010
1000
,
0000
1000
1000
1100
,
1100
1001
0000
0000
,
0110
0000
0000
1000
,
0001
0000
0000
0100
,
0010
0000
0000
1000
,
0001
0000
0000
0000
,
0010
0010
0010
0010
,
0100
0100
0100
0100
,
1000
1000
1000
1000
,
1001
0000
0000
0000
0000
0110
0000
0000
,
1000
0100
0001
0100
,
1000
0000
0100
0000
0001
0000
0100
0100
,
0010
0001
0100
0001
,
0010
0000
0001
0000
0100
0000
0001
0001
,
1000
0010
0101
0011
,
0001
0010
1100
1010
,
1000
0010
0101
0011
,
0001
0010
1001
0000
,
1000
0100
0011
0110
,
0001
1000
0001
0000
0100
0000
0000
0001
,
0000
0100
0000
0110
0000
1010
0000
1000
,
0001
1000
0000
0100
0000
0000
0010
0000
,
0001
0000
0101
0000
1010
0000
0010
1000
,
0001
0000
0010
0000
0000
0100
0000
1000
,
0000
1100
0000
0110
0000
0010
0100
1000
,
0000
0002
2000
3003
0001
0000
0100
0000
,
1000
0000
1000
0100
,
0001
0000
0001
0010
,
1000
0000
1000
0010
,
0001
0000
0100
0010
,
1000
0000
0100
0010
,
0001
0000
1000
0010
,
0100
0000
0001
0010
,
0000
0110
1001
0000
;

//--------------- dance-single - dj kaya* ----------------
#NOTES:
     dance-single:
     dj kaya*:
     Medium:
     10:
     0,0,0,0,0:
0000
0000
0000
0000
,
0000
0000
0000
0000
,
0000
0000
0000
0000
,
0000
0000
0000
0000
,
1000
0000
1000
0000
0000
1000
0000
0000
,
0001
0000
0001
0000
0000
0001
0000
0000
,
0010
0000
0010
0000
0000
0010
0000
0000
,
0100
0000
0100
0000
0000
0100
0000
0000
,
1000
0000
0001
0000
0100
0010
0000
0000
,
0001
0000
1000
0000
0100
0010
0000
0000
,
0010
1000
0100
0000
0010
0001
0100
0000
,
0010
1000
0100
0000
0000
0000
1000
0000
,
0010
0000
0100
0001
0100
0000
0001
1000
,
0001
0000
0001
0010
0001
0000
0001
0000
,
0010
0000
0100
1000
0100
0000
0100
0010
,
0100
0000
0010
0001
0010
0000
0002
0000
,
1003
0000
0001
0100
0010
0000
2000
0000
,
3001
0000
1000
0100
0010
0000
0200
0000
,
1300
0000
0010
0100
0001
0000
0200
0000
,
0301
0000
0010
0100
1000
0000
0001
0000
,
0101
0000
0001
0000
1000
0000
0001
0100
,
0010
0000
1000
0100
0010
0000
0001
0000
,
0011
0000
0001
0000
0010
0000
0100
1000
,
0010
0000
0100
0001
0010
0000
0100
0000
,
0110
0000
0100
0000
1000
0000
0010
0100
,
0001
0000
0010
0100
1000
0000
0001
0000
,
0101
0000
0100
0000
0010
0000
1000
0001
,
0010
1000
1000
1100
,
1100
0000
0100
0000
0010
0000
0001
1000
,
0001
0010
0010
1100
,
1100
0000
0100
0000
0010
0000
0001
1000
,
0010
0100
0100
0101
,
0101
0000
0001
0000
1000
0000
0100
0010
,
0001
1000
1000
0110
,
0110
0000
0001
1000
0001
0000
0100
0010
,
1000
0000
0001
0010
0001
0000
0100
0001
,
0100
0000
0010
1000
0010
0000
1100
0000
,
1100
0000
1000
0100
1000
0000
0010
1000
,
0010
0000
0100
0001
0100
0000
0011
0000
,
0011
0000
0001
1000
0001
0000
0001
0100
,
0010
0000
1000
0100
0010
0000
0110
0000
,
0110
0000
0001
1000
0010
0000
0100
0001
,
1000
0020
0000
0000
,
0130
0000
0000
0000
0000
0100
0000
0000
,
0001
0000
0000
0000
0000
0001
0000
0000
,
0010
0000
0000
0000
0000
0010
0000
0000
,
0100
0000
0000
0000
0000
0100
0000
0000
,
1001
0000
1000
0000
1000
0010
1000
0000
,
1001
0000
0001
0000
0001
0010
0001
0000
,
0101
0000
0100
0000
0100
0010
0100
0000
,
2002
0000
0000
0000
3003
0110
0000
0000
,
0001
0010
0001
0010
0100
1000
0100
1000
,
0010
0100
0010
0100
0001
1000
0100
0000
,
0100
0010
0100
0010
0001
1000
0001
1000
,
0010
0100
0001
1000
0100
0010
0001
0000
,
0011
1001
1100
0110
,
1010
1001
0101
0110
,
1100
0101
1010
0011
,
1100
0000
0000
0000
0101
0000
0000
0000
1001
0000
0000
0000
1000
0001
0000
0000
,
2000
0000
3100
0010
0100
0010
0001
1000
,
0002
0000
0103
0010
0100
0010
0000
0200
,
0000
1300
0100
0010
0100
0010
0100
0020
,
0000
0031
0010
0100
0010
0000
2000
0000
,
3001
0100
0010
1000
0100
0010
0002
0000
,
1003
0010
0100
0001
0000
0200
0000
0301
,
1000
0001
0010
0100
1000
0200
0000
1300
,
0001
0010
0010
0110
0100
0000
1000
0000
,
0100
0001
0100
1000
,
0100
0000
0110
0010
0011
0000
0001
0000
,
0100
1000
0100
0001
,
0100
0000
0110
0010
1010
0000
1000
0000
,
0100
1000
0010
1000
,
0100
0000
1100
0010
0011
0000
0001
0000
,
0100
0001
0010
0001
,
0100
0000
0000
0000
0000
0100
0010
0000
0000
1000
0000
0000
0001
0000
0000
0000
0000
0000
0000
0000
0000
0000
0000
0000
;

//--------------- dance-single - dj kaya* ----------------
#NOTES:
     dance-single:
     dj kaya*:
     Hard:
     13:
     0,0,0,0,0:
0000
0000
0000
0000
,
0000
0000
0000
0000
,
0000
0000
0000
0000
,
0000
0000
0000
0000
,
2000
0000
0000
0001
0000
0000
3100
0000
0000
0000
0100
0000
0010
0000
0000
0000
,
0002
0000
0000
1000
0000
0000
0103
0000
0000
0000
0110
0000
0000
0000
0010
0000
,
2000
0000
0000
0100
0000
0000
3001
0000
0000
0000
0001
0000
1000
0000
0000
0000
,
0002
0000
0000
0100
0000
0000
1003
0000
0000
0000
0100
0010
0000
0000
0001
0000
,
0020
0000
0000
1000
0000
0000
0031
0000
0000
0000
0100
0000
0010
0000
1000
0000
,
0200
0000
0000
0001
0000
0000
1300
0000
0000
0000
0010
0000
0000
0000
0100
0000
,
1000
0000
0100
0010
0000
0000
1000
0000
0001
0000
0010
0100
0000
0000
0001
0000
,
1000
0000
0010
0100
0000
0000
1000
0000
1001
0000
0000
0000
1000
0000
0000
1000
,
0000
0000
1000
0000
0010
0000
0000
0100
0000
0000
0100
0000
0001
0000
0000
1000
,
0000
0000
0001
0000
0010
0000
0000
0100
0000
0000
0010
0000
0001
0000
0000
0001
,
0000
0000
0001
0000
0100
0000
0000
0010
0000
0000
0010
0000
1000
0000
0000
1000
,
0000
0000
1000
0000
0001
0000
0000
0010
0000
0000
0001
0000
0200
0000
0000
1000
,
0000
0000
0301
0000
1000
0000
0000
0001
0000
0000
1000
0000
0200
0000
0000
0001
,
0000
0000
1300
0000
0001
0000
0000
1001
0000
0000
0001
0000
0020
0000
0000
1000
,
0000
0000
0031
0000
1000
0000
0000
0001
0000
0000
1000
0000
0020
0000
0000
0001
,
0000
0000
1030
0000
0001
0000
0000
1001
0000
0000
1000
0000
0010
0000
0100
0010
,
0000
0100
0010
0000
1000
0000
0100
0000
0010
0000
0001
0000
1000
0000
0001
1000
,
0000
0001
1000
0000
0010
0000
0000
0101
0000
0000
0001
0000
1000
0000
0001
0010
,
0000
0001
0010
0000
0100
0000
1000
0000
0010
0000
0100
0000
0001
0000
1000
0001
,
0000
1000
0001
0000
0100
0000
0000
1010
0000
0000
0001
0000
1000
0000
0100
1000
,
0000
0100
0010
0000
0001
0000
1000
0000
0001
0000
0100
0000
0010
0000
1000
0010
,
0000
1000
0010
0000
0100
0000
0000
0101
0000
0000
0001
0000
0010
0000
0001
0010
,
0000
0001
0010
0000
0100
0000
0010
0000
0001
0000
1000
0000
0010
0000
0100
0001
,
0000
1000
0100
0000
0010
0000
0000
0000
0010
0000
0000
0000
0011
0000
0000
0001
,
0000
0000
0010
0000
0100
0000
0000
1100
0000
0000
1000
0000
0010
0000
0000
0101
,
0000
0000
0001
0000
0010
0000
0000
0000
0010
0000
0000
0000
0110
0000
0000
0100
,
0000
0000
0010
0000
0001
0000
0000
0101
0000
0000
0001
0000
1000
0000
0000
1100
,
0000
0000
1000
0000
0100
0000
0000
0000
0100
0000
0000
0000
0101
0000
0000
0100
,
0000
0000
1000
0000
0010
0000
0000
1010
0000
0000
0010
0000
0100
0000
0000
0101
,
0000
0000
0001
0000
1000
0000
0000
0000
1000
0000
0000
0000
1001
0000
0000
1000
,
0000
0000
0100
0000
0010
0000
0000
0011
0000
0000
0001
0000
0100
0000
0000
0101
,
0000
1010
1000
0001
1000
0001
0100
0010
,
0100
0000
0010
0000
1000
0000
0100
1000
0000
0100
1000
0000
0001
0000
0010
0001
,
0000
0010
0001
0000
0010
0000
0100
0000
0010
0000
0100
0000
1000
0000
0001
0000
,
1000
0000
0001
0000
0100
0000
0001
0100
0000
0001
0100
0000
0010
0000
1000
0010
,
0000
1000
0010
0000
1000
0000
0100
0000
0010
0000
0001
0000
1000
0000
0010
0000
,
0100
0000
0001
0000
0010
0000
0001
1000
0000
0010
0100
0000
0010
0000
1000
0001
,
0000
0010
0100
0000
1000
0000
0001
0000
0100
0000
0010
0000
1000
0000
0001
0000
,
0010
0000
0000
0000
0100
0000
1000
0000
0001
0000
0000
0000
0000
0000
0000
0000
0000
0000
0000
0000
0000
0000
0000
1001
0000
0000
0000
0000
0000
0000
0000
0000
,
0002
0000
0000
0000
0000
0100
0000
0000
,
2000
0000
0000
0000
0000
3003
0000
0000
,
2000
0000
0000
0000
0000
0010
0000
0000
,
0002
0000
0000
0000
0000
3003
0000
0000
,
0001
0000
0000
0001
0000
0000
0001
0000
0000
0000
1000
0000
0000
0010
0000
0000
,
0100
0000
0000
0100
0000
0000
0100
0000
0000
0000
0001
0000
0000
1000
0000
0000
,
0100
0000
0000
0100
0000
0000
0100
0000
0000
0000
0010
0000
0000
0001
0000
0000
,
1001
0000
1000
0001
0100
0010
0100
0010
0100
0010
1000
0000
0001
0010
0100
0000
,
1000
0000
0001
0100
0000
0000
0010
0000
1000
0000
0100
0010
0000
0010
0001
0000
,
1000
0000
0001
1000
0000
0010
0000
0000
0100
0000
0001
0100
0000
0001
1000
0001
,
0010
0000
0100
0010
0000
0000
0010
0000
0001
0000
1000
0010
0000
0010
0100
0000
,
0001
0000
1000
0100
0000
0000
1000
0000
0010
0000
0100
0001
0000
1000
0100
0000
,
0001
0100
0000
0000
0100
1000
0000
0000
1000
0010
0000
0000
0010
0100
0000
0000
,
1000
0100
0000
0000
0100
0001
0000
0000
0001
0010
0000
0000
0010
0100
0000
0000
,
0001
0100
0000
0000
0100
1000
0000
0000
1000
0010
0000
0000
0010
0100
0000
0000
,
1000
0100
0000
0000
0100
0001
0000
0000
0001
0010
0000
0000
0100
0010
0100
0000
,
1000
0000
0100
0000
0010
0000
0001
0000
0000
1000
0000
0000
0010
0000
0000
0010
0000
0000
0100
0000
0000
0100
0000
0000
,
0001
0000
0100
0000
0010
0000
1000
0000
0000
0001
0000
0000
1000
0000
0000
0100
0000
0000
0020
0000
0000
0031
0000
0100
,
0000
0001
0000
0010
0000
0000
0100
0000
0000
0010
0000
0000
0001
0000
0000
0100
0000
0000
0010
0000
0000
1000
0000
0001
,
0000
1000
0000
0100
0000
0000
0010
0000
0000
0001
0000
0000
1000
0000
0000
0020
0000
0000
0130
0000
0001
0000
1000
0000
,
0100
0000
0000
0001
0000
0000
0100
0000
0000
0100
0000
0000
1000
0000
0000
1000
0000
0000
0001
0000
0100
0000
0010
0000
,
0100
0000
0000
1000
0000
0000
0100
0000
0000
0100
0000
0000
0020
0000
0000
0130
0000
0001
0000
0100
0000
1000
0000
0000
,
0100
0000
0000
0001
0000
0000
0001
0000
0000
1000
0000
0000
1000
0000
0000
0100
0000
0010
0000
0001
0000
1000
0000
0000
,
0010
0000
0000
0000
0110
0000
0000
0000
0110
0000
0000
0000
2002
3003
0000
0000
0001
0000
0000
0000
0000
0000
0000
0000
0100
0000
0000
0000
0000
0000
0000
0000
,
1000
0100
0001
0010
,
1000
0000
0000
0000
0010
0000
0001
1000
0001
0000
0000
0000
0100
0000
0000
0000
,
1000
0100
0001
0100
,
1000
0000
0000
0000
0100
0000
0010
1000
0001
0000
0000
0000
0101
0000
0000
0000
,
1000
1100
0001
0011
,
1000
0000
0000
0000
1010
0000
0010
0100
0001
0000
0000
0000
0110
0000
0000
0000
,
1000
0110
0001
0110
,
1000
0000
0000
0000
0000
0010
0100
0000
0000
0001
0000
0000
0010
0000
0000
0000
0000
0000
0000
0000
0000
0000
0000
0000
;

//--------------- dance-single - dj kaya* ----------------
#NOTES:
     dance-single:
     dj kaya*:
     Challenge:
     16:
     0,0,0,0,0:
0000
0000
0000
0000
,
0000
0000
0000
0000
,
0000
0000
0000
0000
,
0000
0000
0000
0000
,
2000
0000
0000
0001
0000
0000
3001
0000
0000
0000
1000
0000
0100
0010
0100
0010
,
0002
0000
0000
1000
0000
0000
1003
0000
0000
0000
0010
0000
0000
0000
0200
0000
,
1000
0000
0000
1000
0000
0000
1300
0000
0000
0000
0100
0000
0001
0010
0001
0010
,
0200
0000
0000
0001
0000
0000
0301
0000
0000
0000
0100
1000
0000
0000
1000
0000
,
0020
0000
0000
0100
0000
0000
0130
0000
0000
0000
0001
0000
1000
0100
0010
0001
,
0200
0000
0000
0010
0000
0000
0310
0000
0000
0000
1000
0000
0000
0000
0001
0000
,
0020
0000
0000
1000
0000
0000
0031
0000
0200
0000
0000
1000
0000
0000
0301
0000
,
1000
0000
0000
0000
0010
0000
0100
0000
0000
0000
0001
0000
0100
0000
0000
0000
2020
3030
0000
0000
0000
0000
0000
0000
0001
0000
0000
0000
0010
0000
0100
0000
,
0000
0010
0100
0000
1000
0000
0001
1000
0000
0100
1000
0100
0010
0000
0001
0010
,
0000
0001
0010
0000
0100
0000
0000
1001
0000
0000
1000
0000
0001
0000
0100
0001
,
0000
0100
0001
0000
1000
0000
0010
1000
0000
0001
1000
0010
0100
0000
0001
0010
,
0000
0001
0010
0000
0100
0000
0000
1001
0000
0000
1000
0000
0020
0000
0000
0001
,
0000
0000
1030
0000
0001
0000
1000
0100
0000
0100
0010
0001
0020
0000
0000
1000
,
0000
0000
0031
0000
1000
0000
0000
0101
0000
0000
0001
0000
0200
0000
0000
1000
,
0000
0000
0301
0000
0010
0000
0100
0010
0000
0010
0001
1000
0020
0000
0000
0001
,
0000
0000
1030
0000
0001
0000
0000
1010
0000
0000
0001
0000
0100
0000
0010
1000
,
0000
0001
0010
0000
0100
0000
0010
0001
0010
0001
0100
0010
1000
0000
0001
0010
,
0000
0100
1000
0000
0001
0000
1000
0100
0000
0010
0001
0000
1000
0000
0001
1000
,
0000
0010
0100
0000
0001
0000
1000
0010
1000
0010
0100
0001
0010
0000
0100
0010
,
0000
0001
1000
0000
0010
0000
0100
0010
0000
1000
0001
0000
1000
0000
0001
0010
,
0000
0100
0010
0000
0001
0000
1000
0001
1000
0001
0100
0010
1000
0000
0001
0010
,
0000
0100
1000
0000
0001
0000
1000
0010
0000
0100
0001
0000
0100
0000
0010
1000
,
0000
0100
0010
0000
0001
0000
0010
0100
0010
0100
1000
0001
0100
0000
0010
1000
,
0000
0000
0001
0000
0200
0300
0000
0000
0110
0000
0000
0000
0000
0000
0000
0000
0110
0000
0000
0000
0000
0000
0000
0000
1010
0000
0000
0000
0000
0000
1100
0000
,
0000
0000
0101
0000
0010
0000
0000
0101
0000
0000
1100
0000
0010
0000
0000
1100
,
0000
0000
0101
0000
1001
0000
0000
0000
1001
0000
0000
0000
0101
0000
0000
0011
,
0000
0000
1010
0000
0100
0000
0000
1010
0000
0000
0011
0000
0100
0000
0000
0011
,
0000
0000
1010
0000
0110
0000
0000
0000
0110
0000
0000
0000
0101
0000
0000
1100
,
0000
0000
1010
0000
0001
0000
0000
1010
0000
0000
1100
0000
0001
0000
0000
1100
,
0000
0000
1010
0000
1001
0000
0000
0000
1001
0000
0000
0000
1100
0000
0000
0101
,
0000
0000
0011
0000
1000
0000
0000
0011
0000
0000
0101
0000
1000
0000
0000
0101
,
0000
1000
0010
0100
0001
0000
1000
0100
0000
1000
0100
0000
0110
0000
0001
0010
,
0000
0001
0010
0000
0001
0100
0000
0110
0000
0100
0001
0000
1000
0100
0000
0110
,
0000
0100
1000
0000
0001
0000
1000
0010
0000
1000
0010
0000
0110
0000
0001
0100
,
0000
0001
0100
0000
0001
0010
0000
0110
0000
0010
0001
0000
1000
0010
0000
0110
,
0000
0010
1000
0000
0001
0000
1000
0001
0000
1000
0001
0000
0110
0000
0001
1000
,
0000
0001
1000
0000
0010
0100
0000
1100
0000
0100
0001
0000
0010
0100
0000
0101
,
0000
0100
1000
0000
0001
0000
1000
0001
0000
1000
0001
0000
0110
0000
0001
1000
,
0000
0000
0001
0000
1000
0000
0000
0000
0220
0000
0000
0000
0330
0000
0000
0000
0000
0000
0000
0000
0000
0000
0000
2002
0000
0000
0000
3003
0000
0000
0000
0000
,
1000
0000
0010
0000
0000
0000
0000
0000
0000
0000
0100
0000
1000
0100
0000
0100
,
0001
0010
0000
0000
0000
0100
0000
0000
,
1000
0000
0001
0000
0000
0000
0000
0000
0000
0000
0100
0000
0010
1000
0000
1000
,
0100
0001
0000
0000
0000
0100
0000
0000
,
0011
0000
0000
0001
0100
0000
0010
0000
1000
0000
0001
0000
1000
0100
0000
0010
,
0001
0000
0000
1000
0010
0000
0100
0000
0001
0000
1000
0000
0010
0100
0000
0000
,
0101
0000
0000
1000
0010
0000
0001
0000
0010
0000
1000
0000
0100
0010
0001
0100
,
0110
0000
0000
0000
0010
0000
1000
0001
1000
0000
0100
0000
0010
0000
0001
0000
1000
0000
0010
0000
0110
0000
0000
0000
0100
0000
0001
0000
1000
0000
0001
0000
,
0011
0000
0010
0100
1000
0100
0010
0000
0011
0000
0010
0001
1000
0001
0100
0010
,
1010
0000
0010
0100
0001
0100
0010
0000
1010
0000
0010
1000
0001
1000
0100
0010
,
0110
0000
0100
1000
0001
1000
0100
0000
0110
0000
0100
0010
0001
1000
0010
0100
,
0110
0000
0010
1000
0001
1000
0010
0000
0110
0000
0100
0010
1000
0001
0100
0010
,
1000
0100
1000
0000
0001
0100
0001
0000
1000
0010
1000
0000
0001
0010
0001
0000
,
1000
0100
1000
0000
0001
0100
0001
0000
1000
0010
1000
0000
0001
0010
0001
1000
,
0001
0100
0010
0000
1000
0100
0010
0000
0001
0010
0100
0000
1000
0010
0100
0000
,
0001
1000
0010
0000
1000
0001
0010
0000
0220
0000
0330
0000
1000
0001
1000
0000
,
0100
0000
0000
0000
0001
0000
0000
0000
0100
0000
0000
0000
1000
0000
0000
0000
0000
0000
0100
0000
0000
0010
0000
0000
0100
0000
0000
0010
0000
0000
0001
0000
0000
0000
0000
0000
1001
0000
0000
0000
0000
0000
1000
0000
0000
0001
0000
0000
,
0100
0000
0000
0000
0000
0000
0000
0000
0000
0000
0000
0000
0000
0000
0000
0000
1000
0000
0000
0000
0000
0000
0000
0000
0000
0000
0000
0000
0000
0000
0000
0000
0100
0000
0000
0000
0000
0000
0000
0000
0000
0000
0000
0000
0000
0000
0000
0000
0001
0000
0000
0000
0000
0000
0000
0000
0000
0000
0000
0000
0000
0000
0000
0000
0000
0000
0000
0000
0000
0000
0000
0000
0010
0000
0000
0000
0000
0000
0000
0000
0000
0000
0000
0000
0100
0000
0000
0000
0000
0000
0000
0000
0000
0000
0000
0000
0010
0000
0000
0000
0000
0000
0000
0000
0000
0000
0000
0000
0100
0000
0000
0000
0000
0000
0000
0000
0000
0000
0000
0000
1000
0000
0000
0000
0000
0000
0000
0000
0000
0000
0000
0000
0000
0000
0000
0000
0000
0000
0000
0000
0000
0000
0000
0000
0002
0000
0000
0003
0000
0000
0000
0000
0000
0000
0000
0000
0002
0000
0000
0003
0000
0000
0000
0000
0000
0000
0000
0000
1000
0000
0000
0000
0000
0000
0000
0000
0000
0000
0000
0000
0000
0000
0000
0000
0010
0000
0000
0000
0000
0000
0000
0000
,
0000
0000
0001
0000
0000
0000
0010
0000
0000
0000
0000
0000
1000
0000
0000
0001
0000
0000
0100
0000
0000
0010
0000
0000
1000
0000
0000
0000
0000
0000
1001
0000
0000
0000
0000
0000
0001
0000
0000
1000
0000
0000
0001
0000
0000
0000
0010
0000
,
0000
0000
0000
0000
0000
0000
0000
0000
1000
0000
0000
0000
0000
0000
0000
0000
0000
0000
0000
0000
0000
0000
0000
0000
0010
0000
0000
0000
0000
0000
0000
0000
0000
0000
0000
0000
0000
0000
0000
0000
0000
0000
0000
0000
0000
0000
0000
0000
0001
0000
0000
0000
0000
0000
0000
0000
0000
0000
0000
0000
1000
0000
0000
0000
0000
0000
0000
0000
0000
0000
0000
0000
0010
0000
0000
0000
0000
0000
0000
0000
0000
0000
0000
0000
0100
0000
0000
0000
0000
0000
0000
0000
0000
0000
0000
0000
0001
0000
0000
0000
0000
0000
0000
0000
0000
0000
0000
0000
0000
0000
0000
0000
0000
0000
0000
0000
0000
0000
0000
0000
2000
0000
0000
3000
0000
0000
0002
0000
0000
0003
0000
0000
2000
0000
0000
3000
0000
0000
0002
0000
0000
0003
0000
0000
0010
0000
0000
0000
0000
0000
0000
0000
0000
0000
0000
0000
0000
0000
0000
0000
0010
0000
0000
0000
0000
0000
0000
0000
0000
0000
0000
0000
0000
0000
0000
0000
0001
0000
0000
0000
0000
0000
0000
0000
0000
0000
0000
0000
0000
0000
0000
0000
,
0100
0000
0000
0000
0000
0000
0010
0000
0000
1000
0000
0000
0010
0000
0000
1000
0000
0000
0100
0000
0000
0000
0000
0000
0110
0000
0000
0000
0000
0000
0010
0000
0000
0100
0000
0000
1000
0000
0000
0000
1000
0000
0000
0000
0001
0000
0000
0000
,
0100
0000
0000
0000
0000
0000
0000
0000
0000
0000
0000
0000
0010
0000
0000
0000
0000
0000
0100
0000
0000
0000
0000
0000
0001
0000
0000
0000
0000
0000
1000
0000
0000
0000
0000
0000
0100
0000
0000
0000
0000
0000
0000
0000
0000
0000
0000
0000
0020
0000
0000
0030
0000
0000
0020
0000
0000
0030
0000
0000
0001
0000
0000
0000
0000
0000
0000
0000
0001
0000
0000
0000
0000
0000
0000
0000
0010
0000
0000
0000
0000
0000
0000
0000
0100
0000
0000
0000
0000
0000
0000
0000
0000
0000
0000
0000
,
0001
0000
0000
0100
0000
0000
0010
0000
0000
0100
0000
0000
1000
0000
0000
0000
0000
0000
1001
0000
0000
0000
0000
0000
1000
0000
0000
0001
0000
0000
1000
0000
0000
0000
1000
0000
0000
0000
0010
0000
0000
0000
0100
0000
0000
0000
0000
0000
,
1000
0100
0010
0100
0001
0100
2020
3030
0001
0000
0000
0010
0100
0000
1000
0000
,
0001
0000
0100
0000
0010
1000
0000
0000
0001
0000
0000
1000
0100
0000
0010
0000
,
0001
0000
1000
0000
0010
1000
0001
1000
0100
0000
0000
0010
0001
0000
1000
0000
,
0001
0000
0100
0000
0010
1000
0000
0000
0001
0000
0000
0010
0100
0000
1000
0000
,
0010
0000
0100
0000
0001
1000
0100
0010
0002
0000
0000
0000
1000
0000
0000
0000
,
0100
0010
2003
0001
,
3100
0000
0000
0000
1000
0001
0100
0010
2000
0000
0000
0000
0001
0000
0000
0000
,
0010
0100
3002
1000
,
0013
0000
0000
0000
0000
0100
0010
0000
0000
0110
0000
0000
1001
0000
0000
0000
0000
0000
0000
0000
0000
0000
0000
0000
;
