#TITLE:パラレルラルラ;
#SUBTITLE:;
#ARTIST:ハナビちゃん;
#TITLETRANSLIT:parallel lalla;
#SUBTITLETRANSLIT:;
#ARTISTTRANSLIT:Hanabi-chan;
#GENRE:;
#CREDIT:;
#BANNER:parallel lalla.png;
#BACKGROUND:parallel lalla-bg.png;
#LYRICSPATH:parallel lalla.lrc;
#CDTITLE:;
#MUSIC:parallel lalla.ogg;
#OFFSET:-0.030000;
#SAMPLESTART:39.149975;
#SAMPLELENGTH:12.000000;
#SELECTABLE:YES;
#BPMS:0.000000=190.000000
;
#STOPS:
;
#BGCHANGES:0.000=parallel lalla.avi=1.000=0=0=1=====,
99999=-nosongbg-=1.000=0=0=0 // don't automatically add -songbackground-
;
#KEYSOUNDS:;
#ATTACKS:;

//---------------dance-single - ----------------
#NOTES:
     dance-single:
     :
     Hard:
     17:
     1.013925,1.280405,0.399347,0.363042,0.798693,782.000000,738.000000,44.000000,40.000000,0.000000,0.000000,1.013925,1.280405,0.399347,0.363042,0.798693,782.000000,738.000000,44.000000,40.000000,0.000000,0.000000:
0000
0000
0000
0000
,
0000
0000
0000
0000
,
0000
0000
0000
0000
,
0000
0000
0000
0000
,
1000
0000
0000
0000
0001
0000
0200
0000
0000
0000
0301
1000
0001
0000
0020
0000
,
0000
0000
0133
0000
0100
0000
1000
0000
0001
0000
0100
0010
0100
0001
0010
0100
,
1000
0001
0100
0200
0000
1300
0100
0002
,
0000
0000
1003
0100
1000
0000
0100
0000
0000
0000
0010
0000
1001
0000
0000
0000
,
0101
0000
0100
0000
0010
0000
1000
0001
1000
0000
0001
0010
0100
0000
1000
0100
,
1000
0000
0001
0100
0001
0100
0010
1000
0001
1000
0100
0000
0001
0000
0100
0000
,
1000
0000
1000
0000
0001
0000
0100
0010
0100
0000
0001
1000
0100
0000
1000
0000
,
0001
0000
0100
0010
0100
0000
0010
1000
0001
0010
0100
1000
0010
0100
0001
1000
,
0001
0000
0020
0000
0000
0000
0130
1000
0001
0000
1000
0100
0010
0000
0001
0010
,
0001
0000
1000
0010
1000
0010
0100
0001
1000
0001
0010
0000
1000
0000
0010
0000
,
0001
0001
1000
1100
0000
0101
0000
0000
,
1000
0000
0001
0100
0001
0000
0010
0000
0001
0100
0001
0000
0100
0000
0010
0100
,
0010
1000
0001
0010
0100
1000
0001
0100
,
0010
0000
1000
0100
0010
0000
0002
0000
0000
0000
0103
0010
0100
0000
0020
0000
,
0000
1030
0100
0010
0001
0100
1000
0100
,
0001
0001
0010
0100
0100
0000
1000
1000
,
0010
0100
0100
0000
0001
0100
0010
1000
,
0200
0000
1300
0001
1000
0010
0100
0001
,
0101
0000
0110
0000
1010
1000
0100
0010
,
0001
1000
0010
1000
0010
1000
0001
1000
0010
1000
0010
1000
0001
1000
0010
1000
,
0010
1000
0001
1000
0010
1000
0010
1000
0001
0000
0100
0000
0010
0000
0010
0000
,
1000
0001
0100
0001
0100
0001
1000
0001
0100
0001
0100
0001
1000
0001
0100
0001
,
0100
0001
1000
0001
0100
0001
0100
0001
1000
0000
0100
0000
0010
0000
0001
0000
,
1000
0010
1000
0010
1000
0010
0100
0001
0100
0001
0100
0001
1000
0100
1000
0100
,
1000
0100
0010
0001
0010
0001
0010
0001
0100
0010
1000
0100
0010
0001
1000
0001
,
0200
1000
0010
0301
,
0110
0000
0000
0000
0000
0100
1001
0000
,
0001
0100
1000
0000
0100
0010
1000
0000
0100
0010
0001
0000
1000
0000
2000
0000
,
0100
0000
3001
0000
0100
0000
0010
0000
1000
0000
0100
0010
0001
0000
1000
0001
,
1000
0000
0001
0100
0010
0000
1000
0100
0010
0000
0001
1000
0010
0000
0210
0000
,
0000
0000
0301
1000
0010
0100
0001
0010
0100
1000
0010
0100
0010
1000
0100
0010
,
0002
0000
0100
0000
1003
0000
0010
0000
0010
0000
0100
0000
0001
0000
1000
0100
,
1000
0000
0100
0010
0100
0000
0010
0001
1000
0000
0010
0000
0100
0000
0001
0000
,
0010
1000
0010
0100
0010
0001
0100
0201
,
0000
0000
0310
0000
0010
0000
1000
0100
0010
0000
0001
1000
0001
0000
0100
0000
,
0110
0000
0010
0000
1010
0000
1000
3000
1100
0000
0100
0010
0001
0000
1000
0000
,
0010
0000
0100
0001
0100
0000
0010
0000
1000
0000
0001
0010
0100
0000
1000
0000
,
1010
0000
0010
0000
0110
0000
0100
0000
0101
0000
0001
0000
1000
0000
1002
0030
,
0000
0000
1333
0010
0100
0001
1000
0100
0010
0001
0100
0010
0100
0001
0010
0100
,
2000
0000
0100
0000
3001
0000
0100
0000
0100
0000
0010
0000
1000
0000
0001
0010
,
0001
0000
0010
0100
0010
0000
0100
1000
0001
0000
0100
0000
0010
0000
1000
0000
,
0100
0001
0100
0010
0100
1000
0010
1020
,
0000
0000
0130
0000
0100
0000
0001
0010
0100
0000
1000
0000
1001
0000
0000
0000
,
1010
0000
0020
0000
0000
0000
0130
0000
0100
0000
0001
0010
0100
0000
1000
0000
,
0010
0000
0100
0000
0001
0000
0102
0000
0000
0000
1003
0100
0010
0000
0001
1000
,
0001
0100
0010
1010
0000
0101
0000
1001
,
0000
0000
0001
0010
0100
1000
0010
0100
0001
1000
0100
0010
0001
1000
0001
0100
,
0010
0000
2000
0000
0000
0000
3100
0000
0100
0000
0010
0001
1000
0000
1010
0000
,
0000
0000
0110
0000
0000
0000
0101
0000
0000
0000
0001
1000
0100
0000
0000
0000
,
1000
0100
0001
1000
0010
0001
0100
0110
,
0000
0000
1001
0000
0001
0000
1000
0100
0010
0000
0001
0000
0101
0000
0000
0000
,
1000
0000
1000
0000
1000
0000
0001
0010
,
0000
0010
0100
0000
2002
0000
3003
0000
,
0001
0000
0001
0000
0001
0100
1000
0200
,
0000
0301
0010
0100
1000
0001
0100
0000
,
0201
0000
0310
1000
0200
0000
0310
0001
,
1000
0100
1000
0100
0010
0001
0100
0010
,
1000
0000
0000
0000
0000
0000
0000
1001
,
0000
0000
0110
0000
0000
0000
1001
0000
1001
0000
0000
0000
1000
0100
0010
0001
,
0100
0000
1000
0100
1000
0000
0100
0001
0100
0000
0001
0010
0100
0000
2000
0000
,
0010
0000
3001
0000
0101
0000
0000
0000
1010
0000
0001
0010
0100
0000
1000
0000
,
0010
0000
0001
0010
0001
0000
0010
1000
0010
0000
1000
0100
0010
0000
0012
0000
,
0000
0000
1003
0100
1000
0001
0100
0010
1000
0100
0010
0001
1000
0001
0100
0010
,
0200
0000
0010
0000
0301
0000
1000
0000
0100
0000
0010
0000
0001
0000
1000
0010
,
0100
0000
0001
0010
0100
0000
1000
0001
0100
0000
0010
0000
1000
0000
0001
0000
,
0010
1000
0010
0100
0010
0001
0100
0201
,
0000
0000
0310
0000
0010
0000
1000
0100
0010
0000
0001
1000
0001
0000
0000
0000
,
1010
0000
0010
0000
0100
0000
0001
1000
0001
0000
1000
0100
0010
0000
0001
0010
,
0001
0000
1000
0010
1000
0010
0100
0001
1000
0001
0010
0000
1000
0000
0010
0000
,
0001
0000
0001
0000
1000
0000
0010
0100
0010
0000
1000
0001
0010
0000
0001
0000
,
1000
0000
0010
0100
0010
0000
0100
0001
1000
0100
0010
0001
0100
0010
1000
0001
,
1000
0000
0200
0000
0000
0000
0310
0001
1000
0000
0001
0010
0100
0000
1000
0100
,
1000
0000
0001
0100
0001
0100
0010
1000
0001
1000
0100
0000
0001
0000
0100
0000
,
1000
1000
0001
0011
0000
1010
0000
0000
,
0002
0000
0000
0000
0000
0000
0203
0000
0000
0000
0301
0310
0100
0000
2000
0000
,
0000
0000
3010
0100
0010
0000
1000
0000
0100
0000
0010
0001
1000
0001
0100
0010
,
1000
0000
1000
0000
0001
0000
0200
0000
0000
0000
0310
0300
1000
0000
0002
0000
,
0000
0013
0100
1000
0010
0001
0010
1000
,
0200
0000
0000
0000
0000
0000
0320
0000
0000
0000
0031
1000
0001
0000
0200
0000
,
0000
0000
0310
0000
0010
0000
1000
0000
0001
0000
1000
0100
0010
0001
0100
0010
,
1000
0000
0001
0100
0001
0000
0200
0000
0000
0000
0320
0000
0000
0000
2030
0000
,
0000
0000
3001
0010
0100
0000
1000
0000
0001
0000
0000
0000
0000
0000
0000
0000
;

//---------------dance-single - ----------------
#NOTES:
     dance-single:
     :
     Medium:
     14:
     0.793507,0.814803,0.462879,0.471955,0.181521,612.000000,561.000000,51.000000,52.000000,0.000000,0.000000,0.793507,0.814803,0.462879,0.471955,0.181521,612.000000,561.000000,51.000000,52.000000,0.000000,0.000000:
0000
0000
0000
0000
,
0000
0000
0000
0000
,
0000
0000
0000
0000
,
0000
0000
0000
0000
,
1000
0000
0010
0000
0100
0001
1000
0001
,
0100
0000
0001
0000
1000
0100
0010
0001
,
1000
0000
0001
0100
0000
0010
1000
0100
,
0000
0010
0001
0100
0000
0000
1001
0000
,
0101
0000
0200
0000
0000
0000
0310
1000
0010
0000
0100
0000
0001
0000
0010
0000
,
0100
0000
1000
0000
0001
0000
1000
0001
1000
0000
0001
0000
0100
0000
0010
0000
,
0100
0000
0200
0000
0000
0000
0301
1000
0001
0000
1000
0000
0100
0000
0010
0000
,
0001
0000
0100
0000
0010
0000
1000
0000
0001
1000
0001
1000
0010
0000
0000
0000
,
1010
0000
0020
0000
0000
0000
0130
0001
0100
0000
0010
0000
1000
0000
0100
0000
,
0010
0000
0001
0000
1000
0000
0001
1000
0001
0000
1000
0000
0010
0000
0100
0000
,
0001
0101
0000
0110
0000
1001
0000
0000
,
0001
0000
1000
0100
1000
0000
0001
0000
1000
0100
1000
0000
0001
0000
1000
0100
,
1000
0001
1000
0100
0010
0001
1000
0010
,
0000
1000
0010
1000
0001
0010
0001
0200
,
0000
0000
0310
0300
1000
0000
0100
0000
0010
0000
0001
0000
1000
0000
0000
0000
,
0001
0100
1000
0100
0001
0000
1000
0100
,
0001
0100
1000
0000
0001
0010
0100
1000
,
0020
0000
0130
0001
1000
0001
0010
0100
,
1000
1100
0110
0011
,
1001
1000
0000
1100
0100
0000
1001
0001
,
0000
0101
0100
0000
0001
0100
0010
0000
,
1010
1000
0000
1001
0001
0000
0011
0001
,
0000
1001
1000
0000
1000
0010
0100
0001
,
0101
0100
0000
1010
0010
0000
1100
0100
,
0000
0011
0010
0000
0001
0010
0100
1000
,
1002
0100
1000
0010
,
1003
0000
0000
0000
0000
0001
1000
0000
,
1100
0000
0110
0000
0011
0010
0100
1000
,
0001
0000
0100
0000
0010
0000
1000
0000
0001
0000
1000
0001
1000
0000
0000
0000
,
0101
0000
0110
0000
1010
0010
0100
0102
,
0000
1003
0100
0001
0100
1000
0010
0000
,
1000
0000
0001
0000
0100
0000
0010
0100
0010
0000
1000
0000
0001
0000
0010
0100
,
0010
0001
0100
1000
0001
0010
1000
0001
,
0000
1000
0100
0010
0001
0100
0010
2010
,
0000
3001
0100
1000
0100
0001
1001
0000
,
2000
3100
0020
0130
0002
0103
0010
0010
,
0001
0000
0100
0000
0010
0000
1000
0000
0001
0000
0010
0100
1000
0000
0000
0000
,
0002
0103
0020
0130
2000
3100
0010
0210
,
0000
0301
0010
0100
1000
0001
0100
0000
,
0001
0000
1000
0000
0010
0000
0100
0010
0100
0000
0001
0000
1000
0000
0100
0010
,
0100
1000
0010
0001
1000
0100
0001
1000
,
0000
0001
0010
0100
1000
0010
0100
0102
,
0000
1003
1000
0001
0001
0100
0010
0000
,
1001
0000
2000
0000
0000
0000
3100
0000
0100
0000
0010
0001
0010
0000
0001
0000
,
1000
0000
0001
0000
1000
0000
0020
0000
0000
0000
0130
0001
1000
0000
0000
0000
,
0001
0100
1000
0200
0000
0320
0000
1030
,
0100
0000
0010
0000
0001
0000
1000
0000
0001
0100
0001
0100
0010
0000
0000
0000
,
1000
0000
0002
0000
0000
0000
0103
0000
0100
0000
0010
1000
0100
0000
1100
0000
,
0000
0000
0110
0000
0000
0000
0012
0000
0000
0000
1003
0010
0100
0000
0000
0000
,
0001
0100
1000
0001
0010
1000
0100
1200
,
0000
0000
0310
0000
0010
0000
0001
1000
0010
0000
1000
0000
1100
0000
0000
0000
,
0001
0000
0001
0000
0001
0000
1000
0010
,
0000
0000
0100
0000
0001
0000
0000
0000
0202
0000
0000
0000
0303
0003
0000
0000
,
1000
0000
1000
0000
1000
0000
0001
0020
,
0000
0130
1000
0001
1000
0010
0100
0000
,
0002
0000
0103
0010
2000
0000
3100
0010
,
0002
0000
2003
0000
3010
0100
0010
0100
,
0000
0001
0010
0100
1000
0001
0100
0101
,
0000
0000
0110
0000
0000
0000
1000
0000
0001
0000
0000
0000
1000
0001
1000
0001
,
0200
1300
0200
1300
0200
0301
0010
0100
,
1000
0000
0010
0000
0100
0000
0001
0000
1000
0000
0100
0010
0001
0000
1000
0000
,
0020
0031
0020
0031
0020
1030
0100
0120
,
0000
0000
0031
0000
1000
0000
0010
0000
0100
0001
0100
0001
1000
0000
0000
0000
,
1001
0000
0001
0000
0100
0000
0010
1000
0010
0000
0100
0000
0001
0000
1000
0100
,
1000
0001
0100
1000
0001
0010
1000
0200
,
0000
0310
0001
1000
0010
0100
0001
0201
,
0000
0000
0310
0000
1000
0000
0001
0010
0100
0000
1000
0000
1001
0000
0000
0000
,
1010
0000
0020
0000
0000
0000
0130
0001
0100
0000
0010
0000
1000
0000
0100
0000
,
0010
0000
0001
0000
1000
0000
0001
1000
0001
0000
1000
0000
0010
0000
0100
0000
,
0010
0000
0020
0000
0000
0000
1030
0001
1000
0000
0001
0000
0010
0000
0100
0000
,
1000
0000
0010
0000
0100
0000
0001
0000
1000
0001
1000
0001
0100
0000
0000
0000
,
0101
0000
0200
0000
0000
0000
0310
1000
0010
0000
0100
0000
0001
0000
0010
0000
,
0100
0000
1000
0000
0001
0000
1000
0001
1000
0000
0001
0000
0100
0000
0010
0000
,
1000
1010
0000
0110
0000
1001
0000
0000
,
2000
0000
0000
3200
0000
0301
0100
1000
,
0000
0001
1000
0000
0001
0100
0010
1000
,
0002
0000
0013
0200
0000
1300
0010
0200
,
0000
0301
1000
0001
0010
0100
1003
0000
,
0002
0000
0000
0023
0000
1030
0010
0001
,
0000
1000
0001
0000
1000
0010
0100
0001
,
2000
0000
3100
0020
0000
0031
0100
0020
,
0000
1030
0001
1000
0001
0000
0000
0000
;

//---------------dance-single - ----------------
#NOTES:
     dance-single:
     :
     Easy:
     9:
     0.508259,0.582002,0.363042,0.435651,0.000000,392.000000,352.000000,40.000000,48.000000,0.000000,0.000000,0.508259,0.582002,0.363042,0.435651,0.000000,392.000000,352.000000,40.000000,48.000000,0.000000,0.000000:
0000
0000
0000
0000
,
0000
0000
0000
0000
,
0000
0000
0000
0000
,
0000
0000
0000
0000
,
0001
0100
0010
1000
,
0001
0010
0100
0010
,
0010
0001
1000
0010
,
0100
0000
0000
1001
,
0001
0100
0000
0100
0010
0000
1000
0000
,
0001
0010
0100
0000
1000
0010
0100
0000
,
0001
1000
0000
0000
0001
0000
0010
0000
,
0100
1000
0001
0000
2002
0000
3003
0000
,
1000
0010
0000
0010
0100
0000
0001
0000
,
1000
0100
0010
0000
0001
0100
0010
0000
,
1000
0100
0000
0010
0000
0011
0000
0000
,
1000
0000
0001
0100
0000
0001
1000
0000
,
0001
0010
0000
0001
1000
0000
0010
0000
,
0100
0000
0001
0000
1000
0000
0100
0010
,
0000
0010
0001
0000
1000
0001
0100
0000
,
0001
1000
0001
1000
0000
0000
1000
0100
,
1000
0100
0000
0000
1000
0001
1000
0001
,
1000
0010
0100
0001
,
1000
1010
0110
0101
,
2001
0000
0000
0010
0000
0000
0001
0000
,
0000
0100
0000
0000
3010
0000
1010
0000
,
1002
0000
0000
0100
0000
0000
1000
0000
,
0000
0010
0000
0000
1003
0000
0011
0000
,
2001
0000
0000
0010
0000
0000
0001
0000
,
0000
0100
0000
0000
3001
0000
0100
0000
,
0202
0000
0000
0303
,
1000
0000
0000
0000
,
0101
0000
0101
0000
0101
0000
1000
0100
,
0000
0010
0001
0000
1000
0000
0001
0000
,
1010
0000
1010
0000
1010
0000
0001
0100
,
0000
0100
0010
0000
1000
0100
0010
0000
,
0002
0000
0013
0100
2000
0000
3010
0100
,
0020
2030
3002
0023
,
0130
1000
0001
0000
1000
0000
0010
0100
,
0000
0100
0001
0000
1000
0001
0100
0000
,
1010
0000
1010
0000
1010
0000
0001
0010
,
0000
0100
1000
0000
0001
0000
1000
0000
,
0101
0000
0101
0000
0101
0000
1000
0010
,
0000
0010
0100
0000
0001
0010
0100
0000
,
2000
0000
3100
0010
0002
0000
0103
0010
,
0200
0302
2003
3200
,
0310
0001
1000
0000
0001
0000
0100
0010
,
0000
0010
1000
0000
0001
0010
0100
0000
,
1000
0020
0000
0000
0130
0001
1000
0000
,
0001
0010
0000
0100
0000
1000
0001
0000
,
1000
0020
0000
0000
0130
0001
1000
0000
,
0101
0110
1010
1001
,
0001
0020
0000
0000
0130
0000
1000
0000
,
0001
1000
0000
0010
0000
1000
0001
0000
,
1000
0100
0010
0000
0001
0100
0010
2000
,
0000
3001
0100
0101
,
2000
0100
0100
0100
,
0001
0001
3001
0000
,
0002
0100
0100
0100
,
1000
1000
1003
0000
,
2000
0000
3100
0010
0200
0000
0310
0001
,
0020
0032
2003
3020
,
0130
0000
0000
0001
0000
0000
0000
1001
,
0000
0113
0000
1000
0001
0000
0000
0000
,
1100
0000
0110
0000
0012
0000
1003
0010
,
1000
0010
0200
0000
0301
0000
1000
0000
,
0101
0000
0110
0000
2010
0000
3001
0020
,
0000
0000
0130
0000
1000
0001
1000
0000
,
0002
0000
0103
0010
2000
0000
3100
0010
,
0001
0000
1000
0000
0001
0100
0001
0100
,
0000
0000
0010
0000
1000
0100
0000
1100
,
0000
0101
0000
1000
0002
0000
0103
0000
,
0001
1000
0000
1000
0200
0000
0310
0000
,
0001
1000
0001
0000
1000
0010
0100
0000
,
0001
0010
0000
0010
0200
0000
1300
0000
,
0010
0100
0001
0000
2000
0000
3001
0000
,
1000
0200
0000
0000
0310
0000
0001
0000
,
1000
0010
0100
0000
0001
0010
0100
0000
,
1000
0100
0000
0010
0000
1001
0000
0000
,
0002
0000
0000
0203
0000
0000
0000
0320
,
0000
0000
1030
0001
,
2000
0000
0000
3200
0000
0000
0000
0320
,
0000
0000
0031
1000
,
0010
0000
0000
0010
0000
0000
0000
0100
,
0000
0000
0100
0001
,
1000
0000
0000
1000
0000
0000
0000
0001
,
0000
1000
0001
1000
0001
0000
0000
0000
;

//---------------dance-single - ----------------
#NOTES:
     dance-single:
     :
     Beginner:
     4:
     0.203563,0.270013,0.036304,0.000000,0.000000,157.000000,153.000000,4.000000,0.000000,0.000000,0.000000,0.203563,0.270013,0.036304,0.000000,0.000000,157.000000,153.000000,4.000000,0.000000,0.000000,0.000000:
0000
0000
0000
0000
,
0000
0000
0000
0000
,
0000
0000
0000
0000
,
0000
0000
0000
0000
,
1000
0000
0001
0000
,
0100
0000
0100
0000
,
0010
0000
1000
0000
,
0001
0000
0000
0000
,
1000
1000
0000
0000
,
0001
0000
0010
0000
,
0100
0100
0000
0000
,
0010
0000
0001
0000
,
0100
0100
0000
0000
,
0010
0000
1000
0000
,
0001
0000
0000
0000
,
1000
0000
0001
0000
,
0100
0000
0100
0000
,
0001
0000
1000
0000
,
0100
0000
0100
0000
,
0010
0000
0010
0000
,
0001
0000
1000
0000
,
0010
0000
0010
0000
,
0100
0000
0100
0000
,
1001
0000
0000
0000
,
0000
0000
0010
0000
,
1001
0000
0000
0000
,
0000
0000
0100
0000
,
1001
0000
0000
0000
,
0000
0000
1000
0000
,
1001
0000
0000
0000
,
0001
0000
0000
0000
,
1000
1000
1000
0000
,
0001
0000
0100
0000
,
0010
0010
0010
0000
,
1000
0000
0100
0000
,
0010
0000
0010
0000
,
0001
0000
1000
0000
,
0010
0000
0010
0000
,
0100
0100
0100
0000
,
0001
0001
0001
0000
,
1000
0000
0001
0000
,
0010
0010
0010
0000
,
0100
0000
1000
0000
,
0010
0000
0010
0000
,
0100
0000
0100
0000
,
0001
0000
1000
0000
,
0001
0001
0001
0000
,
1000
0000
1000
0000
,
1000
0000
0000
0000
,
0010
0000
0010
0000
,
0100
0100
0100
0100
,
0100
0000
0100
0000
,
0001
0000
0000
0000
,
0001
0001
0001
0000
,
1000
1000
1000
0000
,
0010
0000
0010
0000
,
0010
0000
0000
0000
,
0100
0000
0100
0000
,
0100
0000
0000
0000
,
0001
0000
0001
0000
,
0001
0000
0000
0000
,
1000
0000
0000
0000
,
0010
0000
0000
0000
,
1000
1000
1000
0000
,
1000
0000
0001
0000
,
0100
0100
0100
0000
,
0100
0000
0010
0000
,
1000
0000
1000
0000
,
0001
0000
0001
0000
,
0010
0000
0010
0000
,
0100
0100
0100
0000
,
1000
1000
0000
0000
,
0001
0000
1000
0000
,
0010
0010
0000
0000
,
1000
0000
0001
0000
,
0100
0100
0000
0000
,
0001
0000
1000
0000
,
0100
0100
0000
0000
,
0100
0000
0000
0000
,
0100
0000
0000
0000
,
0010
0000
0000
0000
,
0010
0000
0000
0000
,
0001
0000
0000
0000
,
0001
0000
0000
0000
,
1000
0000
1000
0000
,
1000
0000
0000
0000
;

//---------------dance-double - ----------------
#NOTES:
     dance-double:
     :
     Hard:
     17:
     0.980214,1.164004,0.335814,0.544563,0.730623,756.000000,719.000000,37.000000,60.000000,0.000000,0.000000,0.980214,1.164004,0.335814,0.544563,0.730623,756.000000,719.000000,37.000000,60.000000,0.000000,0.000000:
// measure 0
00000000
00000000
00000000
00000000
,  // measure 1
00000000
00000000
00000000
00000000
,  // measure 2
00000000
00000000
00000000
00000000
,  // measure 3
00000000
00000000
00000000
00000000
,  // measure 4
00020000
00000000
00000000
00000000
00031000
00000000
02000000
00000000
00000000
00000000
03010000
00100000
00010000
00000000
20000000
00000000
,  // measure 5
00000000
00000000
30100000
01000000
00100000
00000000
01000000
00000000
00010000
00000000
10000000
01000000
00100000
00010000
10000000
00010000
,  // measure 6
00100000
00001000
00010000
00002000
00000000
00013000
00000010
00000200
,  // measure 7
00000000
00000000
00000301
00001000
00000001
00000000
00001000
00000000
00000010
00000000
00000100
00000000
00001001
00000000
00000000
00000000
,  // measure 8
00000101
00000000
00000200
00000000
00000000
00000000
00000310
00001000
00000001
00000000
00001000
00000100
00001000
00000000
00000001
00000000
,  // measure 9
00000100
00000000
00000010
00000100
00000010
00001000
00000100
00010000
00000100
00010000
00001000
00000000
00100000
00000000
00010000
00000000
,  // measure 10
01000000
00000000
00200000
00000000
00000000
00000000
10300000
00010000
01000000
00000000
00010000
00100000
00010000
00000000
01000000
00000000
,  // measure 11
00001000
00000000
00010000
00001000
00010000
00000000
00001000
00100000
00010000
01000000
00100000
10000000
00010000
00100000
01000000
10000000
,  // measure 12
00100000
00000000
00200000
00000000
00000000
00000000
01300000
00010000
10000000
00000000
00010000
00100000
00010000
00000000
10000000
00000000
,  // measure 13
00100000
00000000
01000000
00100000
01000000
00010000
00100000
00001000
00100000
00001000
00010000
00000000
00000100
00000000
00001000
00000000
,  // measure 14
00000010
00000000
00000100
00000001
00001000
00000000
00001100
00000000
00000000
00000000
00020100
00000000
00000000
00000000
00000000
00000000
,  // measure 15
00031000
00000000
00100000
00010000
00100000
00000000
00001000
00000000
01000000
00010000
01000000
00000000
00001000
00000000
00010000
00000010
,  // measure 16
00010000
00001000
00000100
00000001
00000010
00000100
00001000
00000001
,  // measure 17
00000100
00000000
00000010
00001000
00000100
00000000
00020000
00000000
00000000
00000000
00031000
00000000
01000000
00000000
00200000
00000000
,  // measure 18
00000000
00310000
00100000
10000000
01000000
00100000
00010000
00000000
,  // measure 19
10000000
00100000
00010000
00001000
00000200
00000000
00000301
00000010
,  // measure 20
00001000
00010000
02000000
00000000
13000000
00010000
10000000
00010000
,  // measure 21
02000000
00000000
03100000
00100000
10000000
01000000
00100000
00010000
,  // measure 22
00110000
00011000
00001010
00011000
,  // measure 23
00000010
00010000
00001000
00010000
00001000
00010000
00000100
00010000
00001000
00010000
00001000
00010000
00000010
00010000
00001000
00010000
,  // measure 24
00001000
00010000
00000100
00010000
00001000
00010000
00001000
00010000
00000200
00000000
00000000
00000000
00010300
00000000
00001000
00000000
,  // measure 25
01000000
00001000
00010000
00001000
00010000
00001000
00100000
00001000
00010000
00001000
00010000
00001000
01000000
00001000
00010000
00001000
,  // measure 26
00010000
00001000
00100000
00001000
00010000
00001000
00010000
00001000
00200000
00000000
00000000
00000000
00301000
00000000
00010000
00000000
,  // measure 27
00000100
00010000
00001000
00010000
00001000
00010000
00000010
00010000
00001000
00010000
00001000
00010000
00000100
00010000
00001000
00010000
,  // measure 28
00001000
00010000
00000010
00010000
00001000
00010000
00001000
00010000
00000100
00000000
00000010
00000000
00000001
00000000
00001000
00000000
,  // measure 29
00002002
00000000
00000000
00003003
,  // measure 30
00000110
00000000
00000000
00000000
00000000
00001000
00000001
00000000
,  // measure 31
00000001
00000000
00001000
00000100
00000010
00000000
00000001
00000100
00000010
00000000
00001000
00000100
00010000
00000000
00010000
00000000
,  // measure 32
00001000
00000000
00100000
00000000
00010000
00000000
01000000
00000000
00100000
00000000
10000000
01000000
00100000
00000000
00010000
00000000
,  // measure 33
10000000
00000000
00010000
00100000
01000000
00000000
10000000
00100000
01000000
00000000
00010000
00100000
00001000
00000000
00021000
00000000
,  // measure 34
00000000
00000000
00030100
00001000
00000010
00000100
00000001
00001000
00000100
00000010
00000001
00001000
00000001
00000100
00000010
00001000
,  // measure 35
00000002
00000030
00000100
00000000
00001003
00000000
00000010
00000000
00002000
00000000
00000100
00000000
00003001
00000000
00000010
00000000
,  // measure 36
00000100
00000100
00010000
00010000
00001000
00010000
00100000
10000000
,  // measure 37
00010000
00100000
10000000
00100000
00010000
01000000
00001000
00012000
,  // measure 38
00000000
00000000
00103000
00010000
00100000
00000000
00010000
01000000
00100000
00000000
10000000
01000000
00100000
00000000
00000000
00000000
,  // measure 39
00110000
00000000
00010000
00000000
01010000
00000000
00010000
00000000
10010000
00000000
10000000
01000000
00100000
00000000
00010000
00000000
,  // measure 40
01000000
00000000
00001000
00010000
00001000
00000000
00010000
00000000
00000100
00000000
00000010
00000001
00001000
00000000
00000100
00000000
,  // measure 41
00001100
00000000
00001000
00000000
00001010
00000000
00001000
00000000
00001001
00000000
00000001
00000010
00000100
00000000
00010200
00000000
,  // measure 42
00000000
00000000
00010300
00001000
00100000
00010000
01000000
00100000
10000000
01000000
00100000
00010000
10000000
00010000
01000000
00100000
,  // measure 43
20000000
03000000
00100000
00000000
30010000
00000000
01000000
00000000
00020000
00000000
00100000
00000000
10030000
00000000
01000000
00000000
,  // measure 44
00100000
00100000
00001000
00001000
00010000
00001000
00000100
00000001
,  // measure 45
00001000
00000100
00000001
00000100
00001000
00000010
00010000
00021000
,  // measure 46
00000000
00000000
00030100
00001000
00000100
00000000
00001000
00000010
00000100
00000000
00000001
00000010
00000100
00000000
00000000
00000000
,  // measure 47
00001001
00000000
00000002
00000000
00000000
00000000
00000103
00000000
00000010
00000000
00001000
00000100
00010000
00000000
00001000
00000000
,  // measure 48
01000000
00000000
00100000
01000000
00010000
00000000
20000000
00000000
00000000
00000000
31000000
00100000
00010000
00000000
10000000
00010000
,  // measure 49
10000000
00100000
01000000
01310000
00000000
10100000
00000000
00010000
,  // measure 50
00100000
00001000
00100000
00001000
00010000
00000100
00010000
00000100
00001000
00000010
00001000
00000010
00000100
00000001
00000100
00000001
,  // measure 51
00001000
00000000
00000200
00000000
00000000
00000000
00000310
00000000
00000001
00000000
00001000
00000010
00000100
00000000
00000101
00000000
,  // measure 52
00000000
00000000
00001010
00000000
00000000
00000000
00020100
00000000
00000000
00000000
00031000
00100000
00010000
00000000
00000000
00000000
,  // measure 53
00100000
00010000
01000000
10000000
01000000
00100000
10000000
12000000
,  // measure 54
00000000
00000000
03100000
00010000
10000000
00000000
00010000
01000000
00001000
00000000
00010000
00000000
00011000
00000000
00000000
00000000
,  // measure 55
00100000
00000000
00100000
00000000
00100000
00000000
00001000
00010000
,  // measure 56
00000000
00001000
00010000
00000000
00022000
00000000
00033000
00000000
,  // measure 57
00000010
00000000
00000010
00000000
00000010
00000000
00010000
00002000
,  // measure 58
00000000
00103000
00010000
00100000
00001000
00010000
00000020
00000000
,  // measure 59
00000230
00000000
00000301
00001000
00000002
00000000
00000013
00000100
,  // measure 60
00000010
00000100
00001000
00000100
00010000
00001000
00100000
00020000
,  // measure 61
00000000
10030000
00100000
01000000
00100000
00010000
00100000
10100000
,  // measure 62
00000000
00000000
01100000
00000000
00000000
00000000
00010000
00000000
20010000
00000000
00000000
00000000
30010000
00100000
00010000
00100000
,  // measure 63
00002000
00000000
00013000
00000000
00200000
00000000
00310000
00000000
00002000
00000000
00013000
00000100
00000310
00000000
00000001
00000000
,  // measure 64
00000100
00000000
00000010
00000000
00001000
00000000
00000010
00000000
00010000
00000000
00000100
00010000
00001000
00000000
00000000
00000000
,  // measure 65
00020000
00000000
00031000
00000000
00000200
00000000
00001300
00000000
00020000
00000000
00031000
00100000
01300000
00000000
21000000
00000000
,  // measure 66
00000000
00000000
30010000
01000000
00010000
10000000
01000000
00100000
00010000
01000000
00100000
01000000
00010000
00100000
00001000
00010000
,  // measure 67
00000100
00000000
00001000
00000000
00000010
00000000
00000100
00000001
00001000
00000000
00000001
00000000
00000010
00000000
00000100
00000010
,  // measure 68
00000001
00000100
00001000
00010000
00100000
10000000
01000000
00100000
,  // measure 69
00001000
00010000
00000100
00000100
00001000
00000010
00001000
00001200
,  // measure 70
00000000
00000000
00010300
00000000
00001000
00000000
00100000
00010000
01000000
00000000
00100000
00000000
10000000
00000000
00000000
00000000
,  // measure 71
10010000
00000000
00020000
00000000
00000000
00000000
01330000
00100000
10000000
00000000
00010000
00100000
00010000
00000000
10000000
00000000
,  // measure 72
00100000
00000000
01000000
00100000
01000000
00010000
00100000
00001000
00100000
00001000
00010000
00000000
00000100
00000000
00001000
00000000
,  // measure 73
00000010
00000000
00000200
00000000
00000000
00000000
00000301
00001000
00000010
00000000
00001000
00000100
00001000
00000000
00000010
00000000
,  // measure 74
00010000
00000000
00001000
00010000
00001000
00000000
00010000
00000100
00001000
00000010
00000100
00000001
00001000
00000100
00000010
00000001
,  // measure 75
00000100
00000000
00000200
00000000
00000000
00000000
00000310
00001000
00000001
00000000
00001000
00000100
00001000
00000000
00000001
00000000
,  // measure 76
00000100
00000000
00000010
00000100
00000010
00001000
00000100
00010000
00000100
00010000
00001000
00000000
00100000
00000000
00010000
00000000
,  // measure 77
01000000
00000000
00100000
10000000
00010000
00000000
00110000
00000000
00000000
00000000
00102000
00000000
00000000
00000000
00000000
00000000
,  // measure 78
00023000
00000000
00000000
00000000
00000000
00000000
00030020
00000000
00000000
00000000
00000130
00000001
00000100
00000000
00000002
00000000
,  // measure 79
00000000
00000000
00001003
00000000
00000100
00000000
00000100
00000000
00010000
00000000
00001000
00100000
00001000
00100000
00010000
10000000
,  // measure 80
00010000
01000000
00100000
00200000
00000000
10300000
01000000
00100000
,  // measure 81
00010000
00310000
01000000
01000000
00001000
00010000
00100000
00010000
,  // measure 82
00032000
00000000
00000000
00000000
00000000
00000000
02003000
00000000
00000000
00000000
03100000
10000000
00100000
00000000
20000000
00000000
,  // measure 83
00000000
00000000
30010000
00000000
00100000
00000000
00100000
00000000
00001000
00000000
00010000
00000100
00010000
00000100
00001000
00000001
,  // measure 84
00001000
00000010
00000100
00000200
00000000
00000301
00000010
00000200
,  // measure 85
00000000
00000000
00010300
00001000
00010000
00000000
00001000
00000000
00010000
00000000
00000000
00000000
00000000
00000000
00000000
00000000
;

//---------------dance-double - ----------------
#NOTES:
     dance-double:
     :
     Medium:
     14:
     0.833701,0.853603,0.399347,0.553639,0.313124,643.000000,599.000000,44.000000,61.000000,0.000000,0.000000,0.833701,0.853603,0.399347,0.553639,0.313124,643.000000,599.000000,44.000000,61.000000,0.000000,0.000000:
00000000
00000000
00000000
00000000
,
00000000
00000000
00000000
00000000
,
00000000
00000000
00000000
00000000
,
00000000
00000000
00000000
00000000
,
00002000
00000000
00000000
00000000
00103000
00003000
00020000
00000000
00000000
00000000
10030000
00000000
00100000
00000000
20000000
00000000
,
00000000
30010000
01000000
00100000
10000000
01000000
00100000
00000000
,
00001000
00000000
00010000
00000000
00001000
00000000
00020000
00000000
00000000
00000000
00030100
00030000
00000010
00000000
00000002
00000000
,
00000000
00000000
00001003
00000003
00000001
00000000
00001000
00000000
00000000
00000000
00000000
00000000
00001001
00000000
00000000
00000000
,
00000101
00000000
00000200
00000000
00000000
00000000
00000310
00000000
00001000
00000000
00000100
00010000
00000100
00000000
00010000
00000000
,
00001000
00000000
00100000
00000000
00010000
00000000
10000000
00010000
10000000
00000000
00010000
00000000
01000000
00000000
00100000
00000000
,
10000000
00000000
20000000
00000000
00000000
00000000
30010000
01000000
00010000
00000000
10000000
00000000
01000000
00000000
00100000
00000000
,
00010000
00000000
10000000
00010000
10000000
00000000
00010000
00000000
01000000
00000000
00001000
00000000
00010000
00001000
00010000
00001000
,
00010000
00000000
00000200
00000000
00000000
00000000
00001300
00000010
00001000
00000000
00000100
00000000
00000010
00000000
00000001
00000000
,
00001000
00000000
00000001
00000100
00000001
00000000
00000100
00000000
00000010
00000100
00000010
00000000
00001000
00000000
00000100
00000000
,
00010000
00010100
00000000
00011000
00000000
00201000
00000000
00000000
,
00310000
00000000
10000000
01000000
10000000
00000000
00010000
00000000
10000000
00100000
10000000
00000000
00010000
00000000
10000000
01000000
,
10000000
00000000
00010000
00000000
10000000
00100000
10000000
00000000
01000000
00000000
00100000
00000000
00010000
00000000
02000000
00000000
,
00000000
00000000
03001000
03000000
00010000
00000000
00001000
00000000
00010000
00000000
00000100
00000000
00000010
00000000
00000002
00000000
,
00000030
00000000
00001003
00000003
00000010
00000000
00000100
00000000
00000001
00000000
00001000
00000000
00000002
00000000
00000000
00000000
,
00001003
00000100
00000001
00000100
00002000
00000000
00003001
00000100
,
00001000
00000100
00000002
00000000
00000013
00000100
00010000
00001000
,
00200000
00000000
00310000
10000000
00100000
01000000
00010000
00100000
,
00110000
00011000
00001010
00011000
,
00001000
00000000
00100000
00010000
00100000
00000000
00001000
00000000
00010000
00000010
00010000
00000000
00001000
00000000
00100000
00001000
,
00100000
00000000
00001000
00000000
00010000
00000010
00010000
00000000
00001000
00000000
00100000
00000000
00001000
00000000
00000000
00000000
,
00010000
00000000
00000100
00010000
00000100
00000000
00010000
00000000
00001000
01000000
00001000
00000000
00010000
00000000
00000100
00010000
,
00000100
00000000
00010000
00000000
00001000
01000000
00001000
00000000
00010000
00000000
00001000
00000000
00010000
00000000
00000000
00000000
,
00001000
00000000
00100000
00010000
00100000
00000000
00001000
00000000
00010000
00000010
00010000
00000000
00001000
00000000
01000000
00010000
,
01000000
00000000
00001000
00000000
00010000
00000100
00010000
00000000
00001000
00000000
00000100
00000000
00000001
00000000
00001000
00000000
,
00002002
00000000
00000000
00003003
,
00000110
00000000
00000000
00000000
00000000
00000001
00001000
00000000
,
00000101
00000000
00000110
00000000
00001010
00000010
00000100
00000001
,
00000010
00000000
00000100
00000000
00010000
00000000
00001000
00000000
00100000
00000000
00010000
01000000
00100000
00000000
10000000
00000000
,
10100000
00000000
10010000
00000000
01010000
00010000
10000000
02000000
,
00000000
00000000
03100000
00000000
00010000
00000000
10000000
00000000
00100000
00000000
01000000
00000000
00010000
10000000
00010000
10000000
,
00100000
00000000
01000000
00000000
00010000
00000000
00100000
00001000
00100000
00000000
00001000
00000000
00100000
00000000
00010000
10000000
,
00010000
10000000
00100000
01000000
00010000
00100000
00001000
00020000
,
00000000
00030100
00000010
00000100
00010000
00000010
00000100
00000120
,
00000000
00001030
00001000
00000100
00010000
00001000
00011000
00000000
,
00101000
00000000
00010010
00000000
00011000
00001000
00100000
00010000
,
01000000
00000000
00100000
00000000
10000000
00000000
01000000
00000000
00100000
00000000
00010000
01000000
00001000
00000000
00010000
00000000
,
00010100
00000000
01001000
00000000
00011000
00010000
00000100
00002100
,
00000000
00000000
00003001
00000000
00000100
00000000
00000010
00000000
00001000
00000001
00001000
00000001
00000100
00000000
00000010
00000000
,
00001000
00000000
00000001
00000000
00001000
00000000
00000100
00010000
00000100
00000000
00010000
00000000
00000100
00000000
00001000
00000001
,
00001000
00000001
00000100
00000010
00001000
00000100
00010000
00002000
,
00000000
00103000
01000000
00100000
00001000
01000000
00100000
02100000
,
00000000
00000000
03010000
00000000
00010000
00000000
00100000
00001000
00100000
00000000
00001000
00000000
00010000
00000000
00000000
00000000
,
00010100
00000000
00000200
00000000
00000000
00000000
00000310
00000000
00000001
00000000
00001000
00000001
00001000
00000000
00000010
00000000
,
00000100
00000000
00000002
00000030
00000000
00000000
00002003
00000000
00000000
00000000
00003100
00010000
00000100
00000000
00000000
00000000
,
00010000
00001000
01000000
01010000
00000000
10100000
00000000
00010000
,
10000000
01000000
10000000
00000000
00010000
01000000
00010000
00000000
10000000
00100000
10000000
00000000
00010000
00100000
00010000
00000000
,
10000000
00000000
00200000
00000000
00000000
00000000
01300000
00000000
00010000
00000000
00100000
00001000
00100000
00000000
00002000
00000000
,
00000000
00000000
00023000
00000000
00000000
00000000
00030100
00000000
00001000
00000000
00000010
00000100
00000010
00000000
00000000
00000000
,
00001000
00000010
00000001
00001000
00000100
00000001
00000010
00000012
,
00000000
00000000
00001003
00000000
00001000
00000000
00000100
00010000
00000100
00000000
00010000
00000000
00001000
00000000
00000000
00000000
,
00101000
00000000
00100000
00000000
00100000
00000000
00001000
00010000
,
00000000
00001000
00010000
00000000
00022000
00000000
00033000
00000000
,
00010010
00000000
00000010
00000000
00000010
00000000
00010000
00002000
,
00000000
00103000
00010000
00100000
00010000
10000000
00100000
00000000
,
02000000
00000000
03010000
01000000
00020000
00000000
10030000
01000000
,
00100000
01000000
00100000
00010000
01000000
00001000
00010000
00000200
,
00000000
00001300
00000010
00001000
00000001
00000010
00000001
00000101
,
00000000
00000110
00000000
00001000
00000002
00000000
00001003
00000000
,
00002000
00003100
00000002
00000103
00000020
00000130
00001000
00000001
,
00000100
00000000
00000010
00000000
00001000
00000000
00000100
00000000
00010000
00000000
00001000
00100000
00010000
00000000
01000000
00000000
,
00020000
00130000
20000000
30100000
02000000
03100000
00010000
20010000
,
00000000
00000000
30100000
30000000
01000000
00000000
00010000
00000000
10000000
01000000
10030000
01000000
00100000
00000000
00000000
00000000
,
10010000
00000000
00010000
00000000
01000000
00000000
00001000
00010000
00001000
00000000
00010000
00000000
00000100
00000000
00001000
00000010
,
00001000
00000100
00000001
00000100
00001000
00000010
00000100
00000001
,
00001000
00000100
00000100
00000001
00000100
00001000
00000010
00002010
,
00000000
00000000
00003100
00000000
00010000
00000000
00001000
00010000
00031000
00000000
00100000
00000000
00010000
00000000
00000000
00000000
,
10010000
00000000
00020000
00000000
00000000
00000000
01330000
00000000
00010000
00000000
00100000
00001000
00100000
00000000
00001000
00000000
,
00010000
00000000
00000100
00000000
00001000
00000000
00000001
00001000
00000001
00000000
00001000
00000000
00000010
00000000
00000100
00000000
,
00000001
00000000
00000002
00000000
00000000
00000000
00001003
00000010
00001000
00000000
00000001
00000000
00000010
00000000
00000100
00000000
,
00001000
00000000
00000001
00001000
00000001
00000000
00001000
00000000
00000010
00000000
00010000
00000000
00001000
00010000
00001000
00010000
,
00001000
00000000
00200000
00000000
00000000
00000000
00310000
01000000
00010000
00000000
00100000
00000000
01000000
00000000
10000000
00000000
,
00010000
00000000
10000000
00100000
10000000
00000000
00100000
00000000
01000000
00100000
01000000
00000000
00010000
00000000
00100000
00000000
,
00001000
00101000
00000000
00011000
00000000
00010200
00000000
00000000
,
00002300
00000000
00000000
00000000
00000000
00000000
00003002
00000000
00000000
00000000
00000103
00000003
00000010
00000000
00000200
00000000
,
00000000
00000301
00000010
00000100
00001000
00010000
00100000
01000000
,
20000000
00000000
30010000
02000000
00000000
03100000
10000000
00020000
,
00000000
00130000
00001000
01000000
00100000
01000000
00010000
00000000
,
10320000
00000000
00000000
00000000
00000000
00000000
20030000
00000000
00000000
00000000
30100000
30000000
01000000
00000000
00200000
00000000
,
00000000
10300000
01000000
00100000
00010000
00001000
00000100
00000010
,
00000002
00000000
00001003
00000020
00000000
00000130
00000001
00002000
,
00000000
00003100
00010000
00000100
00010000
00000000
00000000
00000000
;

//---------------dance-double - ----------------
#NOTES:
     dance-double:
     :
     Easy:
     9:
     0.538081,0.582002,0.381194,0.490107,0.000000,415.000000,373.000000,42.000000,54.000000,0.000000,0.000000,0.538081,0.582002,0.381194,0.490107,0.000000,415.000000,373.000000,42.000000,54.000000,0.000000,0.000000:
00000000
00000000
00000000
00000000
,
00000000
00000000
00000000
00000000
,
00000000
00000000
00000000
00000000
,
00000000
00000000
00000000
00000000
,
00010000
00000000
00000100
00000000
00001000
00000010
00000100
00000000
,
00000001
00000000
00001000
00000000
00000001
00000010
00000100
00000000
,
00001000
00000000
00000010
00010000
00000000
00001000
00010000
00001000
,
00000000
00100000
00010000
00100000
00000000
00010000
10000000
00000000
,
00010000
02000000
00000000
03100000
10000000
00010000
10000000
00000000
,
00010000
00100000
01000000
00000000
10000000
00100000
01000000
00000000
,
00001000
00020000
00000000
00000000
00030100
00001000
00000100
00000000
,
00001000
00000010
00000100
00000000
00000001
00001000
00000001
00000000
,
00001000
00000020
00000000
00000130
00000001
00001000
00000001
00000000
,
00001000
00000100
00000010
00000000
00000001
00000100
00000010
00000000
,
00010000
00002000
00000000
02003000
00000000
03100000
00000000
00000000
,
10000000
00000000
00010000
01000000
00000000
00010000
10000000
00000000
,
00010000
00100000
00000000
00010000
10000000
00000000
00010000
00000000
,
01000000
00000000
00001000
00000000
00010000
00000000
00000100
00000010
,
00000000
00000010
00000001
00000000
00001000
00000010
00000100
00000000
,
00000001
00000100
00000001
00000100
00000010
00000000
00001000
00000100
,
00001000
00000100
00000010
00000000
00000001
00001000
00000001
00001000
,
00000010
00000000
00000100
00000000
00000001
00001000
00000100
00000000
,
00001000
00001100
00001100
00010100
,
00012000
00000000
00000000
00100000
00000000
00000000
00010000
00000000
,
00000000
01000000
00000000
00000000
00013000
00000000
00001000
00000000
,
00021000
00000000
00000000
00000100
00000000
00000000
00001000
00000000
,
00000000
00000010
00000000
00000000
00031000
00000000
00010000
00000000
,
00012000
00000000
00000000
00100000
00000000
00000000
00010000
00000000
,
00000000
01000000
00000000
00000000
00013000
00000000
00001000
00000000
,
00022000
00000000
00000000
00033000
,
00011000
00000000
00000000
00000000
,
10010000
00000000
10010000
00000000
10010000
00000000
10000000
01000000
,
00000000
00100000
00010000
00000000
02020000
00000000
03030000
00000000
,
10010000
00000000
10010000
00000000
10010000
00000000
00010000
01000000
,
00000000
01000000
00001000
00000000
00010000
00000100
00000010
00000000
,
00000002
00000000
00000013
00000100
00002000
00000000
00003010
00000100
,
00000002
00002003
00003020
00000130
,
00000001
00001000
00000100
00000000
00010000
00000000
00000100
00001000
,
00000000
00001000
00000010
00000000
00000100
00000001
00001000
00000000
,
00001001
00000000
00001001
00000000
00001001
00000000
00000001
00000010
,
00000000
00000100
00001000
00000000
00002020
00000000
00003030
00000000
,
00001001
00000000
00001001
00000000
00001001
00000000
00001000
00000010
,
00000000
00000010
00010000
00000000
00001000
00100000
01000000
00000000
,
20000000
00000000
31000000
00100000
00020000
00000000
01030000
00100000
,
20000000
30020000
02030000
03100000
,
10000000
00010000
00100000
00000000
00001000
00000000
00100000
00010000
,
00000000
00010000
01000000
00000000
00100000
10000000
00010000
00000000
,
10000000
02000000
00000000
00000000
03100000
00010000
10000000
00000000
,
00010000
01000000
00010000
00000000
01000000
00001000
00010000
00000000
,
00000100
00000020
00000000
00000000
00000031
00000000
00001000
00000000
,
00001001
00000110
00001001
00000110
,
00000001
00000200
00000000
00000000
00000310
00001000
00000100
00000000
,
00010000
00001000
00010000
00000000
00001000
00100000
00010000
00000000
,
10000000
00100000
10000000
00100000
01000000
00010000
00000000
00200000
,
00000000
00302000
00000000
00023000
00000000
00000000
00030010
00000000
,
00001010
00001010
00001010
00000001
,
00000100
00000010
00002002
00003003
,
00000011
00000011
00000011
00000010
,
00000100
00000000
00010000
00000000
00001000
00010000
00001000
00000000
,
00200000
00000000
00000000
00310000
02000000
00000000
00000000
03100000
,
10000000
00000000
00010000
00000000
10000000
01000000
00100000
00010000
,
10000000
00000000
00000000
00000000
00000000
00000000
00000000
10010000
,
00000000
01100000
00000000
00010000
10000000
00000000
00000000
00000000
,
10100000
00000000
01100000
00000000
01010000
00000000
01000000
00001000
,
00000000
00001000
00010000
00000000
00000200
00000000
00000310
00000000
,
00000011
00000000
00000110
00000000
00001100
00000000
00000100
00020000
,
00000000
00000000
00031000
00000000
00100000
00010000
01000000
00000000
,
20010000
00000000
00000000
30100000
02000000
00000000
00000000
03001000
,
00010000
00000000
00000100
00000000
00001000
00000010
00001000
00000000
,
00000001
00001000
00000100
00000000
00000010
00000001
00000100
00000000
,
00000001
00001000
00000001
00001000
00000010
00000100
00000001
00000000
,
00001000
00000020
00000000
00000130
00000001
00001000
00000001
00000000
,
00001000
00000100
00000010
00000000
00000001
00000100
00000010
00000000
,
00010000
00002000
00000000
00000000
00103000
00010000
00100000
00000000
,
00010000
01000000
00100000
00000000
10000000
00010000
10000000
00000000
,
00010000
02000000
00000000
03100000
10000000
00010000
10000000
00000000
,
00010000
00100000
01000000
00000000
10000000
00100000
01000000
00000000
,
00001000
00020000
00000000
00030020
00000000
00000130
00000000
00000000
,
00000002
00000000
00000000
00000203
00000000
00000000
00000000
00000320
,
00000000
00000000
00001030
00000100
,
00020000
00000000
00000000
00032000
00000000
00000000
00000000
00203000
,
00000000
00000000
00310000
10000000
,
00200000
00000000
00000000
02300000
00000000
00000000
00000000
03020000
,
00000000
00000000
10030000
01000000
,
00200000
00000000
00000000
00302000
00000000
00000000
00000000
00013000
,
00000000
00001000
00010000
00001000
00010000
00000000
00000000
00000000
;
